<?xml version="1.0" standalone="no"?>
<!DOCTYPE svg PUBLIC "-//W3C//DTD SVG 1.1//EN" "http://www.w3.org/Graphics/SVG/1.1/DTD/svg11.dtd" >
<svg xmlns="http://www.w3.org/2000/svg" xmlns:xlink="http://www.w3.org/1999/xlink" version="1.1">
<metadata>
Created by FontForge 20201107 at Fri Sep 10 18:37:55 2021
 By 
Copyright 2020 The Jost Project Authors (https://github.com/indestructible-type/Jost)
</metadata>
<defs>
<font id="Jost-Black" horiz-adv-x="645" >
  <font-face 
    font-family="Jost Black"
    font-weight="900"
    font-stretch="normal"
    units-per-em="1000"
    panose-1="0 0 0 0 0 0 0 0 0 0"
    ascent="800"
    descent="-200"
    x-height="460"
    cap-height="700"
    bbox="-196 -374 2006 1070"
    underline-thickness="50"
    underline-position="-125"
    unicode-range="U+000D-FF19"
  />
<missing-glyph horiz-adv-x="500" 
 />
    <glyph glyph-name=".notdef" horiz-adv-x="500" 
 />
    <glyph glyph-name="uni0000" horiz-adv-x="300" 
 />
    <glyph glyph-name="uni0000" horiz-adv-x="300" 
 />
    <glyph glyph-name="uni000D" unicode="&#xd;" horiz-adv-x="300" 
 />
    <glyph glyph-name="space" unicode=" " horiz-adv-x="300" 
 />
    <glyph glyph-name="exclam" unicode="!" horiz-adv-x="370" 
d="M65 700l40 -450h160l40 450h-240zM67 75q0 -47 33 -76t85 -29q53 0 85.5 29t32.5 76t-32.5 76t-85.5 29q-52 0 -85 -29t-33 -76z" />
    <glyph glyph-name="quotedbl" unicode="&#x22;" horiz-adv-x="550" 
d="M90 700l-40 -330h125l115 330h-200zM320 700l-40 -330h125l115 330h-200z" />
    <glyph glyph-name="numbersign" unicode="#" horiz-adv-x="705" 
d="M75 395h147l34 10h212l38 -10h164v155h-595v-155zM35 155h595v155h-122l-36 -10h-248l-42 10h-147v-155zM485 700l-51 -208l1 -40l-49 -200l-17 -30l-54 -222h165l170 700h-165zM225 700l-170 -700h165l55 226l-3 30l47 194l20 42l51 208h-165z" />
    <glyph glyph-name="dollar" unicode="$" horiz-adv-x="647" 
d="M264 818l10 -200h134l10 200h-154zM274 70l-10 -182h153l-10 182h-133zM454 474l163 90q-25 39 -59 72.5t-86 53.5t-134 20t-143.5 -28t-96 -73.5t-34.5 -98.5t20.5 -91.5t52 -65.5t65 -44.5t59.5 -27.5q42 -16 71.5 -27.5t45.5 -23t16 -29.5q0 -15 -6.5 -24.5t-20.5 -14
t-37 -4.5q-33 0 -60 11t-51.5 35t-50.5 62l-148 -108q22 -43 68.5 -81t108 -62.5t128.5 -24.5q90 0 158 23.5t106 70.5t38 116q0 44 -12.5 79t-36.5 62.5t-56.5 47.5t-73.5 35q-42 16 -78.5 27t-58.5 25t-22 38q0 11 6 21t18.5 17t32.5 7q19 0 38 -9t37 -28t33 -48z" />
    <glyph glyph-name="percent" unicode="%" horiz-adv-x="1021" 
d="M15 525q0 -55 28 -100.5t75.5 -72.5t104.5 -27q58 0 105 27t75 72.5t28 100.5t-28 100.5t-75 72.5t-105 27q-57 0 -104.5 -27t-75.5 -72.5t-28 -100.5zM172 525q0 14 7 25t18.5 17.5t25.5 6.5t25.5 -6.5t18.5 -17.5t7 -25q0 -13 -7 -24.5t-18.5 -18t-25.5 -6.5t-25.5 6.5
t-18.5 18t-7 24.5zM590 176q0 -55 28 -100.5t75.5 -72.5t104.5 -27q58 0 105 27t75 72.5t28 100.5t-28 100.5t-75 72.5t-105 27q-57 0 -104.5 -27t-75.5 -72.5t-28 -100.5zM747 176q0 14 7 25t18.5 17.5t25.5 6.5t25.5 -6.5t18.5 -17.5t7 -25q0 -13 -7 -24.5t-18.5 -18
t-25.5 -6.5t-25.5 6.5t-18.5 18t-7 24.5zM703 700l-590 -700h205l590 700h-205z" />
    <glyph glyph-name="ampersand" unicode="&#x26;" horiz-adv-x="799" 
d="M223 364l341 -364h220l-370 385q-47 50 -72.5 79.5t-25.5 56.5q0 15 13 32t43 17q16 0 28 -8t18.5 -19t6.5 -21q0 -23 -27.5 -49.5t-83.5 -50.5q-22 -9 -56 -20t-71.5 -27t-71 -40t-54.5 -59.5t-21 -85.5q0 -64 33.5 -110t91 -70.5t130.5 -24.5q78 0 146 25t124 65
t99.5 87.5t71.5 92.5l-125 101q-27 -45 -59.5 -83.5t-70 -67t-77 -44.5t-79.5 -16q-30 0 -48 9.5t-26 24.5t-8 30q0 26 16 41.5t41 26t54 22t55 29.5q46 32 81 55t58.5 45t35.5 49t12 67q0 42 -25 82.5t-74.5 67.5t-122.5 27q-77 0 -131.5 -28.5t-82.5 -71.5t-28 -85
q0 -34 11.5 -61.5t32 -54t47.5 -56.5z" />
    <glyph glyph-name="quotesingle" unicode="'" horiz-adv-x="320" 
d="M90 700l-40 -330h125l115 330h-200z" />
    <glyph glyph-name="parenleft" unicode="(" horiz-adv-x="360" 
d="M180 780q-60 -112 -92.5 -237t-32.5 -253q0 -127 32.5 -252t92.5 -238h175q-52 113 -83.5 238t-31.5 252q0 128 31.5 253t83.5 237h-175z" />
    <glyph glyph-name="parenright" unicode=")" horiz-adv-x="360" 
d="M180 -200q60 113 92.5 238t32.5 252q0 128 -32.5 253t-92.5 237h-175q53 -112 84 -237t31 -253q0 -127 -31 -252t-84 -238h175z" />
    <glyph glyph-name="asterisk" unicode="*" horiz-adv-x="592" 
d="M515 606l-233 -123l28 -86l261 38zM522 283l-190 183l-72 -52l116 -237zM216 177l116 237l-72 52l-190 -183zM21 435l261 -38l28 86l-233 123zM206 700l45 -260h90l45 260h-180z" />
    <glyph glyph-name="plus" unicode="+" horiz-adv-x="710" 
d="M65 185h580v185h-580v-185zM255 565v-575h200v575h-200z" />
    <glyph glyph-name="comma" unicode="," horiz-adv-x="333" 
d="M103 110l-88 -259l148 -25l135 250z" />
    <glyph glyph-name="hyphen" unicode="-" horiz-adv-x="230" 
d="M5 155h220v165h-220v-165z" />
    <glyph glyph-name="period" unicode="." horiz-adv-x="336" 
d="M50 85q0 -47 33 -81t85 -34q53 0 85.5 34t32.5 81t-32.5 81t-85.5 34q-52 0 -85 -34t-33 -81z" />
    <glyph glyph-name="slash" unicode="/" horiz-adv-x="665" 
d="M465 700l-450 -850h195l440 850h-185z" />
    <glyph glyph-name="zero" unicode="0" horiz-adv-x="700" 
d="M250 350q0 42 7.5 75.5t21 57t31.5 35.5t40 12t40 -12t31.5 -35.5t21 -57t7.5 -75.5t-7.5 -75.5t-21 -57t-31.5 -35.5t-40 -12t-40 12t-31.5 35.5t-21 57t-7.5 75.5zM40 350q0 -120 39 -201t109 -122.5t162 -41.5q97 0 166.5 41.5t106.5 122.5t37 201t-37 201
t-106.5 122.5t-166.5 41.5q-92 0 -162 -41.5t-109 -122.5t-39 -201z" />
    <glyph glyph-name="one" unicode="1" horiz-adv-x="545" 
d="M60 459l185 41v-500h210v715l-395 -73v-183z" />
    <glyph glyph-name="two" unicode="2" horiz-adv-x="709" 
d="M20 0h654v200h-257l126 97q48 37 77 81.5t29 102.5q0 45 -19.5 87t-57 75.5t-92 53t-123.5 19.5q-102 0 -170.5 -40.5t-102.5 -105.5t-34 -140h215q0 28 10.5 51t29.5 36.5t44 13.5q19 0 32.5 -5.5t22.5 -14.5t13 -21t4 -25q0 -27 -12 -51t-34.5 -49.5t-53.5 -59.5z" />
    <glyph glyph-name="three" unicode="3" horiz-adv-x="666" 
d="M288 335q93 0 169.5 17.5t122.5 57t46 106.5q0 57 -32 102t-94 71t-152 26q-85 0 -147.5 -32t-96.5 -86t-34 -121h201q0 31 21 50t55 19q22 0 35.5 -5.5t20.5 -15.5t7 -23q0 -15 -9 -29t-25.5 -25t-39 -17t-48.5 -6v-89zM338 -20q100 0 168.5 28t104 76.5t35.5 110.5
q0 54 -25.5 92.5t-73 63.5t-113 36.5t-146.5 11.5v-104q41 0 68.5 -6.5t43.5 -18t23 -26t7 -29.5q0 -25 -11 -39.5t-29.5 -20t-41.5 -5.5q-22 0 -43.5 9t-35 30t-13.5 56h-216q0 -50 20 -97.5t58 -85.5t93.5 -60t126.5 -22z" />
    <glyph glyph-name="four" unicode="4" horiz-adv-x="768" 
d="M10 115h708v185h-143l-17 -35h-273l123 156v-234l-30 -11v-176h230v700h-180z" />
    <glyph glyph-name="five" unicode="5" horiz-adv-x="694" 
d="M654 220q0 75 -32 125t-81 75t-102 25q-37 0 -70.5 -4.5t-62.5 -18.5l35 88h291v190h-450l-101 -423q36 14 75 21t74.5 9.5t58.5 2.5q28 0 56 -4.5t47 -17t19 -38.5q0 -25 -15 -39.5t-42 -20t-65 -5.5q-18 0 -46 4.5t-61.5 15.5t-69.5 31l-62 -194q38 -15 82.5 -28
t98.5 -21t118 -8q51 0 104.5 13t99 41t73.5 73t28 108z" />
    <glyph glyph-name="six" unicode="6" horiz-adv-x="726" 
d="M269 255q0 28 12.5 48.5t34 32t47.5 11.5q27 0 48 -11.5t33.5 -32t12.5 -48.5t-12.5 -48t-33.5 -31t-48 -11q-26 0 -47.5 11t-34 31t-12.5 48zM335 695l-181 -215q-43 -51 -73.5 -105.5t-30.5 -119.5q0 -94 43 -155t114 -90.5t156 -29.5t156 29.5t114 90.5t43 155
q0 56 -20.5 98.5t-53.5 71.5t-72 43.5t-76 14.5q-40 0 -65 -8.5t-58 -37.5l52 27l231 231h-279z" />
    <glyph glyph-name="seven" unicode="7" horiz-adv-x="650" 
d="M30 495h299l-258 -495h239l340 700h-620v-205z" />
    <glyph glyph-name="eight" unicode="8" horiz-adv-x="676" 
d="M75 531q0 -52 24.5 -89.5t64 -61t85.5 -34.5t89 -11t89 11t85.5 34.5t64 61t24.5 89.5q0 65 -36.5 106.5t-96.5 62t-130 20.5t-130 -20.5t-96.5 -62t-36.5 -106.5zM281 511q0 18 7 31.5t20 20.5t30 7q18 0 30.5 -7t19.5 -20.5t7 -31.5t-7 -31.5t-19.5 -21.5t-30.5 -8
q-17 0 -30 8t-20 21.5t-7 31.5zM50 190q0 -52 24 -91.5t65.5 -65.5t93 -39.5t105.5 -13.5t105.5 13.5t93 39.5t65.5 65.5t24 91.5q0 60 -28 100t-72.5 64.5t-94.5 35t-93 10.5t-93 -10.5t-94.5 -35t-72.5 -64.5t-28 -100zM271 225q0 18 8.5 33t23.5 23.5t35 8.5t35 -8.5
t23.5 -23.5t8.5 -33q0 -23 -8.5 -38.5t-23.5 -23.5t-35 -8t-35 8t-23.5 23.5t-8.5 38.5z" />
    <glyph glyph-name="nine" unicode="9" horiz-adv-x="726" 
d="M457 445q0 -28 -12.5 -48.5t-33.5 -32t-48 -11.5q-26 0 -47.5 11.5t-34 32t-12.5 48.5t12.5 48t34 31t47.5 11q27 0 48 -11t33.5 -31t12.5 -48zM391 5l181 215q43 51 73.5 105.5t30.5 119.5q0 95 -43 155.5t-114 90t-156 29.5t-156 -29.5t-114 -90t-43 -155.5
q0 -56 20.5 -98.5t53.5 -71.5t72 -43.5t76 -14.5q40 0 65 9t58 37l-52 -27l-231 -231h279z" />
    <glyph glyph-name="colon" unicode=":" horiz-adv-x="336" 
d="M50 85q0 -47 33 -81t85 -34q53 0 85.5 34t32.5 81t-32.5 81t-85.5 34q-52 0 -85 -34t-33 -81zM50 455q0 -47 33 -81t85 -34q53 0 85.5 34t32.5 81t-32.5 81t-85.5 34q-52 0 -85 -34t-33 -81z" />
    <glyph glyph-name="semicolon" unicode=";" horiz-adv-x="431" 
d="M115 445q0 -47 33 -81t85 -34q53 0 85.5 34t32.5 81t-32.5 81t-85.5 34q-52 0 -85 -34t-33 -81zM138 110l-88 -259l148 -25l135 250z" />
    <glyph glyph-name="less" unicode="&#x3c;" horiz-adv-x="640" 
d="M331 271l244 84v190l-510 -210v-135l510 -210v190z" />
    <glyph glyph-name="equal" unicode="=" horiz-adv-x="633" 
d="M50 50h533v165h-533v-165zM50 290h533v165h-533v-165z" />
    <glyph glyph-name="greater" unicode="&#x3e;" horiz-adv-x="640" 
d="M309 264l-244 -84v-190l510 210v135l-510 210v-190z" />
    <glyph glyph-name="question" unicode="?" horiz-adv-x="669" 
d="M423 500q0 -18 -16.5 -41.5t-53.5 -41t-97 -17.5h-36l20 -180h160l3 62q53 13 102.5 39.5t81.5 71t32 107.5q0 56 -24 98t-64.5 70.5t-89.5 42.5t-100 14q-59 0 -111.5 -16t-99.5 -46.5t-90 -75.5l125 -111q31 45 77 67t89 22q30 0 50.5 -7.5t31 -22t10.5 -35.5zM202 70
q0 -40 33 -70t85 -30q53 0 85.5 30t32.5 70t-32.5 70t-85.5 30q-52 0 -85 -30t-33 -70z" />
    <glyph glyph-name="at" unicode="@" horiz-adv-x="770" 
d="M346 320q0 23 6 45t16.5 36t25.5 14q8 0 13 -5t7.5 -17t2.5 -33q0 -23 -7 -45t-17.5 -36t-23.5 -14q-10 0 -16.5 14t-6.5 41zM200 310q0 -49 14.5 -85t43 -55.5t70.5 -19.5q38 0 70.5 26t52.5 75.5t20 118.5q0 45 -17 81t-45 57.5t-61 21.5q-37 0 -71 -26t-55.5 -75
t-21.5 -119zM10 320q0 -99 40 -179.5t119 -128t196 -47.5q71 0 129.5 13t103.5 37l-38 110q-40 -16 -81 -28t-94 -12q-84 0 -137 29t-78 81.5t-25 124.5q0 65 18.5 118t53.5 91.5t85 59.5t113 21q52 0 91 -17t65.5 -47t40 -70t13.5 -86q0 -58 -8 -86.5t-19.5 -38t-21.5 -9.5
q-6 0 -10.5 4t-6.5 12t-2 20q0 6 0.5 14t1.5 13l17 201h-141l-16 -210l17 -50q-5 -33 12 -60t47.5 -43.5t65.5 -16.5q39 0 75 14t64 44t44 77.5t16 114.5q0 63 -23.5 124t-68.5 109.5t-109 77.5t-144 29q-88 0 -162 -31.5t-128.5 -87.5t-84.5 -130.5t-30 -160.5z" />
    <glyph glyph-name="A" unicode="A" horiz-adv-x="780" 
d="M207 90h370v158h-370v-158zM390 382l86 -193l-15 -57l74 -132h250l-395 750l-395 -750h250l76 139l-17 50z" />
    <glyph glyph-name="B" unicode="B" horiz-adv-x="728" 
d="M232 335h143q78 0 139.5 21.5t97.5 63t36 100.5q0 60 -36 100t-97.5 60t-139.5 20h-305v-700h325q93 0 158.5 19t100 61t34.5 112q0 56 -26.5 95.5t-69.5 64.5t-94.5 36.5t-102.5 11.5h-163v-120h133q19 0 35.5 -2t29.5 -7.5t20.5 -16t7.5 -27.5q0 -28 -13 -41t-34 -17
t-46 -4h-75v370h55q38 0 55.5 -12.5t17.5 -39.5q0 -18 -8 -31t-24 -20t-41 -7h-113v-90z" />
    <glyph glyph-name="C" unicode="C" horiz-adv-x="710" 
d="M272 350q0 54 24.5 90.5t65 54.5t89.5 18q50 0 86 -12.5t63.5 -32.5t49.5 -41v226q-41 29 -89.5 48t-125.5 19q-91 0 -166 -26t-128 -75t-82 -117t-29 -152t29 -152t82 -117t128 -75t166 -26q77 0 125.5 19.5t89.5 47.5v226q-22 -21 -49.5 -40.5t-63.5 -32.5t-86 -13
q-49 0 -89.5 18t-65 54.5t-24.5 90.5z" />
    <glyph glyph-name="D" unicode="D" horiz-adv-x="765" 
d="M70 700v-700h229v700h-229zM345 0q122 0 209.5 42t134 120.5t46.5 187.5q0 110 -46.5 188t-134 120t-209.5 42h-123v-190h113q29 0 59 -5t55 -21t40.5 -48t15.5 -86t-15.5 -86t-40.5 -48t-55 -21t-59 -5h-113v-190h123z" />
    <glyph glyph-name="E" unicode="E" horiz-adv-x="635" 
d="M222 0h353v175h-353v-175zM222 525h353v175h-353v-175zM222 275h333v170h-333v-170zM70 700v-700h210v700h-210z" />
    <glyph glyph-name="F" unicode="F" horiz-adv-x="585" 
d="M222 515h313v185h-313v-185zM222 245h303v170h-303v-170zM70 700v-700h210v700h-210z" />
    <glyph glyph-name="G" unicode="G" horiz-adv-x="838" 
d="M430 240h158q-9 -19 -22 -35t-30.5 -27t-41.5 -17t-54 -6q-54 0 -94.5 23t-63 67t-22.5 105q0 62 24.5 103t65.5 61.5t90 20.5q50 0 79 -25t47 -58l205 92q-35 49 -81.5 88.5t-108 63.5t-141.5 24q-88 0 -162.5 -25.5t-130 -73.5t-86.5 -116.5t-31 -154.5t29.5 -156
t83 -120t126.5 -77t161 -27q95 0 168 33t121 92t69.5 137t13.5 168h-372v-160z" />
    <glyph glyph-name="H" unicode="H" horiz-adv-x="830" 
d="M117 265h560v195h-560v-195zM540 700v-700h220v700h-220zM70 700v-700h220v700h-220z" />
    <glyph glyph-name="I" unicode="I" horiz-adv-x="365" 
d="M70 700v-700h225v700h-225z" />
    <glyph glyph-name="J" unicode="J" horiz-adv-x="385" 
d="M-75 -39l-121 -151q28 -15 64.5 -28.5t79.5 -22.5t89 -9q54 0 104 10.5t89 33.5t62 61.5t23 94.5v750h-245v-695q0 -42 -20 -58.5t-43 -16.5q-19 0 -41.5 10t-40.5 21z" />
    <glyph glyph-name="K" unicode="K" horiz-adv-x="781" 
d="M70 700v-700h230v700h-230zM515 700l-278 -335l283 -365h266l-288 372l273 328h-256z" />
    <glyph glyph-name="L" unicode="L" horiz-adv-x="575" 
d="M70 700v-700h505v185h-285v515h-220z" />
    <glyph glyph-name="M" unicode="M" horiz-adv-x="940" 
d="M301 286l169 -221l169 221l36 -286h235l-130 735l-310 -378l-310 378l-130 -735h235z" />
    <glyph glyph-name="N" unicode="N" horiz-adv-x="805" 
d="M525 700v-317l-455 352v-735h210v317l455 -352v735h-210z" />
    <glyph glyph-name="O" unicode="O" horiz-adv-x="840" 
d="M263 350q0 52 19 90.5t54 60t84 21.5q52 0 86.5 -21.5t52.5 -60t18 -90.5q0 -51 -19 -90t-54 -60.5t-84 -21.5t-84 21.5t-54 60.5t-19 90zM30 350q0 -84 28.5 -153.5t80.5 -120.5t123.5 -78.5t157.5 -27.5t157.5 27.5t123.5 78.5t80.5 120.5t28.5 153.5t-29 152t-82 117
t-124 75t-155 26q-82 0 -153 -26t-124 -75t-83 -117t-30 -152z" />
    <glyph glyph-name="P" unicode="P" horiz-adv-x="668" 
d="M70 700v-700h220v700h-220zM212 525h133q41 0 62 -17t21 -48t-21 -48t-62 -17h-133v-175h133q103 0 167.5 29t95 83t30.5 128q0 75 -30.5 128.5t-95 82.5t-167.5 29h-133v-175z" />
    <glyph glyph-name="Q" unicode="Q" horiz-adv-x="908" 
d="M263 350q0 52 20 90.5t56.5 60t85.5 21.5q62 0 102 -29t60 -75t20 -98q0 -51 -20 -87.5t-56.5 -55.5t-85.5 -19t-90.5 22.5t-66.5 65.5t-25 104zM30 350q0 -84 29 -153.5t82.5 -120.5t125.5 -78.5t158 -27.5t156.5 27.5t122 78.5t79 120.5t27.5 153.5t-28.5 152t-80 117
t-122 75t-154.5 26q-82 0 -153.5 -26t-126 -75t-85 -117t-30.5 -152zM343 300l350 -320h225l-360 320h-215z" />
    <glyph glyph-name="R" unicode="R" horiz-adv-x="700" 
d="M275 300l170 -300h255l-200 300h-225zM70 700v-700h220v700h-220zM212 515h133q28 0 46 -7.5t27.5 -22t9.5 -35.5q0 -20 -9.5 -35t-27.5 -22.5t-46 -7.5h-133v-165h153q103 0 167.5 31t95 85.5t30.5 123.5q0 70 -30.5 124t-95 85t-167.5 31h-153v-185z" />
    <glyph glyph-name="S" unicode="S" horiz-adv-x="672" 
d="M178 266l-148 -108q24 -53 71 -96t111.5 -67.5t139.5 -24.5q54 0 105 15t91.5 44t64.5 73.5t24 102.5q0 41 -12 74.5t-35.5 60.5t-56.5 47.5t-75 35.5q-41 15 -75 26.5t-54.5 25t-20.5 34.5q0 17 14.5 25t37.5 8q19 0 39 -7t39.5 -21.5t35.5 -39.5l163 90
q-19 36 -55.5 72t-93 60t-135.5 24q-73 0 -134 -24t-98 -71t-37 -116q0 -53 19.5 -92t49 -66t62 -44t57.5 -27q57 -22 85 -35t37.5 -23t9.5 -24q0 -23 -18 -33.5t-44 -10.5q-31 0 -61.5 13t-56.5 38.5t-46 60.5z" />
    <glyph glyph-name="T" unicode="T" horiz-adv-x="620" 
d="M0 505h200v-505h220v505h200v195h-620v-195z" />
    <glyph glyph-name="U" unicode="U" horiz-adv-x="746" 
d="M65 700v-470q0 -75 24.5 -126.5t67.5 -83t98.5 -46t117.5 -14.5t117.5 14.5t98.5 46t67.5 83t24.5 126.5v470h-220v-450q0 -42 -21.5 -68.5t-66.5 -26.5t-66.5 26.5t-21.5 68.5v450h-220z" />
    <glyph glyph-name="V" unicode="V" horiz-adv-x="780" 
d="M390 358l-135 342h-260l395 -750l395 750h-260z" />
    <glyph glyph-name="W" unicode="W" horiz-adv-x="1110" 
d="M737 371l-182 364l-182 -364l-108 329h-265l320 -745l235 348l235 -348l320 745h-265z" />
    <glyph glyph-name="X" unicode="X" horiz-adv-x="765" 
d="M475 700l-89 -169l-86 169h-275l223 -346l-248 -354h275l109 196l106 -196h275l-242 354l227 346h-275z" />
    <glyph glyph-name="Y" unicode="Y" horiz-adv-x="720" 
d="M470 700l-110 -226l-110 226h-255l253 -427v-273h225v275l252 425h-255z" />
    <glyph glyph-name="Z" unicode="Z" horiz-adv-x="665" 
d="M70 505h236l-301 -505h605v185h-263l308 515h-585v-195z" />
    <glyph glyph-name="bracketleft" unicode="[" horiz-adv-x="400" 
d="M279 615h101v165h-295v-1000h295v165h-101v670z" />
    <glyph glyph-name="backslash" unicode="\" horiz-adv-x="565" 
d="M15 700l350 -700h185l-350 700h-185z" />
    <glyph glyph-name="bracketright" unicode="]" horiz-adv-x="400" 
d="M121 -55h-101v-165h295v1000h-295v-165h101v-670z" />
    <glyph glyph-name="asciicircum" unicode="^" horiz-adv-x="510" 
d="M255 556l60 -116h170l-170 270h-120l-170 -270h170z" />
    <glyph glyph-name="underscore" unicode="_" horiz-adv-x="550" 
d="M0 -166h550v121h-550v-121z" />
    <glyph glyph-name="grave" unicode="`" horiz-adv-x="375" 
d="M40 650l180 -150l110 50l-150 160z" />
    <glyph glyph-name="a" unicode="a" horiz-adv-x="574" 
d="M216 145q0 12 5 19.5t16.5 11.5t30.5 4q30 0 58.5 -9t45.5 -24v79q-15 16 -41.5 26.5t-60 16.5t-69.5 6q-88 0 -134.5 -37.5t-46.5 -103.5q0 -47 23 -79.5t61 -48.5t83 -16q48 0 86 16.5t60 48t22 75.5l-16 60q0 -30 -11.5 -48.5t-29 -27t-36.5 -8.5q-12 0 -22.5 4.5
t-17 13t-6.5 21.5zM115 298q9 5 33 13.5t55 15t59 6.5q21 0 36 -4.5t24 -13t13 -19.5t4 -24v-272h185v320q0 50 -31 84.5t-84 52.5t-118 18q-66 0 -126.5 -16t-108.5 -35z" />
    <glyph glyph-name="b" unicode="b" 
d="M245 780h-195v-780h195v780zM615 230q0 80 -31.5 133t-80 80t-101.5 27q-57 0 -103 -29t-73 -82.5t-27 -128.5q0 -74 27 -128t73 -83t103 -29q53 0 101.5 27t80 80.5t31.5 132.5zM409 230q0 -25 -11 -45.5t-29.5 -32.5t-41.5 -12q-20 0 -39 11t-31 31t-12 48t12 48t31 31
t39 11q23 0 41.5 -12t29.5 -32t11 -46z" />
    <glyph glyph-name="c" unicode="c" horiz-adv-x="503" 
d="M231 230q0 26 14 46.5t37.5 33t50.5 12.5q17 0 39 -5.5t44 -18t37 -34.5v177q-24 11 -54.5 20t-85.5 9q-82 0 -146 -29t-100.5 -82.5t-36.5 -128.5q0 -74 36.5 -128t100.5 -83t146 -29q55 0 85.5 9t54.5 22v176q-15 -21 -35 -34t-41.5 -19t-43.5 -6q-27 0 -50.5 10.5
t-37.5 31t-14 50.5z" />
    <glyph glyph-name="d" unicode="d" 
d="M400 780v-780h195v780h-195zM30 230q0 -79 31.5 -132.5t80.5 -80.5t101 -27q58 0 103.5 29t72.5 83t27 128q0 75 -27 128.5t-72.5 82.5t-103.5 29q-52 0 -101 -27t-80.5 -80t-31.5 -133zM236 230q0 26 11 46t30 32t41 12q20 0 39 -11t31 -31t12 -48t-12 -48t-31 -31
t-39 -11q-22 0 -41 12t-30 32.5t-11 45.5z" />
    <glyph glyph-name="e" unicode="e" horiz-adv-x="609" 
d="M318 -10q96 0 161.5 36.5t102.5 110.5l-178 28q-12 -22 -36 -33.5t-60 -11.5q-27 0 -45.5 13t-28 37.5t-8.5 59.5q0 42 8 68.5t25 39t44 12.5q20 0 34.5 -9t22.5 -26t8 -41q0 -7 -4 -17t-10 -19l38 46h-256v-94h437q2 11 2 23.5v25.5q0 75 -30.5 126.5t-90 78
t-146.5 26.5q-88 0 -150 -28.5t-95 -82t-33 -129.5q0 -75 34.5 -128.5t99 -82.5t154.5 -29z" />
    <glyph glyph-name="f" unicode="f" horiz-adv-x="379" 
d="M5 460v-155h365v155h-365zM348 605l71 138q-12 10 -31.5 23.5t-48.5 23.5t-71 10q-67 0 -111 -22t-65.5 -60t-21.5 -88v-630h185v575q0 18 6 30.5t16.5 18.5t25.5 6q14 0 24.5 -7t20.5 -18z" />
    <glyph glyph-name="g" unicode="g" horiz-adv-x="635" 
d="M40 -35q9 -62 36.5 -109.5t85 -74t154.5 -26.5q78 0 138.5 24.5t95.5 80.5t35 150v450h-185v-450q0 -33 -11 -56.5t-32 -36t-51 -12.5q-20 0 -36.5 4.5t-27.5 17.5t-15 38h-187zM30 240q0 -79 31.5 -130t80.5 -75.5t101 -24.5q58 0 103.5 26.5t72.5 78t27 125.5
q0 75 -27 126t-72.5 77.5t-103.5 26.5q-52 0 -101 -24.5t-80.5 -75t-31.5 -130.5zM236 240q0 26 11 43.5t30 27t41 9.5q15 0 29.5 -4.5t26.5 -14.5t19 -25t7 -36q0 -28 -12 -45.5t-31 -26t-39 -8.5q-22 0 -41 9.5t-30 27.5t-11 43z" />
    <glyph glyph-name="h" unicode="h" horiz-adv-x="595" 
d="M245 780h-195v-780h195v780zM350 280v-280h195v310q0 55 -13.5 93t-47.5 58t-97 20q-62 0 -99 -27.5t-53 -73t-16 -100.5h26q0 23 7 37.5t20 21.5t30 7q30 0 39 -17.5t9 -48.5z" />
    <glyph glyph-name="i" unicode="i" horiz-adv-x="286" 
d="M35 622q0 -44 31.5 -71t76.5 -27t76.5 27t31.5 71t-31.5 71t-76.5 27t-76.5 -27t-31.5 -71zM49 460v-460h187v460h-187z" />
    <glyph glyph-name="j" unicode="j" horiz-adv-x="285" 
d="M35 622q0 -44 31.5 -71t76.5 -27t76.5 27t31.5 71t-31.5 71t-76.5 27t-76.5 -27t-31.5 -71zM-43 -55l-71 -138q13 -10 32 -23.5t48.5 -23.5t70.5 -10q67 0 111 22t65.5 60.5t21.5 87.5v540h-185v-485q0 -18 -5.5 -30t-16.5 -18.5t-26 -6.5q-14 0 -24.5 7t-20.5 18z" />
    <glyph glyph-name="k" unicode="k" horiz-adv-x="660" 
d="M50 780v-780h185v780h-185zM401 460l-195 -190l219 -270h225l-215 270l195 190h-229z" />
    <glyph glyph-name="l" unicode="l" horiz-adv-x="295" 
d="M50 780v-780h195v780h-195z" />
    <glyph glyph-name="m" unicode="m" horiz-adv-x="845" 
d="M795 300q0 55 -12 93t-42.5 58t-88.5 20q-47 0 -85 -19t-64 -51q-13 35 -43.5 52.5t-87.5 17.5q-50 0 -84 -22t-53 -58v69h-185v-460h185v280q0 23 6 37.5t16 21.5t22 7q23 0 32 -17.5t9 -48.5v-280h195v280q0 23 6 37.5t16 21.5t22 7q23 0 32 -17.5t9 -48.5v-280h195
v300z" />
    <glyph glyph-name="n" unicode="n" horiz-adv-x="605" 
d="M350 280v-280h205v300q0 82 -37 126.5t-131 44.5q-54 0 -88.5 -21.5t-53.5 -56.5v67h-195v-460h195v280q0 23 7 37.5t20 21.5t30 7q30 0 39 -17.5t9 -48.5z" />
    <glyph glyph-name="o" unicode="o" horiz-adv-x="616" 
d="M30 230q0 -74 36 -128t99 -83t143 -29t143 29t99 83t36 128q0 75 -36 129t-99 83t-143 29t-143 -29t-99 -83t-36 -129zM231 230q0 28 11 47t28.5 29t37.5 10t37.5 -10t28.5 -29t11 -47t-11 -47t-28.5 -28.5t-37.5 -9.5t-37.5 9.5t-28.5 28.5t-11 47z" />
    <glyph glyph-name="p" unicode="p" 
d="M245 -220v680h-195v-680h195zM615 230q0 85 -31.5 140t-80 82.5t-101.5 27.5q-62 0 -105.5 -31.5t-65.5 -87.5t-22 -131q0 -74 22 -130.5t65.5 -88t105.5 -31.5q53 0 101.5 27.5t80 83t31.5 139.5zM409 230q0 -25 -11 -43t-29.5 -27.5t-41.5 -9.5q-20 0 -39 8.5t-31 26
t-12 45.5t12 45.5t31 26t39 8.5q23 0 41.5 -9.5t29.5 -27t11 -43.5z" />
    <glyph glyph-name="q" unicode="q" 
d="M400 -220h195v680h-195v-680zM30 230q0 -84 31.5 -139.5t80.5 -83t101 -27.5q63 0 106 31.5t65 88t22 130.5q0 75 -22 131t-65 87.5t-106 31.5q-52 0 -101 -27.5t-80.5 -82.5t-31.5 -140zM236 230q0 26 11 43.5t30 27t41 9.5q20 0 39 -8.5t31 -26t12 -45.5t-12 -45.5
t-31 -26t-39 -8.5q-22 0 -41 9.5t-30 27.5t-11 43z" />
    <glyph glyph-name="r" unicode="r" horiz-adv-x="453" 
d="M240 460h-190v-460h190v460zM369 262l79 168q-9 17 -32.5 29.5t-48.5 12.5q-42 0 -79.5 -25.5t-60.5 -68.5t-23 -98l36 -85q0 33 10.5 54t27.5 31t34 10q20 0 34 -8t23 -20z" />
    <glyph glyph-name="s" unicode="s" horiz-adv-x="488" 
d="M78 183l-63 -137q42 -22 84 -38t88 -24.5t98 -8.5q89 0 136 36.5t47 118.5q0 44 -18 70t-47 42t-62 28q-40 15 -64.5 22t-36 14.5t-11.5 20.5q0 7 6 13t24 6q28 0 70.5 -17.5t76.5 -46.5l48 133q-34 16 -68 28t-70 19.5t-78 7.5q-57 0 -98.5 -16t-64.5 -46.5t-23 -73.5
q0 -46 18 -75t47.5 -45.5t63.5 -27.5q43 -13 63 -21.5t25.5 -15.5t5.5 -16q0 -10 -6.5 -16.5t-22.5 -6.5q-8 0 -29.5 4t-56 19.5t-82.5 49.5z" />
    <glyph glyph-name="t" unicode="t" horiz-adv-x="365" 
d="M5 460v-155h355v155h-355zM90 620v-620h185v620h-185z" />
    <glyph glyph-name="u" unicode="u" horiz-adv-x="605" 
d="M255 180v280h-205v-300q0 -82 37 -126.5t131 -44.5q54 0 88.5 21.5t53.5 56.5v-67h195v460h-195v-280q0 -23 -7 -37.5t-19.5 -21.5t-30.5 -7q-30 0 -39 17.5t-9 48.5z" />
    <glyph glyph-name="v" unicode="v" horiz-adv-x="580" 
d="M-5 460l295 -525l295 525h-205l-90 -213l-90 213h-205z" />
    <glyph glyph-name="w" unicode="w" horiz-adv-x="810" 
d="M-15 460l260 -485l160 236l160 -236l260 485h-200l-84 -197l-136 232l-136 -232l-84 197h-200z" />
    <glyph glyph-name="x" unicode="x" horiz-adv-x="600" 
d="M375 460l-71 -97l-69 97h-225l192 -224l-202 -236h225l79 109l81 -109h215l-198 236l188 224h-215z" />
    <glyph glyph-name="y" unicode="y" horiz-adv-x="570" 
d="M585 460h-195l-150 -375h105l-150 375h-210l213 -440l-103 -240h190z" />
    <glyph glyph-name="z" unicode="z" horiz-adv-x="560" 
d="M230 285l-215 -285h490v175h-156l196 285h-480v-175h165z" />
    <glyph glyph-name="braceleft" unicode="{" horiz-adv-x="451" 
d="M318 580q0 20 13 35t35 15h35v150h-110q-52 0 -96 -14.5t-70.5 -45t-26.5 -80.5v-170q0 -57 -15 -79.5t-53 -30.5v-140q38 -7 53 -30t15 -80v-170q0 -49 26.5 -80t70.5 -45.5t96 -14.5h110v150h-35q-22 0 -35 15.5t-13 34.5v90q0 33 -3.5 70t-18.5 68.5t-48 51.5t-93 20
v-20q60 0 93 20t48 51.5t18.5 68.5t3.5 70v90z" />
    <glyph glyph-name="bar" unicode="|" horiz-adv-x="400" 
d="M100 785v-1000h200v1000h-200z" />
    <glyph glyph-name="braceright" unicode="}" horiz-adv-x="451" 
d="M133 0q0 -19 -12.5 -34.5t-35.5 -15.5h-35v-150h110q52 0 96 14.5t70.5 45.5t26.5 80v170q0 57 15.5 80t52.5 30v140q-37 8 -52.5 30.5t-15.5 79.5v170q0 50 -26.5 80.5t-70.5 45t-96 14.5h-110v-150h35q23 0 35.5 -15t12.5 -35v-90q0 -33 3.5 -70t18.5 -68.5t48 -51.5
t93 -20v20q-60 0 -93 -20t-48 -51.5t-18.5 -68.5t-3.5 -70v-90z" />
    <glyph glyph-name="asciitilde" unicode="~" horiz-adv-x="575" 
d="M165 156q-2 6 -4.5 12.5t-2.5 19.5q0 11 6.5 25.5t28.5 14.5q13 0 25.5 -4.5t26 -12.5t29.5 -18q40 -24 68.5 -37.5t61.5 -13.5q50 0 76.5 15.5t46.5 40.5t26.5 53.5t6.5 58.5q0 8 -1 15t-3 13l-147 5q3 -7 5.5 -17t2.5 -20q0 -12 -6.5 -23t-20.5 -11q-13 0 -29.5 10.5
t-40.5 25.5q-26 16 -45 27t-37.5 16.5t-43.5 5.5q-61 0 -91.5 -18t-51.5 -44q-21 -25 -28.5 -52t-7.5 -58q0 -13 3 -24z" />
    <glyph glyph-name="uni00A0" unicode="&#xa0;" horiz-adv-x="300" 
 />
    <glyph glyph-name="exclamdown" unicode="&#xa1;" horiz-adv-x="370" 
d="M305 -220l-40 450h-160l-40 -450h240zM303 405q0 47 -32.5 76t-85.5 29q-52 0 -85 -29t-33 -76t33 -76t85 -29q53 0 85.5 29t32.5 76z" />
    <glyph glyph-name="cent" unicode="&#xa2;" horiz-adv-x="580" 
d="M210 38l-15 -150h169l-15 150h-139zM231 230q0 28 15.5 48.5t39 32t48.5 11.5q41 0 69 -17.5t51 -43.5v180q-24 13 -58.5 21t-81.5 8q-82 0 -146 -29t-100.5 -82.5t-36.5 -128.5q0 -74 36.5 -128t100.5 -83t146 -29q47 0 81.5 8t58.5 21v180q-23 -26 -51 -43.5t-69 -17.5
q-25 0 -48.5 9.5t-39 29.5t-15.5 53zM195 578l15 -150h139l15 150h-169z" />
    <glyph glyph-name="sterling" unicode="&#xa3;" horiz-adv-x="630" 
d="M67 370v-115h390v115h-390zM425 459l176 64q-2 34 -21.5 67t-54.5 60t-84 43.5t-110 16.5q-69 0 -129.5 -22t-98 -63.5t-37.5 -101.5q0 -32 10.5 -54.5t26.5 -40t32 -34t26.5 -37t10.5 -48.5q0 -54 -11.5 -105.5t-39.5 -102t-77 -101.5h508v175h-338l-82 -125
q28 8 66 28.5t74.5 51t61 67.5t24.5 77q0 34 -9 58.5t-22.5 43.5t-27 35t-22.5 32.5t-9 36.5q0 23 10 37.5t26.5 21.5t36.5 7q25 0 40.5 -7.5t24.5 -20t13.5 -28t5.5 -31.5z" />
    <glyph glyph-name="currency" unicode="&#xa4;" horiz-adv-x="575" 
d="M15 503l104 -103l69 69l-103 104zM85 27l103 104l-69 69l-104 -103zM457 400l103 103l-69 70l-104 -104zM387 131l104 -104l69 70l-103 103zM50 300q0 -69 31.5 -123.5t85.5 -85.5t121 -31q68 0 121.5 31t85 85.5t31.5 123.5q0 70 -31.5 124t-85 85t-121.5 31
q-67 0 -121 -31t-85.5 -85t-31.5 -124zM221 300q0 21 8.5 35.5t23.5 22t35 7.5t35 -7.5t23.5 -22t8.5 -35.5q0 -20 -8.5 -35t-23.5 -22.5t-35 -7.5t-35 7.5t-23.5 22.5t-8.5 35z" />
    <glyph glyph-name="yen" unicode="&#xa5;" horiz-adv-x="723" 
d="M45 250h630v115h-630v-115zM45 100h630v115h-630v-115zM471 700l-111 -226l-110 226h-255l253 -427v-273h226v276l251 424h-254z" />
    <glyph glyph-name="brokenbar" unicode="&#xa6;" horiz-adv-x="400" 
d="M100 695v-280h200v280h-200zM300 285h-200v-280h200v280z" />
    <glyph glyph-name="section" unicode="&#xa7;" horiz-adv-x="679" 
d="M455 531l76 134q-17 18 -48 33t-70 24.5t-82 9.5q-49 0 -97 -17.5t-79.5 -52.5t-31.5 -90q0 -33 10.5 -57t27.5 -41.5t37.5 -29.5t41.5 -20q26 -10 57 -20t53 -26.5t22 -44.5q0 -20 -11 -32.5t-27 -20t-31 -12.5v-46q43 0 85 10t77 30.5t56 50.5t21 70q0 39 -18 68
t-50 48t-74 28q-21 5 -38.5 7.5t-29.5 4.5t-19 6.5t-7 11.5q0 5 4 9.5t12.5 7.5t23.5 3q14 0 33 -6t39.5 -16.5t36.5 -23.5zM147 181l-76 -134q32 -22 68.5 -39.5t83 -27.5t108.5 -10q37 0 75.5 9.5t70.5 29.5t52 50t20 71q0 44 -18 73.5t-47 49.5t-62 33q-19 8 -43.5 14
t-47 14t-37 21t-14.5 34t11 33t27 19.5t31 12.5v46q-43 0 -86.5 -10t-80.5 -30.5t-59.5 -50.5t-22.5 -70q0 -38 23 -65.5t60.5 -45t78.5 -26.5l49 -10.5t33 -10.5t12 -16q0 -5 -3.5 -9.5t-12.5 -7.5t-24 -3q-13 0 -39.5 4.5t-60 16.5t-69.5 35z" />
    <glyph glyph-name="dieresis" unicode="&#xa8;" horiz-adv-x="536" 
d="M295 615q0 -44 31.5 -71t76.5 -27t76.5 27t31.5 71t-31.5 71t-76.5 27t-76.5 -27t-31.5 -71zM25 615q0 -44 31.5 -71t76.5 -27t76.5 27t31.5 71t-31.5 71t-76.5 27t-76.5 -27t-31.5 -71z" />
    <glyph glyph-name="copyright" unicode="&#xa9;" horiz-adv-x="800" 
d="M319 350q0 33 14.5 54.5t39.5 32.5t54 11q44 0 72 -16.5t47 -35.5v136q-25 17 -54 28.5t-75 11.5q-73 0 -127.5 -27.5t-85 -77.5t-30.5 -117t30.5 -117t85 -77.5t127.5 -27.5q46 0 75 11.5t54 28.5v136q-19 -19 -47 -35.5t-72 -16.5q-29 0 -54 11t-39.5 33t-14.5 54z
M95 350q0 67 23 123.5t64.5 98.5t97 65t120.5 23t120.5 -23t97 -65t64.5 -98.5t23 -123.5t-23 -123.5t-64.5 -98.5t-97 -65t-120.5 -23t-120.5 23t-97 65t-64.5 98.5t-23 123.5zM40 350q0 -78 27.5 -144t76 -114.5t114.5 -75t142 -26.5q77 0 142.5 26.5t114 75t76 114.5
t27.5 144t-27.5 144t-76 114.5t-114 75t-142.5 26.5q-76 0 -142 -26.5t-114.5 -75t-76 -114.5t-27.5 -144z" />
    <glyph glyph-name="ordfeminine" unicode="&#xaa;" horiz-adv-x="290" 
d="M114 529q0 9 8 15t21 6q18 0 29.5 -4.5t21.5 -12.5v44q-9 9 -32.5 14.5t-45.5 5.5q-45 0 -72.5 -19.5t-27.5 -52.5t23.5 -51.5t62.5 -18.5q36 0 60 18.5t24 51.5l-8 30q0 -25 -13 -33.5t-28 -8.5q-9 0 -16 3.5t-7 12.5zM66 612q8 5 29.5 11.5t46.5 6.5q19 0 27.5 -10
t8.5 -24v-136h92v168q0 38 -33.5 57.5t-84.5 19.5q-31 0 -61.5 -8t-54.5 -17z" />
    <glyph glyph-name="guillemotleft" unicode="&#xab;" horiz-adv-x="560" 
d="M390 259l150 186l-120 75l-170 -265l170 -265l120 75zM160 259l150 186l-120 75l-170 -265l170 -265l120 75z" />
    <glyph glyph-name="logicalnot" unicode="&#xac;" horiz-adv-x="669" 
d="M65 255h414v-80h125v245h-539v-165z" />
    <glyph glyph-name="uni00AD" unicode="&#xad;" horiz-adv-x="210" 
d="M5 200h200v75h-200v-75z" />
    <glyph glyph-name="registered" unicode="&#xae;" horiz-adv-x="800" 
d="M394 310l62 -160h153l-100 160h-115zM241 570v-420h132v420h-132zM326 459l80 1q25 0 37.5 -7.5t12.5 -26.5t-12.5 -27t-37.5 -8h-80v-99h92q92 0 134 41t42 103q0 55 -42 94.5t-134 39.5h-92v-111zM95 350q0 67 23 123.5t64.5 98.5t97 65t120.5 23t120.5 -23t97 -65
t64.5 -98.5t23 -123.5t-23 -123.5t-64.5 -98.5t-97 -65t-120.5 -23t-120.5 23t-97 65t-64.5 98.5t-23 123.5zM40 350q0 -78 27.5 -144t76 -114.5t114.5 -75t142 -26.5q77 0 142.5 26.5t114 75t76 114.5t27.5 144t-27.5 144t-76 114.5t-114 75t-142.5 26.5q-76 0 -142 -26.5
t-114.5 -75t-76 -114.5t-27.5 -144z" />
    <glyph glyph-name="macron" unicode="&#xaf;" horiz-adv-x="545" 
d="M80 555h385v165h-385v-165z" />
    <glyph glyph-name="degree" unicode="&#xb0;" horiz-adv-x="308" 
d="M15 595q0 -55 39 -90t99 -35t100 35t40 90q0 56 -40 90.5t-100 34.5t-99 -34.5t-39 -90.5zM110 595q0 21 12 33t31 12t31.5 -12t12.5 -33t-12.5 -32.5t-31.5 -11.5t-31 11.5t-12 32.5z" />
    <glyph glyph-name="plusminus" unicode="&#xb1;" 
d="M65 10h515v160h-515v-160zM65 325h515v170h-515v-170zM225 620v-420h195v420h-195z" />
    <glyph glyph-name="uni00B2" unicode="&#xb2;" horiz-adv-x="446" 
d="M25 282h392v120h-154l76 58q29 22 46 49.5t17 61.5q0 36 -20.5 68t-59.5 52.5t-95 20.5q-61 0 -102 -24.5t-61.5 -63.5t-20.5 -84h129q0 26 14 43.5t36 17.5q16 0 25.5 -5.5t14 -14.5t4.5 -20q0 -25 -16 -45.5t-44 -50.5z" />
    <glyph glyph-name="uni00B3" unicode="&#xb3;" horiz-adv-x="397" 
d="M162 481q56 0 102 10.5t73.5 34.5t27.5 64q0 51 -43 85t-124 34q-76 0 -121.5 -41.5t-45.5 -101.5h121q0 19 12.5 30t32.5 11t29 -7t9 -19t-9.5 -23t-26 -17.5t-37.5 -6.5v-53zM192 268q90 0 137.5 37t47.5 92q0 43 -27 70t-75 39.5t-113 12.5v-62q33 0 51.5 -7t26 -17.5
t7.5 -23.5q0 -23 -14.5 -31t-34.5 -8t-37.5 12.5t-17.5 44.5h-130q0 -40 21 -76.5t61 -59.5t97 -23z" />
    <glyph glyph-name="acute" unicode="&#xb4;" horiz-adv-x="375" 
d="M330 650l-140 60l-150 -160l110 -50z" />
    <glyph glyph-name="mu" unicode="&#xb5;" horiz-adv-x="605" 
d="M255 460h-205v-780h185v340q20 -13 33 -16.5t26 -3.5q23 0 39.5 14t26.5 33v-47h195v460h-195v-240q0 -23 -7 -37.5t-19.5 -21.5t-30.5 -7q-30 0 -39 17.5t-9 48.5v240z" />
    <glyph glyph-name="paragraph" unicode="&#xb6;" horiz-adv-x="728" 
d="M288 270v-490h170v810h40v-810h170v920h-380q-62 0 -114 -25t-83 -72.5t-31 -117.5q0 -69 31 -117t83 -73t114 -25z" />
    <glyph glyph-name="periodcentered" unicode="&#xb7;" horiz-adv-x="336" 
d="M50 285q0 -47 33 -81t85 -34q53 0 85.5 34t32.5 81t-32.5 81t-85.5 34q-52 0 -85 -34t-33 -81z" />
    <glyph glyph-name="cedilla" unicode="&#xb8;" horiz-adv-x="420" 
d="M176 78l-89 -211q32 11 61 13t36 2q22 0 44.5 -4.5t22.5 -25.5q0 -18 -15.5 -25t-41.5 -7q-12 0 -41 5.5t-51 20.5l-53 -86q44 -23 85.5 -31.5t91.5 -8.5q34 0 67.5 13t56 39.5t22.5 65.5q0 38 -16.5 63t-40.5 37t-46 12q-15 0 -28 -1t-25 -5l100 128z" />
    <glyph glyph-name="uni00B9" unicode="&#xb9;" horiz-adv-x="490" 
d="M122 549l111 25v-300h126v429l-237 -44v-110z" />
    <glyph glyph-name="ordmasculine" unicode="&#xba;" horiz-adv-x="278" 
d="M18 580q0 -55 39 -87.5t99 -32.5t100 32.5t40 87.5q0 56 -40 88t-100 32t-99 -32t-39 -88zM118 580q0 21 11.5 32t26.5 11t27 -11t12 -32t-12 -31.5t-27 -10.5t-26.5 10.5t-11.5 31.5z" />
    <glyph glyph-name="guillemotright" unicode="&#xbb;" horiz-adv-x="560" 
d="M170 251l-150 -186l120 -75l170 265l-170 265l-120 -75zM400 251l-150 -186l120 -75l170 265l-170 265l-120 -75z" />
    <glyph glyph-name="onequarter" unicode="&#xbc;" horiz-adv-x="864" 
d="M638 700l-520 -700h115l520 700h-115zM20 549l111 25v-300h126v429l-237 -44v-110zM412 69h425v111h-119l-10 -21h-188zM544 117l107 136v-156l-18 -6v-91h138v420h-108l-251 -351z" />
    <glyph glyph-name="onehalf" unicode="&#xbd;" horiz-adv-x="939" 
d="M638 700l-520 -700h115l520 700h-115zM20 549l111 25v-300h126v429l-237 -44v-110zM513 2h392v120h-154l76 58q29 22 46 49.5t17 61.5q0 36 -20.5 68t-59.5 52.5t-95 20.5q-61 0 -102 -24.5t-61.5 -63.5t-20.5 -84h129q0 26 14 43.5t36 17.5q16 0 25.5 -5.5t14 -14.5
t4.5 -20q0 -25 -16 -45.5t-44 -50.5z" />
    <glyph glyph-name="threequarters" unicode="&#xbe;" horiz-adv-x="915" 
d="M700 700l-520 -700h115l520 700h-115zM172 481q56 0 102 10.5t73.5 34.5t27.5 64q0 51 -43 85t-124 34q-76 0 -121.5 -41.5t-45.5 -101.5h121q0 19 12.5 30t32.5 11t29 -7t9 -19t-9.5 -23t-26 -17.5t-37.5 -6.5v-53zM202 268q90 0 137.5 37t47.5 92q0 43 -27 70t-75 39.5
t-113 12.5v-62q33 0 51.5 -7t26 -17.5t7.5 -23.5q0 -23 -14.5 -31t-34.5 -8t-37.5 12.5t-17.5 44.5h-130q0 -40 21 -76.5t61 -59.5t97 -23zM464 69h425v111h-119l-10 -21h-188zM596 117l107 136v-156l-18 -6v-91h138v420h-108l-251 -351z" />
    <glyph glyph-name="questiondown" unicode="&#xbf;" horiz-adv-x="669" 
d="M246 200q0 18 17 41.5t53.5 41t96.5 17.5h36l-20 180h-160l-3 -62q-52 -12 -102 -39t-82 -71t-32 -108q0 -56 24 -98t64.5 -70.5t89.5 -42.5t100 -14q60 0 112 16t99 46.5t90 75.5l-125 111q-31 -45 -77 -67t-89 -22q-30 0 -50.5 7.5t-31 22.5t-10.5 35zM467 630
q0 40 -32.5 70t-85.5 30q-52 0 -85 -30t-33 -70t33 -70t85 -30q53 0 85.5 30t32.5 70z" />
    <glyph glyph-name="Agrave" unicode="&#xc0;" horiz-adv-x="780" 
d="M207 90h370v158h-370v-158zM390 382l86 -193l-15 -57l74 -132h250l-395 750l-395 -750h250l76 139l-17 50zM210 960l180 -150l110 50l-150 160z" />
    <glyph glyph-name="Aacute" unicode="&#xc1;" horiz-adv-x="780" 
d="M207 90h370v158h-370v-158zM390 382l86 -193l-15 -57l74 -132h250l-395 750l-395 -750h250l76 139l-17 50zM565 960l-140 60l-150 -160l110 -50z" />
    <glyph glyph-name="Acircumflex" unicode="&#xc2;" horiz-adv-x="780" 
d="M207 90h370v158h-370v-158zM390 382l86 -193l-15 -57l74 -132h250l-395 750l-395 -750h250l76 139l-17 50zM390 890l80 -80l140 90l-220 140l-220 -140l140 -90z" />
    <glyph glyph-name="Atilde" unicode="&#xc3;" horiz-adv-x="780" 
d="M207 90h370v158h-370v-158zM390 382l86 -193l-15 -57l74 -132h250l-395 750l-395 -750h250l76 139l-17 50zM175 893l83 -77q0 8 3.5 20t13.5 21.5t28 9.5q26 0 50 -14.5t49 -28.5t52 -14q35 0 66.5 15.5t54 37.5t30.5 40l-86 93q-15 -24 -32 -40t-39 -16t-38 8.5
t-30.5 19t-32.5 19t-43 8.5q-37 0 -64.5 -15.5t-43.5 -38.5t-21 -48z" />
    <glyph glyph-name="Adieresis" unicode="&#xc4;" horiz-adv-x="780" 
d="M207 90h370v158h-370v-158zM390 382l86 -193l-15 -57l74 -132h250l-395 750l-395 -750h250l76 139l-17 50zM447 818q0 -44 31.5 -71t76.5 -27t76.5 27t31.5 71t-31.5 71t-76.5 27t-76.5 -27t-31.5 -71zM107 828q0 -44 31.5 -71t76.5 -27t76.5 27t31.5 71t-31.5 71
t-76.5 27t-76.5 -27t-31.5 -71z" />
    <glyph glyph-name="Aring" unicode="&#xc5;" horiz-adv-x="780" 
d="M207 90h370v158h-370v-158zM390 382l86 -193l-15 -57l74 -132h250l-395 750l-395 -750h250l76 139l-17 50zM251 802q0 -55 39 -90t99 -35t100 35t40 90q0 56 -40 90.5t-100 34.5t-99 -34.5t-39 -90.5zM346 802q0 21 12 33t31 12t31.5 -12t12.5 -33t-12.5 -32.5
t-31.5 -11.5t-31 11.5t-12 32.5z" />
    <glyph glyph-name="AE" unicode="&#xc6;" horiz-adv-x="1160" 
d="M302 115h310v200h-300zM440 700l-420 -700h285l354 660zM687 0h403v175h-403v-175zM695 525h395v175h-650zM687 275h383v170h-383v-170zM585 700v-700h240v700h-240z" />
    <glyph glyph-name="Ccedilla" unicode="&#xc7;" horiz-adv-x="710" 
d="M272 350q0 54 24.5 90.5t65 54.5t89.5 18q50 0 86 -12.5t63.5 -32.5t49.5 -41v226q-41 29 -89.5 48t-125.5 19q-91 0 -166 -26t-128 -75t-82 -117t-29 -152t29 -152t82 -117t128 -75t166 -26q77 0 125.5 19.5t89.5 47.5v226q-22 -21 -49.5 -40.5t-63.5 -32.5t-86 -13
q-49 0 -89.5 18t-65 54.5t-24.5 90.5zM345 42l-89 -211q32 11 61 13t36 2q22 0 44.5 -4.5t22.5 -25.5q0 -18 -15.5 -25t-41.5 -7q-12 0 -41 5.5t-51 20.5l-53 -86q44 -23 85.5 -31.5t91.5 -8.5q34 0 67.5 13t56 39.5t22.5 65.5q0 38 -16.5 63t-40.5 37t-46 12q-15 0 -28 -1
t-25 -5l100 128z" />
    <glyph glyph-name="Egrave" unicode="&#xc8;" horiz-adv-x="635" 
d="M222 0h353v175h-353v-175zM222 525h353v175h-353v-175zM222 275h333v170h-333v-170zM70 700v-700h210v700h-210zM142 940l180 -150l110 50l-150 160z" />
    <glyph glyph-name="Eacute" unicode="&#xc9;" horiz-adv-x="635" 
d="M222 0h353v175h-353v-175zM222 525h353v175h-353v-175zM222 275h333v170h-333v-170zM70 700v-700h210v700h-210zM498 940l-140 60l-150 -160l110 -50z" />
    <glyph glyph-name="Ecircumflex" unicode="&#xca;" horiz-adv-x="635" 
d="M222 0h353v175h-353v-175zM222 525h353v175h-353v-175zM222 275h333v170h-333v-170zM70 700v-700h210v700h-210zM322 860l80 -80l140 90l-220 140l-220 -140l140 -90z" />
    <glyph glyph-name="Edieresis" unicode="&#xcb;" horiz-adv-x="635" 
d="M222 0h353v175h-353v-175zM222 525h353v175h-353v-175zM222 275h333v170h-333v-170zM70 700v-700h210v700h-210zM350 878q0 -44 31.5 -71t76.5 -27t76.5 27t31.5 71t-31.5 71t-76.5 27t-76.5 -27t-31.5 -71zM80 878q0 -44 31.5 -71t76.5 -27t76.5 27t31.5 71t-31.5 71
t-76.5 27t-76.5 -27t-31.5 -71z" />
    <glyph glyph-name="Igrave" unicode="&#xcc;" horiz-adv-x="365" 
d="M70 700v-700h225v700h-225zM-8 940l180 -150l110 50l-150 160z" />
    <glyph glyph-name="Iacute" unicode="&#xcd;" horiz-adv-x="365" 
d="M70 700v-700h225v700h-225zM348 940l-140 60l-150 -160l110 -50z" />
    <glyph glyph-name="Icircumflex" unicode="&#xce;" horiz-adv-x="365" 
d="M70 700v-700h225v700h-225zM183 860l80 -80l140 90l-220 140l-220 -140l140 -90z" />
    <glyph glyph-name="Idieresis" unicode="&#xcf;" horiz-adv-x="365" 
d="M70 700v-700h225v700h-225zM210 878q0 -44 31.5 -71t76.5 -27t76.5 27t31.5 71t-31.5 71t-76.5 27t-76.5 -27t-31.5 -71zM-60 878q0 -44 31.5 -71t76.5 -27t76.5 27t31.5 71t-31.5 71t-76.5 27t-76.5 -27t-31.5 -71z" />
    <glyph glyph-name="Eth" unicode="&#xd0;" horiz-adv-x="765" 
d="M6 298h380v115h-380v-115zM70 700v-700h229v700h-229zM345 0q122 0 209.5 42t134 120.5t46.5 187.5q0 110 -46.5 188t-134 120t-209.5 42h-123v-190h113q29 0 59 -5t55 -21t40.5 -48t15.5 -86t-15.5 -86t-40.5 -48t-55 -21t-59 -5h-113v-190h123z" />
    <glyph glyph-name="Ntilde" unicode="&#xd1;" horiz-adv-x="805" 
d="M525 700v-317l-455 352v-735h210v317l455 -352v735h-210zM145 858l83 -77q0 8 3.5 20t13.5 21.5t28 9.5q26 0 50 -14.5t49 -28.5t52 -14q35 0 66.5 15.5t54 37.5t30.5 40l-86 93q-15 -24 -32 -40t-39 -16t-38 8.5t-30.5 19t-32.5 19t-43 8.5q-37 0 -64.5 -15.5
t-43.5 -38.5t-21 -48z" />
    <glyph glyph-name="Ograve" unicode="&#xd2;" horiz-adv-x="840" 
d="M263 350q0 52 19 90.5t54 60t84 21.5q52 0 86.5 -21.5t52.5 -60t18 -90.5q0 -51 -19 -90t-54 -60.5t-84 -21.5t-84 21.5t-54 60.5t-19 90zM30 350q0 -84 28.5 -153.5t80.5 -120.5t123.5 -78.5t157.5 -27.5t157.5 27.5t123.5 78.5t80.5 120.5t28.5 153.5t-29 152t-82 117
t-124 75t-155 26q-82 0 -153 -26t-124 -75t-83 -117t-30 -152zM255 940l180 -150l110 50l-150 160z" />
    <glyph glyph-name="Oacute" unicode="&#xd3;" horiz-adv-x="840" 
d="M263 350q0 52 19 90.5t54 60t84 21.5q52 0 86.5 -21.5t52.5 -60t18 -90.5q0 -51 -19 -90t-54 -60.5t-84 -21.5t-84 21.5t-54 60.5t-19 90zM30 350q0 -84 28.5 -153.5t80.5 -120.5t123.5 -78.5t157.5 -27.5t157.5 27.5t123.5 78.5t80.5 120.5t28.5 153.5t-29 152t-82 117
t-124 75t-155 26q-82 0 -153 -26t-124 -75t-83 -117t-30 -152zM610 940l-140 60l-150 -160l110 -50z" />
    <glyph glyph-name="Ocircumflex" unicode="&#xd4;" horiz-adv-x="840" 
d="M263 350q0 52 19 90.5t54 60t84 21.5q52 0 86.5 -21.5t52.5 -60t18 -90.5q0 -51 -19 -90t-54 -60.5t-84 -21.5t-84 21.5t-54 60.5t-19 90zM30 350q0 -84 28.5 -153.5t80.5 -120.5t123.5 -78.5t157.5 -27.5t157.5 27.5t123.5 78.5t80.5 120.5t28.5 153.5t-29 152t-82 117
t-124 75t-155 26q-82 0 -153 -26t-124 -75t-83 -117t-30 -152zM435 860l80 -80l140 90l-220 140l-220 -140l140 -90z" />
    <glyph glyph-name="Otilde" unicode="&#xd5;" horiz-adv-x="840" 
d="M263 350q0 52 19 90.5t54 60t84 21.5q52 0 86.5 -21.5t52.5 -60t18 -90.5q0 -51 -19 -90t-54 -60.5t-84 -21.5t-84 21.5t-54 60.5t-19 90zM30 350q0 -84 28.5 -153.5t80.5 -120.5t123.5 -78.5t157.5 -27.5t157.5 27.5t123.5 78.5t80.5 120.5t28.5 153.5t-29 152t-82 117
t-124 75t-155 26q-82 0 -153 -26t-124 -75t-83 -117t-30 -152zM215 858l83 -77q0 8 3.5 20t13.5 21.5t28 9.5q26 0 50 -14.5t49 -28.5t52 -14q35 0 66.5 15.5t54 37.5t30.5 40l-86 93q-15 -24 -32 -40t-39 -16t-38 8.5t-30.5 19t-32.5 19t-43 8.5q-37 0 -64.5 -15.5
t-43.5 -38.5t-21 -48z" />
    <glyph glyph-name="Odieresis" unicode="&#xd6;" horiz-adv-x="840" 
d="M263 350q0 52 19 90.5t54 60t84 21.5q52 0 86.5 -21.5t52.5 -60t18 -90.5q0 -51 -19 -90t-54 -60.5t-84 -21.5t-84 21.5t-54 60.5t-19 90zM30 350q0 -84 28.5 -153.5t80.5 -120.5t123.5 -78.5t157.5 -27.5t157.5 27.5t123.5 78.5t80.5 120.5t28.5 153.5t-29 152t-82 117
t-124 75t-155 26q-82 0 -153 -26t-124 -75t-83 -117t-30 -152zM447 878q0 -44 31.5 -71t76.5 -27t76.5 27t31.5 71t-31.5 71t-76.5 27t-76.5 -27t-31.5 -71zM177 878q0 -44 31.5 -71t76.5 -27t76.5 27t31.5 71t-31.5 71t-76.5 27t-76.5 -27t-31.5 -71z" />
    <glyph glyph-name="multiply" unicode="&#xd7;" horiz-adv-x="596" 
d="M151 -8l147 151l147 -151l116 116l-151 147l151 147l-116 116l-147 -151l-147 151l-116 -116l151 -147l-151 -147z" />
    <glyph glyph-name="Oslash" unicode="&#xd8;" horiz-adv-x="790" 
d="M263 350q0 54 19 92.5t54 59t84 20.5t84 -20.5t54 -59t19 -92.5t-19 -92.5t-54 -59t-84 -20.5t-84 20.5t-54 59t-19 92.5zM30 350q0 -84 29 -153.5t82 -120.5t124 -78.5t155 -27.5t155 27.5t124 78.5t82 120.5t29 153.5t-29 152t-82 117t-124 75t-155 26t-155 -26
t-124 -75t-82 -117t-29 -152zM703 760l-648 -760l78 -60l649 760z" />
    <glyph glyph-name="Ugrave" unicode="&#xd9;" horiz-adv-x="746" 
d="M65 700v-470q0 -75 24.5 -126.5t67.5 -83t98.5 -46t117.5 -14.5t117.5 14.5t98.5 46t67.5 83t24.5 126.5v470h-220v-450q0 -42 -21.5 -68.5t-66.5 -26.5t-66.5 26.5t-21.5 68.5v450h-220zM193 930l180 -150l110 50l-150 160z" />
    <glyph glyph-name="Uacute" unicode="&#xda;" horiz-adv-x="746" 
d="M65 700v-470q0 -75 24.5 -126.5t67.5 -83t98.5 -46t117.5 -14.5t117.5 14.5t98.5 46t67.5 83t24.5 126.5v470h-220v-450q0 -42 -21.5 -68.5t-66.5 -26.5t-66.5 26.5t-21.5 68.5v450h-220zM553 930l-140 60l-150 -160l110 -50z" />
    <glyph glyph-name="Ucircumflex" unicode="&#xdb;" horiz-adv-x="746" 
d="M65 700v-470q0 -75 24.5 -126.5t67.5 -83t98.5 -46t117.5 -14.5t117.5 14.5t98.5 46t67.5 83t24.5 126.5v470h-220v-450q0 -42 -21.5 -68.5t-66.5 -26.5t-66.5 26.5t-21.5 68.5v450h-220zM373 860l80 -80l140 90l-220 140l-220 -140l140 -90z" />
    <glyph glyph-name="Udieresis" unicode="&#xdc;" horiz-adv-x="746" 
d="M65 700v-470q0 -75 24.5 -126.5t67.5 -83t98.5 -46t117.5 -14.5t117.5 14.5t98.5 46t67.5 83t24.5 126.5v470h-220v-450q0 -42 -21.5 -68.5t-66.5 -26.5t-66.5 26.5t-21.5 68.5v450h-220zM430 878q0 -44 31.5 -71t76.5 -27t76.5 27t31.5 71t-31.5 71t-76.5 27t-76.5 -27
t-31.5 -71zM100 878q0 -44 31.5 -71t76.5 -27t76.5 27t31.5 71t-31.5 71t-76.5 27t-76.5 -27t-31.5 -71z" />
    <glyph glyph-name="Yacute" unicode="&#xdd;" horiz-adv-x="720" 
d="M540 930l-140 60l-150 -160l110 -50zM470 700l-110 -226l-110 226h-255l253 -427v-273h225v275l252 425h-255z" />
    <glyph glyph-name="Thorn" unicode="&#xde;" horiz-adv-x="650" 
d="M80 700v-700h185v700h-185zM202 425h133q35 0 57.5 -6t34 -21t11.5 -43t-11.5 -43t-34 -21t-57.5 -6h-133v-165h133q103 0 167.5 27.5t95 80.5t30.5 127q0 75 -30.5 127.5t-95 80t-167.5 27.5h-133v-165z" />
    <glyph glyph-name="germandbls" unicode="&#xdf;" horiz-adv-x="626" 
d="M392 -12q46 0 91 16.5t81.5 45.5t58 67.5t21.5 82.5q0 36 -10 60.5t-26 41.5t-34 29t-34 22t-26 21t-10 26q0 13 7.5 26t18.5 27.5t22 33.5t18.5 44.5t7.5 60.5q0 65 -37.5 111.5t-100.5 71t-138 24.5q-88 0 -148.5 -31.5t-92 -93.5t-31.5 -155l1 -521h195l-2 530
q0 34 8.5 55.5t26 32t43.5 10.5q24 0 40.5 -9t25 -25.5t8.5 -41.5q0 -24 -7.5 -43t-18.5 -35t-22 -31t-18.5 -30.5t-7.5 -33.5q0 -20 10 -35t26 -26.5t34 -22t34 -22.5t26 -28t10 -38q0 -20 -9 -35t-25.5 -23.5t-39.5 -8.5q-14 0 -31 3t-33.5 8t-29.5 11l-19 -149
q16 -6 39 -11.5t48.5 -8.5t49.5 -3z" />
    <glyph glyph-name="agrave" unicode="&#xe0;" horiz-adv-x="580" 
d="M216 139q0 12 7.5 21t21 14.5t30.5 5.5q36 0 59 -8t44 -25v86q-12 12 -38 21.5t-58 15t-61 5.5q-60 0 -105.5 -18t-70.5 -50.5t-25 -76.5t21.5 -75.5t60.5 -48t91 -16.5q48 0 86 16.5t60 48t22 75.5l-16 60q0 -33 -12 -51t-31 -25.5t-39 -7.5q-12 0 -23 3.5t-17.5 10.5
t-6.5 19zM121 298q11 6 34.5 14t54 14.5t63.5 6.5q38 0 55 -17.5t17 -43.5v-272h185v320q0 50 -31 84.5t-84.5 52.5t-121.5 18q-62 0 -122.5 -16t-108.5 -35zM113 685l180 -150l110 50l-150 160z" />
    <glyph glyph-name="aacute" unicode="&#xe1;" horiz-adv-x="580" 
d="M216 139q0 12 7.5 21t21 14.5t30.5 5.5q36 0 59 -8t44 -25v86q-12 12 -38 21.5t-58 15t-61 5.5q-60 0 -105.5 -18t-70.5 -50.5t-25 -76.5t21.5 -75.5t60.5 -48t91 -16.5q48 0 86 16.5t60 48t22 75.5l-16 60q0 -33 -12 -51t-31 -25.5t-39 -7.5q-12 0 -23 3.5t-17.5 10.5
t-6.5 19zM121 298q11 6 34.5 14t54 14.5t63.5 6.5q38 0 55 -17.5t17 -43.5v-272h185v320q0 50 -31 84.5t-84.5 52.5t-121.5 18q-62 0 -122.5 -16t-108.5 -35zM473 685l-140 60l-150 -160l110 -50z" />
    <glyph glyph-name="acircumflex" unicode="&#xe2;" horiz-adv-x="580" 
d="M216 139q0 12 7.5 21t21 14.5t30.5 5.5q36 0 59 -8t44 -25v86q-12 12 -38 21.5t-58 15t-61 5.5q-60 0 -105.5 -18t-70.5 -50.5t-25 -76.5t21.5 -75.5t60.5 -48t91 -16.5q48 0 86 16.5t60 48t22 75.5l-16 60q0 -33 -12 -51t-31 -25.5t-39 -7.5q-12 0 -23 3.5t-17.5 10.5
t-6.5 19zM121 298q11 6 34.5 14t54 14.5t63.5 6.5q38 0 55 -17.5t17 -43.5v-272h185v320q0 50 -31 84.5t-84.5 52.5t-121.5 18q-62 0 -122.5 -16t-108.5 -35zM293 615l80 -80l140 90l-220 140l-220 -140l140 -90z" />
    <glyph glyph-name="atilde" unicode="&#xe3;" horiz-adv-x="580" 
d="M216 139q0 12 7.5 21t21 14.5t30.5 5.5q36 0 59 -8t44 -25v86q-12 12 -38 21.5t-58 15t-61 5.5q-60 0 -105.5 -18t-70.5 -50.5t-25 -76.5t21.5 -75.5t60.5 -48t91 -16.5q48 0 86 16.5t60 48t22 75.5l-16 60q0 -33 -12 -51t-31 -25.5t-39 -7.5q-12 0 -23 3.5t-17.5 10.5
t-6.5 19zM121 298q11 6 34.5 14t54 14.5t63.5 6.5q38 0 55 -17.5t17 -43.5v-272h185v320q0 50 -31 84.5t-84.5 52.5t-121.5 18q-62 0 -122.5 -16t-108.5 -35zM78 618l83 -77q0 8 3.5 20t13.5 21.5t28 9.5q26 0 50 -14.5t49 -28.5t52 -14q35 0 66.5 15.5t54 37.5t30.5 40
l-86 93q-15 -24 -32 -40t-39 -16t-38 8.5t-30.5 19t-32.5 19t-43 8.5q-37 0 -64.5 -15.5t-43.5 -38.5t-21 -48z" />
    <glyph glyph-name="adieresis" unicode="&#xe4;" horiz-adv-x="580" 
d="M216 139q0 12 7.5 21t21 14.5t30.5 5.5q36 0 59 -8t44 -25v86q-12 12 -38 21.5t-58 15t-61 5.5q-60 0 -105.5 -18t-70.5 -50.5t-25 -76.5t21.5 -75.5t60.5 -48t91 -16.5q48 0 86 16.5t60 48t22 75.5l-16 60q0 -33 -12 -51t-31 -25.5t-39 -7.5q-12 0 -23 3.5t-17.5 10.5
t-6.5 19zM121 298q11 6 34.5 14t54 14.5t63.5 6.5q38 0 55 -17.5t17 -43.5v-272h185v320q0 50 -31 84.5t-84.5 52.5t-121.5 18q-62 0 -122.5 -16t-108.5 -35zM320 633q0 -44 31.5 -71t76.5 -27t76.5 27t31.5 71t-31.5 71t-76.5 27t-76.5 -27t-31.5 -71zM50 633
q0 -44 31.5 -71t76.5 -27t76.5 27t31.5 71t-31.5 71t-76.5 27t-76.5 -27t-31.5 -71z" />
    <glyph glyph-name="aring" unicode="&#xe5;" horiz-adv-x="580" 
d="M216 139q0 12 7.5 21t21 14.5t30.5 5.5q36 0 59 -8t44 -25v86q-12 12 -38 21.5t-58 15t-61 5.5q-60 0 -105.5 -18t-70.5 -50.5t-25 -76.5t21.5 -75.5t60.5 -48t91 -16.5q48 0 86 16.5t60 48t22 75.5l-16 60q0 -33 -12 -51t-31 -25.5t-39 -7.5q-12 0 -23 3.5t-17.5 10.5
t-6.5 19zM121 298q11 6 34.5 14t54 14.5t63.5 6.5q38 0 55 -17.5t17 -43.5v-272h185v320q0 50 -31 84.5t-84.5 52.5t-121.5 18q-62 0 -122.5 -16t-108.5 -35zM154 660q0 -55 39 -90t99 -35t100 35t40 90q0 56 -40 90.5t-100 34.5t-99 -34.5t-39 -90.5zM249 660q0 21 12 33
t31 12t31.5 -12t12.5 -33t-12.5 -32.5t-31.5 -11.5t-31 11.5t-12 32.5z" />
    <glyph glyph-name="ae" unicode="&#xe6;" horiz-adv-x="939" 
d="M223 -10q87 0 144 28t77 80l-12 1q24 -55 77.5 -82t138.5 -27q98 0 161.5 36t102.5 111l-178 28q-10 -20 -37 -32.5t-59 -12.5q-25 0 -42 9t-26.5 28.5t-12.5 50.5l-19 -18h365q1 6 1.5 20.5t0.5 28.5q0 75 -27 126.5t-80 78t-130 26.5q-51 0 -93.5 -12t-75 -36
t-55.5 -60h13q-7 59 -47 86t-117 27q-52 0 -107.5 -12.5t-123.5 -38.5l59 -126q19 9 46 17t55.5 13t50.5 5q36 0 54 -15.5t18 -45.5v-52h87q-72 31 -119 43t-92 12q-60 0 -105.5 -18t-70.5 -50.5t-25 -76.5q0 -67 53 -103.5t150 -36.5zM263 106q-24 0 -35.5 8.5t-11.5 24.5
q0 21 14.5 31t44.5 10q26 0 51.5 -7t47.5 -21l-30 27l4 -35l-2 38q0 -36 -22 -56t-61 -20zM556 234q0 39 8.5 64.5t25.5 38.5t43 13q22 0 36.5 -9.5t22 -28t7.5 -46.5v-6t-2 -10l23 34h-182z" />
    <glyph glyph-name="ccedilla" unicode="&#xe7;" horiz-adv-x="503" 
d="M231 230q0 26 14 46.5t37.5 33t50.5 12.5q17 0 39 -5.5t44 -18t37 -34.5v177q-24 11 -54.5 20t-85.5 9q-82 0 -146 -29t-100.5 -82.5t-36.5 -128.5q0 -74 36.5 -128t100.5 -83t146 -29q55 0 85.5 9t54.5 22v176q-15 -21 -35 -34t-41.5 -19t-43.5 -6q-27 0 -50.5 10.5
t-37.5 31t-14 50.5zM225 62l-89 -211q32 11 61 13t36 2q22 0 44.5 -4.5t22.5 -25.5q0 -18 -15.5 -25t-41.5 -7q-12 0 -41 5.5t-51 20.5l-53 -86q44 -23 85.5 -31.5t91.5 -8.5q34 0 67.5 13t56 39.5t22.5 65.5q0 38 -16.5 63t-40.5 37t-46 12q-15 0 -28 -1t-25 -5l100 128z
" />
    <glyph glyph-name="egrave" unicode="&#xe8;" horiz-adv-x="609" 
d="M136 190h437q2 16 2 29.5v19.5q0 73 -29.5 124.5t-88.5 79t-149 27.5q-84 0 -141.5 -24t-90 -67t-42.5 -100q-2 -12 -3 -24t-1 -25q0 -69 31.5 -123.5t95.5 -85.5t161 -31q70 0 120.5 18t85.5 51t58 78l-178 28q-8 -15 -21.5 -25t-32 -15t-42.5 -5q-20 0 -39 9.5
t-31 33.5t-12 67l2 20q0 33 8.5 55.5t25 33.5t41.5 11q20 0 33 -7t20.5 -21.5t10.5 -37.5h-231v-94zM128 681l180 -150l110 50l-150 160z" />
    <glyph glyph-name="eacute" unicode="&#xe9;" horiz-adv-x="609" 
d="M136 190h437q2 16 2 29.5v19.5q0 73 -29.5 124.5t-88.5 79t-149 27.5q-84 0 -141.5 -24t-90 -67t-42.5 -100q-2 -12 -3 -24t-1 -25q0 -69 31.5 -123.5t95.5 -85.5t161 -31q70 0 120.5 18t85.5 51t58 78l-178 28q-8 -15 -21.5 -25t-32 -15t-42.5 -5q-20 0 -39 9.5
t-31 33.5t-12 67l2 20q0 33 8.5 55.5t25 33.5t41.5 11q20 0 33 -7t20.5 -21.5t10.5 -37.5h-231v-94zM488 681l-140 60l-150 -160l110 -50z" />
    <glyph glyph-name="ecircumflex" unicode="&#xea;" horiz-adv-x="609" 
d="M136 190h437q2 16 2 29.5v19.5q0 73 -29.5 124.5t-88.5 79t-149 27.5q-84 0 -141.5 -24t-90 -67t-42.5 -100q-2 -12 -3 -24t-1 -25q0 -69 31.5 -123.5t95.5 -85.5t161 -31q70 0 120.5 18t85.5 51t58 78l-178 28q-8 -15 -21.5 -25t-32 -15t-42.5 -5q-20 0 -39 9.5
t-31 33.5t-12 67l2 20q0 33 8.5 55.5t25 33.5t41.5 11q20 0 33 -7t20.5 -21.5t10.5 -37.5h-231v-94zM308 611l80 -80l140 90l-220 140l-220 -140l140 -90z" />
    <glyph glyph-name="edieresis" unicode="&#xeb;" horiz-adv-x="609" 
d="M136 190h437q2 16 2 29.5v19.5q0 73 -29.5 124.5t-88.5 79t-149 27.5q-84 0 -141.5 -24t-90 -67t-42.5 -100q-2 -12 -3 -24t-1 -25q0 -69 31.5 -123.5t95.5 -85.5t161 -31q70 0 120.5 18t85.5 51t58 78l-178 28q-8 -15 -21.5 -25t-32 -15t-42.5 -5q-20 0 -39 9.5
t-31 33.5t-12 67l2 20q0 33 8.5 55.5t25 33.5t41.5 11q20 0 33 -7t20.5 -21.5t10.5 -37.5h-231v-94zM335 629q0 -44 31.5 -71t76.5 -27t76.5 27t31.5 71t-31.5 71t-76.5 27t-76.5 -27t-31.5 -71zM65 629q0 -44 31.5 -71t76.5 -27t76.5 27t31.5 71t-31.5 71t-76.5 27
t-76.5 -27t-31.5 -71z" />
    <glyph glyph-name="igrave" unicode="&#xec;" horiz-adv-x="286" 
d="M49 460v-460h187v460h-187zM-50 681l180 -150l110 50l-150 160z" />
    <glyph glyph-name="iacute" unicode="&#xed;" horiz-adv-x="286" 
d="M49 460v-460h187v460h-187zM322 681l-140 60l-150 -160l110 -50z" />
    <glyph glyph-name="icircumflex" unicode="&#xee;" horiz-adv-x="286" 
d="M49 460v-460h187v460h-187zM142 611l80 -80l140 90l-220 140l-220 -140l140 -90z" />
    <glyph glyph-name="idieresis" unicode="&#xef;" horiz-adv-x="286" 
d="M49 460v-460h187v460h-187zM170 629q0 -44 31.5 -71t76.5 -27t76.5 27t31.5 71t-31.5 71t-76.5 27t-76.5 -27t-31.5 -71zM-100 629q0 -44 31.5 -71t76.5 -27t76.5 27t31.5 71t-31.5 71t-76.5 27t-76.5 -27t-31.5 -71z" />
    <glyph glyph-name="eth" unicode="&#xf0;" horiz-adv-x="657" 
d="M324 -20q81 0 145.5 36t101.5 98.5t37 140.5q0 46 -14.5 96t-42 102.5t-69 107t-95 110.5t-118.5 111l-151 -87q56 -37 105.5 -79t93 -89t81 -98.5t68.5 -108.5l41 -2q-93 165 -244 165q-64 0 -112 -28t-74.5 -79.5t-26.5 -120.5q0 -80 35 -142.5t97 -97.5t142 -35z
M328 145q-23 0 -40.5 11t-27 30t-9.5 44t10 44.5t27.5 30.5t39.5 11q23 0 40 -11t27 -30.5t10 -44.5t-9.5 -44t-27 -30t-40.5 -11zM140 509l390 115l-16 60l-390 -115z" />
    <glyph glyph-name="ntilde" unicode="&#xf1;" horiz-adv-x="605" 
d="M245 460h-195v-460h195v460zM350 280v-280h205v300q0 82 -37 126.5t-131 44.5q-62 0 -99 -27.5t-53 -73t-16 -100.5l26 10q0 23 7 37.5t20 21.5t30 7q30 0 39 -17.5t9 -48.5zM88 614l82 -77q0 8 4 20t14 21.5t28 9.5q26 0 50 -14.5t48.5 -28.5t51.5 -14q35 0 67 15.5
t54.5 37.5t30.5 40l-86 93q-15 -24 -32.5 -40t-39.5 -16t-38 8.5t-30.5 19t-32.5 19t-43 8.5q-37 0 -64 -15.5t-43 -38.5t-21 -48z" />
    <glyph glyph-name="ograve" unicode="&#xf2;" horiz-adv-x="616" 
d="M30 230q0 -74 36 -128t99 -83t143 -29t143 29t99 83t36 128q0 75 -36 129t-99 83t-143 29t-143 -29t-99 -83t-36 -129zM231 230q0 28 11 47t28.5 29t37.5 10t37.5 -10t28.5 -29t11 -47t-11 -47t-28.5 -28.5t-37.5 -9.5t-37.5 9.5t-28.5 28.5t-11 47zM148 681l180 -150
l110 50l-150 160z" />
    <glyph glyph-name="oacute" unicode="&#xf3;" horiz-adv-x="616" 
d="M30 230q0 -74 36 -128t99 -83t143 -29t143 29t99 83t36 128q0 75 -36 129t-99 83t-143 29t-143 -29t-99 -83t-36 -129zM231 230q0 28 11 47t28.5 29t37.5 10t37.5 -10t28.5 -29t11 -47t-11 -47t-28.5 -28.5t-37.5 -9.5t-37.5 9.5t-28.5 28.5t-11 47zM468 681l-140 60
l-150 -160l110 -50z" />
    <glyph glyph-name="ocircumflex" unicode="&#xf4;" horiz-adv-x="616" 
d="M30 230q0 -74 36 -128t99 -83t143 -29t143 29t99 83t36 128q0 75 -36 129t-99 83t-143 29t-143 -29t-99 -83t-36 -129zM231 230q0 28 11 47t28.5 29t37.5 10t37.5 -10t28.5 -29t11 -47t-11 -47t-28.5 -28.5t-37.5 -9.5t-37.5 9.5t-28.5 28.5t-11 47zM308 611l80 -80
l140 90l-220 140l-220 -140l140 -90z" />
    <glyph glyph-name="otilde" unicode="&#xf5;" horiz-adv-x="616" 
d="M30 230q0 -74 36 -128t99 -83t143 -29t143 29t99 83t36 128q0 75 -36 129t-99 83t-143 29t-143 -29t-99 -83t-36 -129zM231 230q0 28 11 47t28.5 29t37.5 10t37.5 -10t28.5 -29t11 -47t-11 -47t-28.5 -28.5t-37.5 -9.5t-37.5 9.5t-28.5 28.5t-11 47zM93 614l83 -77
q0 8 3.5 20t13.5 21.5t28 9.5q26 0 50 -14.5t49 -28.5t52 -14q35 0 66.5 15.5t54 37.5t30.5 40l-86 93q-15 -24 -32 -40t-39 -16t-38 8.5t-30.5 19t-32.5 19t-43 8.5q-37 0 -64.5 -15.5t-43.5 -38.5t-21 -48z" />
    <glyph glyph-name="odieresis" unicode="&#xf6;" horiz-adv-x="616" 
d="M30 230q0 -74 36 -128t99 -83t143 -29t143 29t99 83t36 128q0 75 -36 129t-99 83t-143 29t-143 -29t-99 -83t-36 -129zM231 230q0 28 11 47t28.5 29t37.5 10t37.5 -10t28.5 -29t11 -47t-11 -47t-28.5 -28.5t-37.5 -9.5t-37.5 9.5t-28.5 28.5t-11 47zM335 629
q0 -44 31.5 -71t76.5 -27t76.5 27t31.5 71t-31.5 71t-76.5 27t-76.5 -27t-31.5 -71zM65 629q0 -44 31.5 -71t76.5 -27t76.5 27t31.5 71t-31.5 71t-76.5 27t-76.5 -27t-31.5 -71z" />
    <glyph glyph-name="divide" unicode="&#xf7;" horiz-adv-x="650" 
d="M207 615q0 -47 33 -81t85 -34q53 0 85.5 34t32.5 81t-32.5 81t-85.5 34q-52 0 -85 -34t-33 -81zM207 115q0 -47 33 -81t85 -34q53 0 85.5 34t32.5 81t-32.5 81t-85.5 34q-52 0 -85 -34t-33 -81zM5 280h640v170h-640v-170z" />
    <glyph glyph-name="oslash" unicode="&#xf8;" horiz-adv-x="546" 
d="M30 230q0 -79 37 -132.5t100 -80.5t141 -27t141 27t100 80.5t37 132.5q0 80 -37 133t-100 80t-141 27t-141 -27t-100 -80t-37 -133zM211 230q0 28 14 49.5t36 33.5t47 12t47 -12t36 -33.5t14 -49.5q0 -33 -14 -54t-36 -31t-47 -10t-47 10t-36 31t-14 54zM465 510
l-390 -524l65 -40l390 524z" />
    <glyph glyph-name="ugrave" unicode="&#xf9;" horiz-adv-x="605" 
d="M360 0h195v460h-195v-460zM255 180v280h-205v-300q0 -82 37 -126.5t131 -44.5q63 0 99.5 27.5t52.5 73.5t16 100l-26 -10q0 -23 -7 -37.5t-19.5 -21.5t-30.5 -7q-30 0 -39 17.5t-9 48.5zM142 681l180 -150l110 50l-150 160z" />
    <glyph glyph-name="uacute" unicode="&#xfa;" horiz-adv-x="605" 
d="M360 0h195v460h-195v-460zM255 180v280h-205v-300q0 -82 37 -126.5t131 -44.5q63 0 99.5 27.5t52.5 73.5t16 100l-26 -10q0 -23 -7 -37.5t-19.5 -21.5t-30.5 -7q-30 0 -39 17.5t-9 48.5zM462 681l-140 60l-150 -160l110 -50z" />
    <glyph glyph-name="ucircumflex" unicode="&#xfb;" horiz-adv-x="605" 
d="M360 0h195v460h-195v-460zM255 180v280h-205v-300q0 -82 37 -126.5t131 -44.5q63 0 99.5 27.5t52.5 73.5t16 100l-26 -10q0 -23 -7 -37.5t-19.5 -21.5t-30.5 -7q-30 0 -39 17.5t-9 48.5zM302 611l80 -80l140 90l-220 140l-220 -140l140 -90z" />
    <glyph glyph-name="udieresis" unicode="&#xfc;" horiz-adv-x="605" 
d="M360 0h195v460h-195v-460zM255 180v280h-205v-300q0 -82 37 -126.5t131 -44.5q63 0 99.5 27.5t52.5 73.5t16 100l-26 -10q0 -23 -7 -37.5t-19.5 -21.5t-30.5 -7q-30 0 -39 17.5t-9 48.5zM330 629q0 -44 31.5 -71t76.5 -27t76.5 27t31.5 71t-31.5 71t-76.5 27t-76.5 -27
t-31.5 -71zM60 629q0 -44 31.5 -71t76.5 -27t76.5 27t31.5 71t-31.5 71t-76.5 27t-76.5 -27t-31.5 -71z" />
    <glyph glyph-name="yacute" unicode="&#xfd;" horiz-adv-x="570" 
d="M585 460h-195l-150 -375h105l-150 375h-210l213 -440l-103 -240h190zM465 681l-140 60l-150 -160l110 -50z" />
    <glyph glyph-name="thorn" unicode="&#xfe;" 
d="M245 -220v1000h-195v-1000h195zM615 230q0 80 -31.5 133t-80 80t-101.5 27q-57 0 -103 -29t-73 -82.5t-27 -128.5q0 -74 27 -128t73 -83t103 -29q53 0 101.5 27t80 80.5t31.5 132.5zM409 230q0 -25 -11 -45.5t-29.5 -32.5t-41.5 -12q-20 0 -39 11t-31 31t-12 48t12 48
t31 31t39 11q23 0 41.5 -12t29.5 -32t11 -46z" />
    <glyph glyph-name="ydieresis" unicode="&#xff;" horiz-adv-x="570" 
d="M585 460h-195l-150 -375h105l-150 375h-210l213 -440l-103 -240h190zM312 629q0 -44 31.5 -71t76.5 -27t76.5 27t31.5 71t-31.5 71t-76.5 27t-76.5 -27t-31.5 -71zM42 629q0 -44 31.5 -71t76.5 -27t76.5 27t31.5 71t-31.5 71t-76.5 27t-76.5 -27t-31.5 -71z" />
    <glyph glyph-name="Amacron" unicode="&#x100;" horiz-adv-x="780" 
d="M207 90h370v158h-370v-158zM390 382l86 -193l-15 -57l74 -132h250l-395 750l-395 -750h250l76 139l-17 50zM198 810h384v165h-384v-165z" />
    <glyph glyph-name="amacron" unicode="&#x101;" horiz-adv-x="580" 
d="M216 139q0 12 7.5 21t21 14.5t30.5 5.5q36 0 59 -8t44 -25v86q-12 12 -38 21.5t-58 15t-61 5.5q-60 0 -105.5 -18t-70.5 -50.5t-25 -76.5t21.5 -75.5t60.5 -48t91 -16.5q48 0 86 16.5t60 48t22 75.5l-16 60q0 -33 -12 -51t-31 -25.5t-39 -7.5q-12 0 -23 3.5t-17.5 10.5
t-6.5 19zM121 298q11 6 34.5 14t54 14.5t63.5 6.5q38 0 55 -17.5t17 -43.5v-272h185v320q0 50 -31 84.5t-84.5 52.5t-121.5 18q-62 0 -122.5 -16t-108.5 -35zM100 535h386v165h-386v-165z" />
    <glyph glyph-name="Abreve" unicode="&#x102;" horiz-adv-x="780" 
d="M207 90h370v158h-370v-158zM390 382l86 -193l-15 -57l74 -132h250l-395 750l-395 -750h250l76 139l-17 50zM222 960q0 -44 20 -78t58 -53t90 -19q53 0 90.5 19t57.5 53t20 78h-116q0 -20 -9 -31t-21 -15t-22 -4t-22 4t-21 15t-9 31h-116z" />
    <glyph glyph-name="abreve" unicode="&#x103;" horiz-adv-x="580" 
d="M216 139q0 12 7.5 21t21 14.5t30.5 5.5q36 0 59 -8t44 -25v86q-12 12 -38 21.5t-58 15t-61 5.5q-60 0 -105.5 -18t-70.5 -50.5t-25 -76.5t21.5 -75.5t60.5 -48t91 -16.5q48 0 86 16.5t60 48t22 75.5l-16 60q0 -33 -12 -51t-31 -25.5t-39 -7.5q-12 0 -23 3.5t-17.5 10.5
t-6.5 19zM121 298q11 6 34.5 14t54 14.5t63.5 6.5q38 0 55 -17.5t17 -43.5v-272h185v320q0 50 -31 84.5t-84.5 52.5t-121.5 18q-62 0 -122.5 -16t-108.5 -35zM125 685q0 -44 20 -78t58 -53t90 -19q53 0 90.5 19t57.5 53t20 78h-116q0 -20 -9 -31t-21 -15t-22 -4t-22 4
t-21 15t-9 31h-116z" />
    <glyph glyph-name="Aogonek" unicode="&#x104;" horiz-adv-x="780" 
d="M207 90h370v158h-370v-158zM390 382l86 -193l-15 -57l74 -132h250l-395 750l-395 -750h250l76 139l-17 50zM710 -100q-10 -10 -24 -15t-26 -5q-15 0 -21.5 8.5t-6.5 21.5q0 14 7.5 28.5t23.5 30t42 31.5l-41 25q-35 -18 -67.5 -38.5t-53.5 -46t-21 -60.5q0 -34 17 -56.5
t43 -33t53 -10.5q47 0 72 12.5t36 27.5z" />
    <glyph glyph-name="aogonek" unicode="&#x105;" horiz-adv-x="580" 
d="M216 139q0 12 7.5 21t21 14.5t30.5 5.5q36 0 59 -8t44 -25v86q-12 12 -38 21.5t-58 15t-61 5.5q-60 0 -105.5 -18t-70.5 -50.5t-25 -76.5t21.5 -75.5t60.5 -48t91 -16.5q48 0 86 16.5t60 48t22 75.5l-16 60q0 -33 -12 -51t-31 -25.5t-39 -7.5q-12 0 -23 3.5t-17.5 10.5
t-6.5 19zM121 298q11 6 34.5 14t54 14.5t63.5 6.5q38 0 55 -17.5t17 -43.5v-272h185v320q0 50 -31 84.5t-84.5 52.5t-121.5 18q-62 0 -122.5 -16t-108.5 -35zM485 -100q-10 -10 -24 -15t-26 -5q-15 0 -21.5 8.5t-6.5 21.5q0 14 7.5 28.5t23.5 30t42 31.5l-41 25
q-35 -18 -67.5 -38.5t-53.5 -46t-21 -60.5q0 -34 17 -56.5t43 -33t53 -10.5q47 0 72 12.5t36 27.5z" />
    <glyph glyph-name="Cacute" unicode="&#x106;" horiz-adv-x="710" 
d="M272 350q0 54 24.5 90.5t65 54.5t89.5 18q50 0 86 -12.5t63.5 -32.5t49.5 -41v226q-41 29 -89.5 48t-125.5 19q-91 0 -166 -26t-128 -75t-82 -117t-29 -152t29 -152t82 -117t128 -75t166 -26q77 0 125.5 19.5t89.5 47.5v226q-22 -21 -49.5 -40.5t-63.5 -32.5t-86 -13
q-49 0 -89.5 18t-65 54.5t-24.5 90.5zM565 930l-140 60l-150 -160l110 -50z" />
    <glyph glyph-name="cacute" unicode="&#x107;" horiz-adv-x="503" 
d="M231 230q0 26 14 46.5t37.5 33t50.5 12.5q17 0 39 -5.5t44 -18t37 -34.5v177q-24 11 -54.5 20t-85.5 9q-82 0 -146 -29t-100.5 -82.5t-36.5 -128.5q0 -74 36.5 -128t100.5 -83t146 -29q55 0 85.5 9t54.5 22v176q-15 -21 -35 -34t-41.5 -19t-43.5 -6q-27 0 -50.5 10.5
t-37.5 31t-14 50.5zM443 681l-140 60l-150 -160l110 -50z" />
    <glyph glyph-name="Ccircumflex" unicode="&#x108;" horiz-adv-x="710" 
d="M272 350q0 54 24.5 90.5t65 54.5t89.5 18q50 0 86 -12.5t63.5 -32.5t49.5 -41v226q-41 29 -89.5 48t-125.5 19q-91 0 -166 -26t-128 -75t-82 -117t-29 -152t29 -152t82 -117t128 -75t166 -26q77 0 125.5 19.5t89.5 47.5v226q-22 -21 -49.5 -40.5t-63.5 -32.5t-86 -13
q-49 0 -89.5 18t-65 54.5t-24.5 90.5zM435 860l80 -80l140 90l-220 140l-220 -140l140 -90z" />
    <glyph glyph-name="ccircumflex" unicode="&#x109;" horiz-adv-x="503" 
d="M231 230q0 26 14 46.5t37.5 33t50.5 12.5q17 0 39 -5.5t44 -18t37 -34.5v177q-24 11 -54.5 20t-85.5 9q-82 0 -146 -29t-100.5 -82.5t-36.5 -128.5q0 -74 36.5 -128t100.5 -83t146 -29q55 0 85.5 9t54.5 22v176q-15 -21 -35 -34t-41.5 -19t-43.5 -6q-27 0 -50.5 10.5
t-37.5 31t-14 50.5zM263 611l80 -80l140 90l-220 140l-220 -140l140 -90z" />
    <glyph glyph-name="Cdotaccent" unicode="&#x10a;" horiz-adv-x="710" 
d="M272 350q0 54 24.5 90.5t65 54.5t89.5 18q50 0 86 -12.5t63.5 -32.5t49.5 -41v226q-41 29 -89.5 48t-125.5 19q-91 0 -166 -26t-128 -75t-82 -117t-29 -152t29 -152t82 -117t128 -75t166 -26q77 0 125.5 19.5t89.5 47.5v226q-22 -21 -49.5 -40.5t-63.5 -32.5t-86 -13
q-49 0 -89.5 18t-65 54.5t-24.5 90.5zM287 878q0 -44 31.5 -71t76.5 -27t76.5 27t31.5 71t-31.5 71t-76.5 27t-76.5 -27t-31.5 -71z" />
    <glyph glyph-name="cdotaccent" unicode="&#x10b;" horiz-adv-x="503" 
d="M231 230q0 26 14 46.5t37.5 33t50.5 12.5q17 0 39 -5.5t44 -18t37 -34.5v177q-24 11 -54.5 20t-85.5 9q-82 0 -146 -29t-100.5 -82.5t-36.5 -128.5q0 -74 36.5 -128t100.5 -83t146 -29q55 0 85.5 9t54.5 22v176q-15 -21 -35 -34t-41.5 -19t-43.5 -6q-27 0 -50.5 10.5
t-37.5 31t-14 50.5zM165 639q0 -44 31.5 -71t76.5 -27t76.5 27t31.5 71t-31.5 71t-76.5 27t-76.5 -27t-31.5 -71z" />
    <glyph glyph-name="Ccaron" unicode="&#x10c;" horiz-adv-x="710" 
d="M272 350q0 54 24.5 90.5t65 54.5t89.5 18q50 0 86 -12.5t63.5 -32.5t49.5 -41v226q-41 29 -89.5 48t-125.5 19q-91 0 -166 -26t-128 -75t-82 -117t-29 -152t29 -152t82 -117t128 -75t166 -26q77 0 125.5 19.5t89.5 47.5v226q-22 -21 -49.5 -40.5t-63.5 -32.5t-86 -13
q-49 0 -89.5 18t-65 54.5t-24.5 90.5zM435 930l-80 80l-140 -90l220 -140l220 140l-140 90z" />
    <glyph glyph-name="ccaron" unicode="&#x10d;" horiz-adv-x="503" 
d="M231 230q0 26 14 46.5t37.5 33t50.5 12.5q17 0 39 -5.5t44 -18t37 -34.5v177q-24 11 -54.5 20t-85.5 9q-82 0 -146 -29t-100.5 -82.5t-36.5 -128.5q0 -74 36.5 -128t100.5 -83t146 -29q55 0 85.5 9t54.5 22v176q-15 -21 -35 -34t-41.5 -19t-43.5 -6q-27 0 -50.5 10.5
t-37.5 31t-14 50.5zM263 681l-80 80l-140 -90l220 -140l220 140l-140 90z" />
    <glyph glyph-name="Dcaron" unicode="&#x10e;" horiz-adv-x="765" 
d="M70 700v-700h229v700h-229zM345 0q122 0 209.5 42t134 120.5t46.5 187.5q0 110 -46.5 188t-134 120t-209.5 42h-123v-190h113q29 0 59 -5t55 -21t40.5 -48t15.5 -86t-15.5 -86t-40.5 -48t-55 -21t-59 -5h-113v-190h123zM403 930l-80 80l-140 -90l220 -140l220 140
l-140 90z" />
    <glyph glyph-name="dcaron" unicode="&#x10f;" 
d="M400 780v-780h195v780h-195zM30 230q0 -79 31.5 -132.5t80.5 -80.5t101 -27q58 0 103.5 29t72.5 83t27 128q0 75 -27 128.5t-72.5 82.5t-103.5 29q-52 0 -101 -27t-80.5 -80t-31.5 -133zM236 230q0 26 11 46t30 32t41 12q20 0 39 -11t31 -31t12 -48t-12 -48t-31 -31
t-39 -11q-22 0 -41 12t-30 32.5t-11 45.5zM713 780l-88 -259l148 -25l135 250z" />
    <glyph glyph-name="Dcroat" unicode="&#x110;" horiz-adv-x="765" 
d="M5 290h370v115h-370v-115zM70 700v-700h229v700h-229zM345 0q122 0 209.5 42t134 120.5t46.5 187.5q0 110 -46.5 188t-134 120t-209.5 42h-123v-190h113q29 0 59 -5t55 -21t40.5 -48t15.5 -86t-15.5 -86t-40.5 -48t-55 -21t-59 -5h-113v-190h123z" />
    <glyph glyph-name="dcroat" unicode="&#x111;" 
d="M295 550h390v115h-390v-115zM400 780v-780h195v780h-195zM30 230q0 -79 31.5 -132.5t80.5 -80.5t101 -27q58 0 103.5 29t72.5 83t27 128q0 75 -27 128.5t-72.5 82.5t-103.5 29q-52 0 -101 -27t-80.5 -80t-31.5 -133zM236 230q0 26 11 46t30 32t41 12q15 0 29.5 -6
t26.5 -18t19 -28.5t7 -37.5t-7 -37.5t-19 -28.5t-26.5 -18t-29.5 -6q-22 0 -41 12t-30 32.5t-11 45.5z" />
    <glyph glyph-name="Emacron" unicode="&#x112;" horiz-adv-x="635" 
d="M222 0h353v175h-353v-175zM222 525h353v175h-353v-175zM222 275h333v170h-333v-170zM70 700v-700h210v700h-210zM130 780h385v165h-385v-165z" />
    <glyph glyph-name="emacron" unicode="&#x113;" horiz-adv-x="609" 
d="M136 190h437q2 16 2 29.5v19.5q0 73 -29.5 124.5t-88.5 79t-149 27.5q-84 0 -141.5 -24t-90 -67t-42.5 -100q-2 -12 -3 -24t-1 -25q0 -69 31.5 -123.5t95.5 -85.5t161 -31q70 0 120.5 18t85.5 51t58 78l-178 28q-8 -15 -21.5 -25t-32 -15t-42.5 -5q-20 0 -39 9.5
t-31 33.5t-12 67l2 20q0 33 8.5 55.5t25 33.5t41.5 11q20 0 33 -7t20.5 -21.5t10.5 -37.5h-231v-94zM116 531h385v165h-385v-165z" />
    <glyph glyph-name="Ebreve" unicode="&#x114;" horiz-adv-x="635" 
d="M222 0h353v175h-353v-175zM222 525h353v175h-353v-175zM222 275h333v170h-333v-170zM70 700v-700h210v700h-210zM154 930q0 -44 20 -78t58 -53t90 -19q53 0 90.5 19t57.5 53t20 78h-116q0 -20 -9 -31t-21 -15t-22 -4t-22 4t-21 15t-9 31h-116z" />
    <glyph glyph-name="ebreve" unicode="&#x115;" horiz-adv-x="609" 
d="M136 190h437q2 16 2 29.5v19.5q0 73 -29.5 124.5t-88.5 79t-149 27.5q-84 0 -141.5 -24t-90 -67t-42.5 -100q-2 -12 -3 -24t-1 -25q0 -69 31.5 -123.5t95.5 -85.5t161 -31q70 0 120.5 18t85.5 51t58 78l-178 28q-8 -15 -21.5 -25t-32 -15t-42.5 -5q-20 0 -39 9.5
t-31 33.5t-12 67l2 20q0 33 8.5 55.5t25 33.5t41.5 11q20 0 33 -7t20.5 -21.5t10.5 -37.5h-231v-94zM140 681q0 -44 20 -78t58 -53t90 -19q53 0 90.5 19t57.5 53t20 78h-116q0 -20 -9 -31t-21 -15t-22 -4t-22 4t-21 15t-9 31h-116z" />
    <glyph glyph-name="Edotaccent" unicode="&#x116;" horiz-adv-x="635" 
d="M222 0h353v175h-353v-175zM222 525h353v175h-353v-175zM222 275h333v170h-333v-170zM70 700v-700h210v700h-210zM214 878q0 -44 31.5 -71t76.5 -27t76.5 27t31.5 71t-31.5 71t-76.5 27t-76.5 -27t-31.5 -71z" />
    <glyph glyph-name="edotaccent" unicode="&#x117;" horiz-adv-x="609" 
d="M136 190h437q2 16 2 29.5v19.5q0 73 -29.5 124.5t-88.5 79t-149 27.5q-84 0 -141.5 -24t-90 -67t-42.5 -100q-2 -12 -3 -24t-1 -25q0 -69 31.5 -123.5t95.5 -85.5t161 -31q70 0 120.5 18t85.5 51t58 78l-178 28q-8 -15 -21.5 -25t-32 -15t-42.5 -5q-20 0 -39 9.5
t-31 33.5t-12 67l2 20q0 33 8.5 55.5t25 33.5t41.5 11q20 0 33 -7t20.5 -21.5t10.5 -37.5h-231v-94zM200 629q0 -44 31.5 -71t76.5 -27t76.5 27t31.5 71t-31.5 71t-76.5 27t-76.5 -27t-31.5 -71z" />
    <glyph glyph-name="Eogonek" unicode="&#x118;" horiz-adv-x="635" 
d="M222 0h353v175h-353v-175zM222 525h353v175h-353v-175zM222 275h333v170h-333v-170zM70 700v-700h210v700h-210zM420 -100q-10 -10 -24 -15t-26 -5q-15 0 -21.5 8.5t-6.5 21.5q0 14 7.5 28.5t23.5 30t42 31.5l-41 25q-35 -18 -67.5 -38.5t-53.5 -46t-21 -60.5
q0 -34 17 -56.5t43 -33t53 -10.5q47 0 72 12.5t36 27.5z" />
    <glyph glyph-name="eogonek" unicode="&#x119;" horiz-adv-x="609" 
d="M136 190h437q2 16 2 29.5v19.5q0 73 -29.5 124.5t-88.5 79t-149 27.5q-84 0 -141.5 -24t-90 -67t-42.5 -100q-2 -12 -3 -24t-1 -25q0 -69 31.5 -123.5t95.5 -85.5t161 -31q52 0 89.5 12t66.5 33t54.5 47.5t53.5 54.5l-178 28q-8 -15 -21.5 -25t-32 -15t-42.5 -5
q-20 0 -39 9.5t-31 33.5t-12 67l2 20q0 33 8.5 55.5t25 33.5t41.5 11q20 0 33 -7t20.5 -21.5t10.5 -37.5h-231v-94zM563 -15q-10 -10 -24 -15t-26 -5q-15 0 -21.5 8.5t-6.5 21.5q0 14 9 30t30.5 42.5t56.5 69.5l-64 -27q-26 -13 -51.5 -28t-46 -32t-32.5 -38t-12 -47
q0 -34 17 -56.5t43 -33t53 -10.5q47 0 72 12.5t36 27.5z" />
    <glyph glyph-name="Ecaron" unicode="&#x11a;" horiz-adv-x="635" 
d="M222 0h353v175h-353v-175zM222 525h353v175h-353v-175zM222 275h333v170h-333v-170zM70 700v-700h210v700h-210zM322 930l-80 80l-140 -90l220 -140l220 140l-140 90z" />
    <glyph glyph-name="ecaron" unicode="&#x11b;" horiz-adv-x="609" 
d="M136 190h437q2 16 2 29.5v19.5q0 73 -29.5 124.5t-88.5 79t-149 27.5q-84 0 -141.5 -24t-90 -67t-42.5 -100q-2 -12 -3 -24t-1 -25q0 -69 31.5 -123.5t95.5 -85.5t161 -31q70 0 120.5 18t85.5 51t58 78l-178 28q-8 -15 -21.5 -25t-32 -15t-42.5 -5q-20 0 -39 9.5
t-31 33.5t-12 67l2 20q0 33 8.5 55.5t25 33.5t41.5 11q20 0 33 -7t20.5 -21.5t10.5 -37.5h-231v-94zM308 681l-80 80l-140 -90l220 -140l220 140l-140 90z" />
    <glyph glyph-name="Gcircumflex" unicode="&#x11c;" horiz-adv-x="838" 
d="M430 240h158q-9 -19 -22 -35t-30.5 -27t-41.5 -17t-54 -6q-54 0 -94.5 23t-63 67t-22.5 105q0 62 24.5 103t65.5 61.5t90 20.5q50 0 79 -25t47 -58l205 92q-35 49 -81.5 88.5t-108 63.5t-141.5 24q-88 0 -162.5 -25.5t-130 -73.5t-86.5 -116.5t-31 -154.5t29.5 -156
t83 -120t126.5 -77t161 -27q95 0 168 33t121 92t69.5 137t13.5 168h-372v-160zM440 860l80 -80l140 90l-220 140l-220 -140l140 -90z" />
    <glyph glyph-name="gcircumflex" unicode="&#x11d;" horiz-adv-x="635" 
d="M40 -35q9 -62 36.5 -109.5t85 -74t154.5 -26.5q78 0 138.5 24.5t95.5 80.5t35 150v450h-185v-450q0 -33 -11 -56.5t-32 -36t-51 -12.5q-20 0 -36.5 4.5t-27.5 17.5t-15 38h-187zM30 240q0 -79 31.5 -130t80.5 -75.5t101 -24.5q58 0 103.5 26.5t72.5 78t27 125.5
q0 75 -27 126t-72.5 77.5t-103.5 26.5q-52 0 -101 -24.5t-80.5 -75t-31.5 -130.5zM236 240q0 26 11 43.5t30 27t41 9.5q15 0 29.5 -4.5t26.5 -14.5t19 -25t7 -36q0 -28 -12 -45.5t-31 -26t-39 -8.5q-22 0 -41 9.5t-30 27.5t-11 43zM353 611l80 -80l140 90l-220 140
l-220 -140l140 -90z" />
    <glyph glyph-name="Gbreve" unicode="&#x11e;" horiz-adv-x="838" 
d="M430 240h158q-9 -19 -22 -35t-30.5 -27t-41.5 -17t-54 -6q-54 0 -94.5 23t-63 67t-22.5 105q0 62 24.5 103t65.5 61.5t90 20.5q50 0 79 -25t47 -58l205 92q-35 49 -81.5 88.5t-108 63.5t-141.5 24q-88 0 -162.5 -25.5t-130 -73.5t-86.5 -116.5t-31 -154.5t29.5 -156
t83 -120t126.5 -77t161 -27q95 0 168 33t121 92t69.5 137t13.5 168h-372v-160zM272 930q0 -44 20 -78t58 -53t90 -19q53 0 90.5 19t57.5 53t20 78h-116q0 -20 -9 -31t-21 -15t-22 -4t-22 4t-21 15t-9 31h-116z" />
    <glyph glyph-name="gbreve" unicode="&#x11f;" horiz-adv-x="635" 
d="M40 -35q9 -62 36.5 -109.5t85 -74t154.5 -26.5q78 0 138.5 24.5t95.5 80.5t35 150v450h-185v-450q0 -33 -11 -56.5t-32 -36t-51 -12.5q-20 0 -36.5 4.5t-27.5 17.5t-15 38h-187zM30 240q0 -79 31.5 -130t80.5 -75.5t101 -24.5q58 0 103.5 26.5t72.5 78t27 125.5
q0 75 -27 126t-72.5 77.5t-103.5 26.5q-52 0 -101 -24.5t-80.5 -75t-31.5 -130.5zM236 240q0 26 11 43.5t30 27t41 9.5q15 0 29.5 -4.5t26.5 -14.5t19 -25t7 -36q0 -28 -12 -45.5t-31 -26t-39 -8.5q-22 0 -41 9.5t-30 27.5t-11 43zM185 681q0 -44 20 -78t58 -53t90 -19
q53 0 90.5 19t57.5 53t20 78h-116q0 -20 -9 -31t-21 -15t-22 -4t-22 4t-21 15t-9 31h-116z" />
    <glyph glyph-name="Gdotaccent" unicode="&#x120;" horiz-adv-x="838" 
d="M430 240h158q-9 -19 -22 -35t-30.5 -27t-41.5 -17t-54 -6q-54 0 -94.5 23t-63 67t-22.5 105q0 62 24.5 103t65.5 61.5t90 20.5q50 0 79 -25t47 -58l205 92q-35 49 -81.5 88.5t-108 63.5t-141.5 24q-88 0 -162.5 -25.5t-130 -73.5t-86.5 -116.5t-31 -154.5t29.5 -156
t83 -120t126.5 -77t161 -27q95 0 168 33t121 92t69.5 137t13.5 168h-372v-160zM332 878q0 -44 31.5 -71t76.5 -27t76.5 27t31.5 71t-31.5 71t-76.5 27t-76.5 -27t-31.5 -71z" />
    <glyph glyph-name="gdotaccent" unicode="&#x121;" horiz-adv-x="635" 
d="M40 -35q9 -62 36.5 -109.5t85 -74t154.5 -26.5q78 0 138.5 24.5t95.5 80.5t35 150v450h-185v-450q0 -33 -11 -56.5t-32 -36t-51 -12.5q-20 0 -36.5 4.5t-27.5 17.5t-15 38h-187zM30 240q0 -79 31.5 -130t80.5 -75.5t101 -24.5q58 0 103.5 26.5t72.5 78t27 125.5
q0 75 -27 126t-72.5 77.5t-103.5 26.5q-52 0 -101 -24.5t-80.5 -75t-31.5 -130.5zM236 240q0 26 11 43.5t30 27t41 9.5q15 0 29.5 -4.5t26.5 -14.5t19 -25t7 -36q0 -28 -12 -45.5t-31 -26t-39 -8.5q-22 0 -41 9.5t-30 27.5t-11 43zM215 629q0 -44 31.5 -71t76.5 -27t76.5 27
t31.5 71t-31.5 71t-76.5 27t-76.5 -27t-31.5 -71z" />
    <glyph glyph-name="uni0122" unicode="&#x122;" horiz-adv-x="838" 
d="M430 240h158q-9 -19 -22 -35t-30.5 -27t-41.5 -17t-54 -6q-54 0 -94.5 23t-63 67t-22.5 105q0 62 24.5 103t65.5 61.5t90 20.5q50 0 79 -25t47 -58l205 92q-35 49 -81.5 88.5t-108 63.5t-141.5 24q-88 0 -162.5 -25.5t-130 -73.5t-86.5 -116.5t-31 -154.5t29.5 -156
t83 -120t126.5 -77t161 -27q95 0 168 33t121 92t69.5 137t13.5 168h-372v-160zM327 -90l-88 -259l148 -25l135 250z" />
    <glyph glyph-name="uni0123" unicode="&#x123;" horiz-adv-x="570" 
d="M40 -35q9 -62 36.5 -109.5t85 -74t154.5 -26.5q78 0 138.5 24.5t95.5 80.5t35 150v450h-185v-450q0 -33 -11 -56.5t-32 -36t-51 -12.5q-20 0 -36.5 4.5t-27.5 17.5t-15 38h-187zM30 240q0 -79 31.5 -130t80.5 -75.5t101 -24.5q58 0 103.5 26.5t72.5 78t27 125.5
q0 75 -27 126t-72.5 77.5t-103.5 26.5q-52 0 -101 -24.5t-80.5 -75t-31.5 -130.5zM236 240q0 26 11 43.5t30 27t41 9.5q15 0 29.5 -4.5t26.5 -14.5t19 -25t7 -36q0 -28 -12 -45.5t-31 -26t-39 -8.5q-22 0 -41 9.5t-30 27.5t-11 43zM327 539l126 242l-142 48l-172 -226z" />
    <glyph glyph-name="Hcircumflex" unicode="&#x124;" horiz-adv-x="830" 
d="M117 265h560v195h-560v-195zM540 700v-700h220v700h-220zM70 700v-700h220v700h-220zM415 860l80 -80l140 90l-220 140l-220 -140l140 -90z" />
    <glyph glyph-name="hcircumflex" unicode="&#x125;" horiz-adv-x="595" 
d="M245 780h-195v-780h195v780zM350 280v-280h195v310q0 55 -13.5 93t-47.5 58t-97 20q-62 0 -99 -27.5t-53 -73t-16 -100.5h26q0 23 7 37.5t20 21.5t30 7q30 0 39 -17.5t9 -48.5zM148 920l80 -80l140 90l-220 140l-220 -140l140 -90z" />
    <glyph glyph-name="Hbar" unicode="&#x126;" horiz-adv-x="830" 
d="M117 265h560v195h-560v-195zM540 700v-700h220v700h-220zM70 700v-700h220v700h-220zM5 535h820v125h-820v-125z" />
    <glyph glyph-name="hbar" unicode="&#x127;" horiz-adv-x="595" 
d="M245 780h-195v-780h195v780zM350 280v-280h195v310q0 55 -13.5 93t-47.5 58t-97 20q-62 0 -99 -27.5t-53 -73t-16 -100.5h26q0 23 7 37.5t20 21.5t30 7q30 0 39 -17.5t9 -48.5zM5 580h343v165h-343v-165z" />
    <glyph glyph-name="Itilde" unicode="&#x128;" horiz-adv-x="365" 
d="M70 700v-700h225v700h-225zM-32 863l82 -77q0 8 4 20t14 21.5t28 9.5q26 0 50 -14.5t48.5 -28.5t51.5 -14q35 0 67 15.5t54.5 37.5t30.5 40l-86 93q-15 -24 -32.5 -40t-39.5 -16t-38 8.5t-30.5 19t-32.5 19t-43 8.5q-37 0 -64 -15.5t-43 -38.5t-21 -48z" />
    <glyph glyph-name="itilde" unicode="&#x129;" horiz-adv-x="286" 
d="M49 460v-460h187v460h-187zM-72 614l82 -77q0 8 4 20t14 21.5t28 9.5q26 0 50 -14.5t48.5 -28.5t51.5 -14q35 0 67 15.5t54.5 37.5t30.5 40l-86 93q-15 -24 -32.5 -40t-39.5 -16t-38 8.5t-30.5 19t-32.5 19t-43 8.5q-37 0 -64 -15.5t-43 -38.5t-21 -48z" />
    <glyph glyph-name="Imacron" unicode="&#x12a;" horiz-adv-x="365" 
d="M70 700v-700h225v700h-225zM-10 780h385v165h-385v-165z" />
    <glyph glyph-name="imacron" unicode="&#x12b;" horiz-adv-x="286" 
d="M49 460v-460h187v460h-187zM-50 531h385v165h-385v-165z" />
    <glyph glyph-name="Ibreve" unicode="&#x12c;" horiz-adv-x="365" 
d="M70 700v-700h225v700h-225zM14 930q0 -44 20 -78t58 -53t90 -19q53 0 90.5 19t57.5 53t20 78h-116q0 -20 -9 -31t-21 -15t-22 -4t-22 4t-21 15t-9 31h-116z" />
    <glyph glyph-name="ibreve" unicode="&#x12d;" horiz-adv-x="286" 
d="M49 460v-460h187v460h-187zM-26 681q0 -44 20 -78t58 -53t90 -19q53 0 90.5 19t57.5 53t20 78h-116q0 -20 -9 -31t-21 -15t-22 -4t-22 4t-21 15t-9 31h-116z" />
    <glyph glyph-name="Iogonek" unicode="&#x12e;" horiz-adv-x="365" 
d="M70 700v-700h225v700h-225zM258 -97q-10 -10 -24 -15t-26 -5q-15 0 -21.5 8.5t-6.5 21.5q0 14 7.5 28.5t24 30t42.5 31.5l-42 25q-35 -18 -67.5 -38.5t-53.5 -46t-21 -60.5q0 -34 17.5 -56.5t43.5 -33t53 -10.5q47 0 72 12.5t36 27.5z" />
    <glyph glyph-name="iogonek" unicode="&#x12f;" horiz-adv-x="286" 
d="M35 622q0 -44 31.5 -71t76.5 -27t76.5 27t31.5 71t-31.5 71t-76.5 27t-76.5 -27t-31.5 -71zM49 460v-460h187v460h-187zM201 -100q-10 -10 -24 -15t-26 -5q-15 0 -21.5 8.5t-6.5 21.5q0 14 7.5 28.5t23.5 30t42 31.5l-41 25q-35 -18 -67.5 -38.5t-53.5 -46t-21 -60.5
q0 -34 17 -56.5t43 -33t53 -10.5q47 0 72 12.5t36 27.5z" />
    <glyph glyph-name="Idotaccent" unicode="&#x130;" horiz-adv-x="365" 
d="M70 700v-700h225v700h-225zM74 878q0 -44 31.5 -71t76.5 -27t76.5 27t31.5 71t-31.5 71t-76.5 27t-76.5 -27t-31.5 -71z" />
    <glyph glyph-name="dotlessi" unicode="&#x131;" horiz-adv-x="286" 
d="M49 460v-460h187v460h-187z" />
    <glyph glyph-name="IJ" unicode="&#x132;" horiz-adv-x="705" 
d="M245 -39l-121 -151q28 -15 64.5 -28.5t79.5 -22.5t89 -9q54 0 104 10.5t89 33.5t62 61.5t23 94.5v750h-245v-695q0 -42 -20 -58.5t-43 -16.5q-19 0 -41.5 10t-40.5 21zM70 700v-700h225v700h-225z" />
    <glyph glyph-name="ij" unicode="&#x133;" horiz-adv-x="566" 
d="M315 622q0 -44 31.5 -71t76.5 -27t76.5 27t31.5 71t-31.5 71t-76.5 27t-76.5 -27t-31.5 -71zM237 -55l-71 -138q13 -10 32 -23.5t48.5 -23.5t70.5 -10q67 0 111 22t65.5 60.5t21.5 87.5v540h-185v-485q0 -18 -5.5 -30t-16.5 -18.5t-26 -6.5q-14 0 -24.5 7t-20.5 18z
M35 622q0 -44 31.5 -71t76.5 -27t76.5 27t31.5 71t-31.5 71t-76.5 27t-76.5 -27t-31.5 -71zM49 460v-460h187v460h-187z" />
    <glyph glyph-name="Jcircumflex" unicode="&#x134;" horiz-adv-x="385" 
d="M-75 -39l-121 -151q28 -15 64.5 -28.5t79.5 -22.5t89 -9q54 0 104 10.5t89 33.5t62 61.5t23 94.5v750h-245v-695q0 -42 -20 -58.5t-43 -16.5q-19 0 -41.5 10t-40.5 21zM192 860l80 -80l140 90l-220 140l-220 -140l140 -90z" />
    <glyph glyph-name="jcircumflex" unicode="&#x135;" horiz-adv-x="285" 
d="M-43 -55l-71 -138q13 -10 32 -23.5t48.5 -23.5t70.5 -10q67 0 111 22t65.5 60.5t21.5 87.5v540h-185v-485q0 -18 -5.5 -30t-16.5 -18.5t-26 -6.5q-14 0 -24.5 7t-20.5 18zM142 611l80 -80l140 90l-220 140l-220 -140l140 -90z" />
    <glyph glyph-name="uni0136" unicode="&#x136;" horiz-adv-x="781" 
d="M70 700v-700h230v700h-230zM515 700l-278 -335l283 -365h266l-288 372l273 328h-256zM334 -60l-88 -259l148 -25l136 250z" />
    <glyph glyph-name="uni0137" unicode="&#x137;" horiz-adv-x="660" 
d="M50 780v-780h185v780h-185zM401 460l-195 -190l219 -270h225l-215 270l195 190h-229zM256 -60l-88 -259l148 -25l136 250z" />
    <glyph glyph-name="kgreenlandic" unicode="&#x138;" horiz-adv-x="660" 
d="M50 460v-460h185v460h-185zM401 460l-195 -190l219 -270h225l-215 270l195 190h-229z" />
    <glyph glyph-name="Lacute" unicode="&#x139;" horiz-adv-x="575" 
d="M70 700v-700h505v185h-285v515h-220zM503 930l-140 60l-150 -160l110 -50z" />
    <glyph glyph-name="lacute" unicode="&#x13a;" horiz-adv-x="295" 
d="M50 780v-780h195v780h-195zM328 990l-140 60l-150 -160l110 -50z" />
    <glyph glyph-name="uni013B" unicode="&#x13b;" horiz-adv-x="575" 
d="M70 700v-700h505v185h-285v515h-220zM269 -60l-88 -259l148 -25l135 250z" />
    <glyph glyph-name="uni013C" unicode="&#x13c;" horiz-adv-x="295" 
d="M50 780v-780h195v780h-195zM94 -60l-88 -259l148 -25l135 250z" />
    <glyph glyph-name="Lcaron" unicode="&#x13d;" horiz-adv-x="575" 
d="M70 700v-700h505v185h-285v515h-220zM463 720l-88 -259l148 -25l135 250z" />
    <glyph glyph-name="lcaron" unicode="&#x13e;" horiz-adv-x="295" 
d="M50 780v-780h195v780h-195zM383 780l-88 -259l148 -25l135 250z" />
    <glyph glyph-name="Ldot" unicode="&#x13f;" horiz-adv-x="575" 
d="M70 700v-700h505v185h-285v515h-220zM365 440q0 -47 33 -81t85 -34q53 0 85.5 34t32.5 81t-32.5 81t-85.5 34q-52 0 -85 -34t-33 -81z" />
    <glyph glyph-name="ldot" unicode="&#x140;" horiz-adv-x="541" 
d="M50 780v-780h195v780h-195zM275 405q0 -47 33 -81t85 -34q53 0 85.5 34t32.5 81t-32.5 81t-85.5 34q-52 0 -85 -34t-33 -81z" />
    <glyph glyph-name="Lslash" unicode="&#x141;" horiz-adv-x="585" 
d="M5 290l420 290l-50 85l-420 -290zM70 700v-700h505v185h-285v515h-220z" />
    <glyph glyph-name="lslash" unicode="&#x142;" horiz-adv-x="295" 
d="M-15 290l380 260l-50 85l-380 -260zM50 780v-780h195v780h-195z" />
    <glyph glyph-name="Nacute" unicode="&#x143;" horiz-adv-x="805" 
d="M525 700v-317l-455 352v-735h210v317l455 -352v735h-210zM540 915l-140 60l-150 -160l110 -50z" />
    <glyph glyph-name="nacute" unicode="&#x144;" horiz-adv-x="605" 
d="M245 460h-195v-460h195v460zM350 280v-280h205v300q0 82 -37 126.5t-131 44.5q-62 0 -99 -27.5t-53 -73t-16 -100.5l26 10q0 23 7 37.5t20 21.5t30 7q30 0 39 -17.5t9 -48.5zM482 681l-140 60l-150 -160l110 -50z" />
    <glyph glyph-name="uni0145" unicode="&#x145;" horiz-adv-x="805" 
d="M342 -65l-88 -259l148 -25l134 250zM525 700v-317l-455 352v-735h210v317l455 -352v735h-210z" />
    <glyph glyph-name="uni0146" unicode="&#x146;" horiz-adv-x="605" 
d="M245 460h-195v-460h195v460zM350 280v-280h205v300q0 82 -37 126.5t-131 44.5q-62 0 -99 -27.5t-53 -73t-16 -100.5l26 10q0 23 7 37.5t20 21.5t30 7q30 0 39 -17.5t9 -48.5zM249 -60l-88 -259l148 -25l135 250z" />
    <glyph glyph-name="Ncaron" unicode="&#x147;" horiz-adv-x="805" 
d="M360 915l-80 80l-140 -90l220 -140l220 140l-140 90zM525 700v-317l-455 352v-735h210v317l455 -352v735h-210z" />
    <glyph glyph-name="ncaron" unicode="&#x148;" horiz-adv-x="605" 
d="M245 460h-195v-460h195v460zM350 280v-280h205v300q0 82 -37 126.5t-131 44.5q-62 0 -99 -27.5t-53 -73t-16 -100.5l26 10q0 23 7 37.5t20 21.5t30 7q30 0 39 -17.5t9 -48.5zM302 681l-80 80l-140 -90l220 -140l220 140l-140 90z" />
    <glyph glyph-name="napostrophe" unicode="&#x149;" horiz-adv-x="815" 
d="M455 460h-195v-460h195v460zM560 280v-280h205v300q0 82 -37 126.5t-131 44.5q-62 0 -99 -27.5t-53 -73t-16 -100.5l26 10q0 23 7 37.5t20 21.5t30 7q30 0 39 -17.5t9 -48.5zM100 700l-50 -270h140l105 270h-195z" />
    <glyph glyph-name="Eng" unicode="&#x14a;" horiz-adv-x="805" 
d="M537 -212q61 0 105.5 21t68.5 59t24 90v742h-210v-316l-455 351v-735h210v316l270 -208v-95q0 -17 -6 -29.5t-16.5 -19t-25.5 -6.5q-13 0 -23 6t-22 19l-71 -138q39 -31 73.5 -44t77.5 -13z" />
    <glyph glyph-name="eng" unicode="&#x14b;" horiz-adv-x="605" 
d="M337 -250q103 0 160.5 45t57.5 125v380q0 89 -40.5 130t-127.5 41q-49 0 -85 -19.5t-57 -57.5v66h-195v-460h195v275q0 24 6.5 40t19 23.5t31.5 7.5q26 0 37 -15t11 -51v-305q0 -26 -12.5 -40.5t-35.5 -14.5t-45 25l-71 -138q38 -30 73.5 -43.5t77.5 -13.5z" />
    <glyph glyph-name="Omacron" unicode="&#x14c;" horiz-adv-x="840" 
d="M263 350q0 52 19 90.5t54 60t84 21.5q52 0 86.5 -21.5t52.5 -60t18 -90.5q0 -51 -19 -90t-54 -60.5t-84 -21.5t-84 21.5t-54 60.5t-19 90zM30 350q0 -84 28.5 -153.5t80.5 -120.5t123.5 -78.5t157.5 -27.5t157.5 27.5t123.5 78.5t80.5 120.5t28.5 153.5t-29 152t-82 117
t-124 75t-155 26q-82 0 -153 -26t-124 -75t-83 -117t-30 -152zM228 780h384v165h-384v-165z" />
    <glyph glyph-name="omacron" unicode="&#x14d;" horiz-adv-x="616" 
d="M30 230q0 -74 36 -128t99 -83t143 -29t143 29t99 83t36 128q0 75 -36 129t-99 83t-143 29t-143 -29t-99 -83t-36 -129zM231 230q0 28 11 47t28.5 29t37.5 10t37.5 -10t28.5 -29t11 -47t-11 -47t-28.5 -28.5t-37.5 -9.5t-37.5 9.5t-28.5 28.5t-11 47zM116 531h384v165
h-384v-165z" />
    <glyph glyph-name="Obreve" unicode="&#x14e;" horiz-adv-x="840" 
d="M263 350q0 52 19 90.5t54 60t84 21.5q52 0 86.5 -21.5t52.5 -60t18 -90.5q0 -51 -19 -90t-54 -60.5t-84 -21.5t-84 21.5t-54 60.5t-19 90zM30 350q0 -84 28.5 -153.5t80.5 -120.5t123.5 -78.5t157.5 -27.5t157.5 27.5t123.5 78.5t80.5 120.5t28.5 153.5t-29 152t-82 117
t-124 75t-155 26q-82 0 -153 -26t-124 -75t-83 -117t-30 -152zM252 930q0 -44 20 -78t58 -53t90 -19q53 0 90.5 19t57.5 53t20 78h-116q0 -20 -9 -31t-21 -15t-22 -4t-22 4t-21 15t-9 31h-116z" />
    <glyph glyph-name="obreve" unicode="&#x14f;" horiz-adv-x="616" 
d="M30 230q0 -74 36 -128t99 -83t143 -29t143 29t99 83t36 128q0 75 -36 129t-99 83t-143 29t-143 -29t-99 -83t-36 -129zM231 230q0 28 11 47t28.5 29t37.5 10t37.5 -10t28.5 -29t11 -47t-11 -47t-28.5 -28.5t-37.5 -9.5t-37.5 9.5t-28.5 28.5t-11 47zM140 681
q0 -44 20 -78t58 -53t90 -19q53 0 90.5 19t57.5 53t20 78h-116q0 -20 -9 -31t-21 -15t-22 -4t-22 4t-21 15t-9 31h-116z" />
    <glyph glyph-name="Ohungarumlaut" unicode="&#x150;" horiz-adv-x="840" 
d="M320 780l151 178l-148 36l-120 -184zM520 780l151 178l-148 36l-120 -184zM263 350q0 52 19 90.5t54 60t84 21.5q52 0 86.5 -21.5t52.5 -60t18 -90.5q0 -51 -19 -90t-54 -60.5t-84 -21.5t-84 21.5t-54 60.5t-19 90zM30 350q0 -84 28.5 -153.5t80.5 -120.5t123.5 -78.5
t157.5 -27.5t157.5 27.5t123.5 78.5t80.5 120.5t28.5 153.5t-29 152t-82 117t-124 75t-155 26q-82 0 -153 -26t-124 -75t-83 -117t-30 -152z" />
    <glyph glyph-name="ohungarumlaut" unicode="&#x151;" horiz-adv-x="616" 
d="M208 531l151 178l-148 36l-120 -184zM408 531l151 178l-148 36l-120 -184zM30 230q0 -74 36 -128t99 -83t143 -29t143 29t99 83t36 128q0 75 -36 129t-99 83t-143 29t-143 -29t-99 -83t-36 -129zM231 230q0 28 11 47t28.5 29t37.5 10t37.5 -10t28.5 -29t11 -47t-11 -47
t-28.5 -28.5t-37.5 -9.5t-37.5 9.5t-28.5 28.5t-11 47z" />
    <glyph glyph-name="OE" unicode="&#x152;" horiz-adv-x="985" 
d="M562 275h388v170h-388v-170zM465 670v-640h210v640h-210zM971 175h-399l-24 15h-108q-48 0 -82 9t-55.5 28.5t-32 50t-10.5 72.5t10 72.5t32 50t56 28.5t82 9h111l17 15h402v175h-580q-76 0 -142 -25t-114.5 -71.5t-76 -111t-27.5 -142.5t27.5 -142.5t76.5 -111
t114.5 -71.5t141.5 -25h581v175z" />
    <glyph glyph-name="oe" unicode="&#x153;" horiz-adv-x="900" 
d="M660 250v-20l202 -40q1 6 2 22t1 22q0 73 -29 125.5t-76 81.5t-102 29q-59 0 -106.5 -24t-77.5 -67t-40 -100q-2 -12 -3 -24t-1 -25q0 -69 26 -123.5t73 -85.5t109 -31q50 0 96.5 20t83 53.5t54.5 73.5l-176 29q-18 -22 -38.5 -36.5t-55.5 -14.5q-25 0 -43 13t-28 38.5
t-10 63.5l2 30q0 33 10.5 53t27.5 28.5t37 8.5t34 -11t21 -33.5t7 -55.5zM481 190h381l-18 93h-363v-93zM35 230q0 -74 31 -128t83 -83t114 -29q63 0 108.5 29t70 83t24.5 128q0 75 -24.5 128.5t-70 82.5t-108.5 29q-62 0 -114 -29t-83 -82.5t-31 -128.5zM226 230
q0 28 10 47t27.5 28.5t39.5 9.5q25 0 42 -9.5t26 -28.5t9 -47t-9 -47t-26 -28.5t-42 -9.5q-22 0 -39.5 9.5t-27.5 28.5t-10 47z" />
    <glyph glyph-name="Racute" unicode="&#x154;" horiz-adv-x="700" 
d="M275 300l170 -300h255l-200 300h-225zM70 700v-700h220v700h-220zM212 515h133q28 0 46 -7.5t27.5 -22t9.5 -35.5q0 -20 -9.5 -35t-27.5 -22.5t-46 -7.5h-133v-165h153q103 0 167.5 31t95 85.5t30.5 123.5q0 70 -30.5 124t-95 85t-167.5 31h-153v-185zM508 930l-140 60
l-150 -160l110 -50z" />
    <glyph glyph-name="racute" unicode="&#x155;" horiz-adv-x="453" 
d="M240 460h-190v-460h190v460zM369 262l79 168q-9 17 -32.5 29.5t-48.5 12.5q-42 0 -79.5 -25.5t-60.5 -68.5t-23 -98l36 -85q0 33 10.5 54t27.5 31t34 10q20 0 34 -8t23 -20zM429 682l-140 60l-150 -160l110 -50z" />
    <glyph glyph-name="uni0156" unicode="&#x156;" horiz-adv-x="700" 
d="M275 300l170 -300h255l-200 300h-225zM70 700v-700h220v700h-220zM212 515h133q28 0 46 -7.5t27.5 -22t9.5 -35.5q0 -20 -9.5 -35t-27.5 -22.5t-46 -7.5h-133v-165h153q103 0 167.5 31t95 85.5t30.5 123.5q0 70 -30.5 124t-95 85t-167.5 31h-153v-185zM332 -60l-88 -259
l148 -25l134 250z" />
    <glyph glyph-name="uni0157" unicode="&#x157;" horiz-adv-x="453" 
d="M240 460h-190v-460h190v460zM369 262l79 168q-9 17 -32.5 29.5t-48.5 12.5q-42 0 -79.5 -25.5t-60.5 -68.5t-23 -98l36 -85q0 33 10.5 54t27.5 31t34 10q20 0 34 -8t23 -20zM92 -60l-88 -259l148 -25l134 250z" />
    <glyph glyph-name="Rcaron" unicode="&#x158;" horiz-adv-x="700" 
d="M275 300l170 -300h255l-200 300h-225zM70 700v-700h220v700h-220zM212 515h133q28 0 46 -7.5t27.5 -22t9.5 -35.5q0 -20 -9.5 -35t-27.5 -22.5t-46 -7.5h-133v-165h153q103 0 167.5 31t95 85.5t30.5 123.5q0 70 -30.5 124t-95 85t-167.5 31h-153v-185zM348 930l-80 80
l-140 -90l220 -140l220 140l-140 90z" />
    <glyph glyph-name="rcaron" unicode="&#x159;" horiz-adv-x="453" 
d="M240 460h-190v-460h190v460zM369 262l79 168q-9 17 -32.5 29.5t-48.5 12.5q-42 0 -79.5 -25.5t-60.5 -68.5t-23 -98l36 -85q0 33 10.5 54t27.5 31t34 10q20 0 34 -8t23 -20zM249 682l-80 80l-140 -90l220 -140l220 140l-140 90z" />
    <glyph glyph-name="Sacute" unicode="&#x15a;" horiz-adv-x="672" 
d="M178 266l-148 -108q22 -57 68.5 -99.5t108.5 -65.5t129 -23q90 0 157.5 25t105.5 75.5t38 129.5q0 44 -12 79t-35.5 62t-56.5 47t-75 35q-41 15 -77.5 26.5t-59.5 24t-23 30.5q0 11 7.5 18.5t21 12t31.5 4.5q20 0 38.5 -6t35.5 -20.5t32 -38.5l163 90q-14 36 -47 72
t-89.5 60t-143.5 24q-82 0 -143.5 -26t-95.5 -73.5t-34 -110.5q0 -55 21 -94t52.5 -65.5t65.5 -43t59 -27.5q40 -16 69.5 -27t46 -22.5t16.5 -31.5q0 -15 -7.5 -24t-22 -13t-34.5 -4q-25 0 -46.5 6t-40.5 19.5t-37 34t-38 48.5zM527 930l-140 60l-150 -160l110 -50z" />
    <glyph glyph-name="sacute" unicode="&#x15b;" horiz-adv-x="488" 
d="M78 183l-63 -137q42 -22 84 -38t88 -24.5t98 -8.5q89 0 136 36.5t47 118.5q0 44 -18 70t-47 42t-62 28q-31 12 -59 19.5t-45.5 15.5t-17.5 19q0 8 7.5 11.5t27.5 3.5q19 0 46 -6.5t55.5 -19t50.5 -31.5l48 133q-34 16 -68 28t-70 19.5t-78 7.5q-57 0 -103.5 -15
t-73.5 -46.5t-27 -79.5q0 -41 14.5 -67t39 -43.5t53.5 -32.5q27 -13 58.5 -20.5t53.5 -14.5t22 -20q0 -10 -7.5 -12t-17.5 -2q-8 0 -29.5 3.5t-56.5 17.5t-86 45zM418 681l-140 60l-150 -160l110 -50z" />
    <glyph glyph-name="Scircumflex" unicode="&#x15c;" horiz-adv-x="672" 
d="M178 266l-148 -108q22 -57 68.5 -99.5t108.5 -65.5t129 -23q90 0 157.5 25t105.5 75.5t38 129.5q0 44 -12 79t-35.5 62t-56.5 47t-75 35q-41 15 -77.5 26.5t-59.5 24t-23 30.5q0 11 7.5 18.5t21 12t31.5 4.5q20 0 38.5 -6t35.5 -20.5t32 -38.5l163 90q-14 36 -47 72
t-89.5 60t-143.5 24q-82 0 -143.5 -26t-95.5 -73.5t-34 -110.5q0 -55 21 -94t52.5 -65.5t65.5 -43t59 -27.5q40 -16 69.5 -27t46 -22.5t16.5 -31.5q0 -15 -7.5 -24t-22 -13t-34.5 -4q-25 0 -46.5 6t-40.5 19.5t-37 34t-38 48.5zM347 860l80 -80l140 90l-220 140l-220 -140
l140 -90z" />
    <glyph glyph-name="scircumflex" unicode="&#x15d;" horiz-adv-x="488" 
d="M78 183l-63 -137q42 -22 84 -38t88 -24.5t98 -8.5q89 0 136 36.5t47 118.5q0 44 -18 70t-47 42t-62 28q-31 12 -59 19.5t-45.5 15.5t-17.5 19q0 8 7.5 11.5t27.5 3.5q19 0 46 -6.5t55.5 -19t50.5 -31.5l48 133q-34 16 -68 28t-70 19.5t-78 7.5q-57 0 -103.5 -15
t-73.5 -46.5t-27 -79.5q0 -41 14.5 -67t39 -43.5t53.5 -32.5q27 -13 58.5 -20.5t53.5 -14.5t22 -20q0 -10 -7.5 -12t-17.5 -2q-8 0 -29.5 3.5t-56.5 17.5t-86 45zM258 611l80 -80l140 90l-220 140l-220 -140l140 -90z" />
    <glyph glyph-name="Scedilla" unicode="&#x15e;" horiz-adv-x="672" 
d="M178 266l-148 -108q22 -57 68.5 -99.5t108.5 -65.5t129 -23q90 0 157.5 25t105.5 75.5t38 129.5q0 44 -12 79t-35.5 62t-56.5 47t-75 35q-41 15 -77.5 26.5t-59.5 24t-23 30.5q0 11 7.5 18.5t21 12t31.5 4.5q20 0 38.5 -6t35.5 -20.5t32 -38.5l163 90q-14 36 -47 72
t-89.5 60t-143.5 24q-82 0 -143.5 -26t-95.5 -73.5t-34 -110.5q0 -55 21 -94t52.5 -65.5t65.5 -43t59 -27.5q40 -16 69.5 -27t46 -22.5t16.5 -31.5q0 -15 -7.5 -24t-22 -13t-34.5 -4q-25 0 -46.5 6t-40.5 19.5t-37 34t-38 48.5zM286 62l-89 -211q32 11 61 13t36 2
q22 0 44.5 -4.5t22.5 -25.5q0 -18 -15.5 -25t-41.5 -7q-12 0 -41 5.5t-51 20.5l-53 -86q44 -23 85.5 -31.5t91.5 -8.5q34 0 67.5 13t56 39.5t22.5 65.5q0 38 -16.5 63t-40.5 37t-46 12q-15 0 -28 -1t-25 -5l100 128z" />
    <glyph glyph-name="scedilla" unicode="&#x15f;" horiz-adv-x="488" 
d="M78 183l-63 -137q42 -22 84 -38t88 -24.5t98 -8.5q89 0 136 36.5t47 118.5q0 44 -18 70t-47 42t-62 28q-31 12 -56.5 19t-40.5 15t-15 23q0 7 7.5 13t27.5 6q28 0 68 -17.5t74 -46.5l48 133q-51 23 -102.5 39t-113.5 16q-57 0 -98.5 -16t-64.5 -46.5t-23 -73.5
q0 -46 18.5 -74.5t48 -45t62.5 -28.5q26 -8 47 -15t34 -15.5t13 -22.5q0 -10 -6.5 -16.5t-18.5 -6.5q-8 0 -29.5 3.5t-56.5 18.5t-86 51zM225 67l-89 -211q32 11 61 13t36 2q22 0 44.5 -4.5t22.5 -25.5q0 -18 -15.5 -25t-41.5 -7q-12 0 -41 5.5t-51 20.5l-53 -86
q44 -23 85.5 -31.5t91.5 -8.5q34 0 67.5 13t56 39.5t22.5 65.5q0 38 -16.5 63t-40.5 37t-46 12q-15 0 -28 -1t-25 -5l100 128z" />
    <glyph glyph-name="Scaron" unicode="&#x160;" horiz-adv-x="672" 
d="M178 266l-148 -108q22 -57 68.5 -99.5t108.5 -65.5t129 -23q90 0 157.5 25t105.5 75.5t38 129.5q0 44 -12 79t-35.5 62t-56.5 47t-75 35q-41 15 -77.5 26.5t-59.5 24t-23 30.5q0 11 7.5 18.5t21 12t31.5 4.5q20 0 38.5 -6t35.5 -20.5t32 -38.5l163 90q-14 36 -47 72
t-89.5 60t-143.5 24q-82 0 -143.5 -26t-95.5 -73.5t-34 -110.5q0 -55 21 -94t52.5 -65.5t65.5 -43t59 -27.5q40 -16 69.5 -27t46 -22.5t16.5 -31.5q0 -15 -7.5 -24t-22 -13t-34.5 -4q-25 0 -46.5 6t-40.5 19.5t-37 34t-38 48.5zM347 930l-80 80l-140 -90l220 -140l220 140
l-140 90z" />
    <glyph glyph-name="scaron" unicode="&#x161;" horiz-adv-x="488" 
d="M78 183l-63 -137q42 -22 84 -38t88 -24.5t98 -8.5q89 0 136 36.5t47 118.5q0 44 -18 70t-47 42t-62 28q-31 12 -59 19.5t-45.5 15.5t-17.5 19q0 8 7.5 11.5t27.5 3.5q19 0 46 -6.5t55.5 -19t50.5 -31.5l48 133q-34 16 -68 28t-70 19.5t-78 7.5q-57 0 -103.5 -15
t-73.5 -46.5t-27 -79.5q0 -41 14.5 -67t39 -43.5t53.5 -32.5q27 -13 58.5 -20.5t53.5 -14.5t22 -20q0 -10 -7.5 -12t-17.5 -2q-8 0 -29.5 3.5t-56.5 17.5t-86 45zM238 661l-80 80l-140 -90l220 -140l220 140l-140 90z" />
    <glyph glyph-name="uni0162" unicode="&#x162;" horiz-adv-x="620" 
d="M240 12l-89 -211q32 11 61 13t36 2q22 0 44.5 -4.5t22.5 -25.5q0 -18 -15.5 -25t-41.5 -7q-12 0 -41 5.5t-51 20.5l-53 -86q44 -23 85.5 -31.5t91.5 -8.5q34 0 67.5 13t56 39.5t22.5 65.5q0 38 -16.5 63t-40.5 37t-46 12q-15 0 -28 -1t-25 -5l100 128zM0 505h200v-505
h220v505h200v195h-620v-195z" />
    <glyph glyph-name="uni0163" unicode="&#x163;" horiz-adv-x="365" 
d="M113 12l-89 -211q32 11 61 13t36 2q22 0 44.5 -4.5t22.5 -25.5q0 -18 -15.5 -25t-41.5 -7q-12 0 -41 5.5t-51 20.5l-53 -86q44 -23 85.5 -31.5t91.5 -8.5q34 0 67.5 13t56 39.5t22.5 65.5q0 38 -16.5 63t-40.5 37t-46 12q-15 0 -28 -1t-25 -5l100 128zM5 460v-155h355
v155h-355zM90 620v-620h185v620h-185z" />
    <glyph glyph-name="Tcaron" unicode="&#x164;" horiz-adv-x="620" 
d="M0 505h200v-505h220v505h200v195h-620v-195zM310 930l-80 80l-140 -90l220 -140l220 140l-140 90z" />
    <glyph glyph-name="tcaron" unicode="&#x165;" horiz-adv-x="565" 
d="M5 460v-155h355v155h-355zM90 620v-620h185v620h-185zM432 772l-88 -259l148 -25l135 250z" />
    <glyph glyph-name="Tbar" unicode="&#x166;" horiz-adv-x="620" 
d="M106 255h410v165h-410v-165zM0 505h200v-505h220v505h200v195h-620v-195z" />
    <glyph glyph-name="tbar" unicode="&#x167;" horiz-adv-x="240" 
d="M20 160h220v165h-220v-165zM5 460v-155h355v155h-355zM90 620v-620h185v620h-185z" />
    <glyph glyph-name="Utilde" unicode="&#x168;" horiz-adv-x="746" 
d="M65 700v-470q0 -75 24.5 -126.5t67.5 -83t98.5 -46t117.5 -14.5t117.5 14.5t98.5 46t67.5 83t24.5 126.5v470h-220v-450q0 -42 -21.5 -68.5t-66.5 -26.5t-66.5 26.5t-21.5 68.5v450h-220zM158 863l83 -77q0 8 3.5 20t13.5 21.5t28 9.5q26 0 50 -14.5t49 -28.5t52 -14
q35 0 66.5 15.5t54 37.5t30.5 40l-86 93q-15 -24 -32 -40t-39 -16t-38 8.5t-30.5 19t-32.5 19t-43 8.5q-37 0 -64.5 -15.5t-43.5 -38.5t-21 -48z" />
    <glyph glyph-name="utilde" unicode="&#x169;" horiz-adv-x="605" 
d="M360 0h195v460h-195v-460zM255 180v280h-205v-300q0 -82 37 -126.5t131 -44.5q63 0 99.5 27.5t52.5 73.5t16 100l-26 -10q0 -23 -7 -37.5t-19.5 -21.5t-30.5 -7q-30 0 -39 17.5t-9 48.5zM88 614l83 -77q0 8 3.5 20t13.5 21.5t28 9.5q26 0 50 -14.5t49 -28.5t52 -14
q35 0 66.5 15.5t54 37.5t30.5 40l-86 93q-15 -24 -32 -40t-39 -16t-38 8.5t-30.5 19t-32.5 19t-43 8.5q-37 0 -64.5 -15.5t-43.5 -38.5t-21 -48z" />
    <glyph glyph-name="Umacron" unicode="&#x16a;" horiz-adv-x="746" 
d="M65 700v-470q0 -75 24.5 -126.5t67.5 -83t98.5 -46t117.5 -14.5t117.5 14.5t98.5 46t67.5 83t24.5 126.5v470h-220v-450q0 -42 -21.5 -68.5t-66.5 -26.5t-66.5 26.5t-21.5 68.5v450h-220zM181 780h385v165h-385v-165z" />
    <glyph glyph-name="umacron" unicode="&#x16b;" horiz-adv-x="605" 
d="M360 0h195v460h-195v-460zM255 180v280h-205v-300q0 -82 37 -126.5t131 -44.5q63 0 99.5 27.5t52.5 73.5t16 100l-26 -10q0 -23 -7 -37.5t-19.5 -21.5t-30.5 -7q-30 0 -39 17.5t-9 48.5zM110 531h385v165h-385v-165z" />
    <glyph glyph-name="Ubreve" unicode="&#x16c;" horiz-adv-x="746" 
d="M65 700v-470q0 -75 24.5 -126.5t67.5 -83t98.5 -46t117.5 -14.5t117.5 14.5t98.5 46t67.5 83t24.5 126.5v470h-220v-450q0 -42 -21.5 -68.5t-66.5 -26.5t-66.5 26.5t-21.5 68.5v450h-220zM205 930q0 -44 20 -78t58 -53t90 -19q53 0 90.5 19t57.5 53t20 78h-116
q0 -20 -9 -31t-21 -15t-22 -4t-22 4t-21 15t-9 31h-116z" />
    <glyph glyph-name="ubreve" unicode="&#x16d;" horiz-adv-x="605" 
d="M360 0h195v460h-195v-460zM255 180v280h-205v-300q0 -82 37 -126.5t131 -44.5q63 0 99.5 27.5t52.5 73.5t16 100l-26 -10q0 -23 -7 -37.5t-19.5 -21.5t-30.5 -7q-30 0 -39 17.5t-9 48.5zM135 681q0 -44 20 -78t58 -53t90 -19q53 0 90.5 19t57.5 53t20 78h-116
q0 -20 -9 -31t-21 -15t-22 -4t-22 4t-21 15t-9 31h-116z" />
    <glyph glyph-name="Uring" unicode="&#x16e;" horiz-adv-x="746" 
d="M65 700v-470q0 -75 24.5 -126.5t67.5 -83t98.5 -46t117.5 -14.5t117.5 14.5t98.5 46t67.5 83t24.5 126.5v470h-220v-450q0 -42 -21.5 -68.5t-66.5 -26.5t-66.5 26.5t-21.5 68.5v450h-220zM234 905q0 -55 39 -90t99 -35t100 35t40 91q0 55 -40 89.5t-100 34.5t-99 -34.5
t-39 -90.5zM329 905q0 21 12 33t31 12t31.5 -12t12.5 -33t-12.5 -32.5t-31.5 -11.5t-31 11.5t-12 32.5z" />
    <glyph glyph-name="uring" unicode="&#x16f;" horiz-adv-x="605" 
d="M360 0h195v460h-195v-460zM255 180v280h-205v-300q0 -82 37 -126.5t131 -44.5q63 0 99.5 27.5t52.5 73.5t16 100l-26 -10q0 -23 -7 -37.5t-19.5 -21.5t-30.5 -7q-30 0 -39 17.5t-9 48.5zM164 656q0 -55 39 -90t99 -35t100 35t40 90q0 56 -40 90.5t-100 34.5t-99 -34.5
t-39 -90.5zM259 656q0 21 12 33t31 12t31.5 -12t12.5 -33t-12.5 -32.5t-31.5 -11.5t-31 11.5t-12 32.5z" />
    <glyph glyph-name="Uhungarumlaut" unicode="&#x170;" horiz-adv-x="746" 
d="M273 780l151 178l-148 36l-120 -184zM473 780l151 178l-148 36l-120 -184zM65 700v-470q0 -75 24.5 -126.5t67.5 -83t98.5 -46t117.5 -14.5t117.5 14.5t98.5 46t67.5 83t24.5 126.5v470h-220v-450q0 -42 -21.5 -68.5t-66.5 -26.5t-66.5 26.5t-21.5 68.5v450h-220z" />
    <glyph glyph-name="uhungarumlaut" unicode="&#x171;" horiz-adv-x="605" 
d="M203 531l151 178l-148 36l-120 -184zM403 531l151 178l-148 36l-120 -184zM255 180v280h-205v-300q0 -82 37 -126.5t131 -44.5q54 0 88.5 21.5t53.5 56.5v-67h195v460h-195v-280q0 -23 -7 -37.5t-19.5 -21.5t-30.5 -7q-30 0 -39 17.5t-9 48.5z" />
    <glyph glyph-name="Uogonek" unicode="&#x172;" horiz-adv-x="746" 
d="M419 -123q-10 -10 -24 -15t-26 -5q-15 0 -21.5 8.5t-6.5 21.5q0 14 7.5 28.5t23.5 30t42 31.5l-41 25q-35 -18 -67.5 -38.5t-53.5 -46t-21 -60.5q0 -34 17 -56.5t43 -33t53 -10.5q47 0 72 12.5t36 27.5zM65 700v-470q0 -75 24.5 -126.5t67.5 -83t98.5 -46t117.5 -14.5
t117.5 14.5t98.5 46t67.5 83t24.5 126.5v470h-220v-450q0 -42 -21.5 -68.5t-66.5 -26.5t-66.5 26.5t-21.5 68.5v450h-220z" />
    <glyph glyph-name="uogonek" unicode="&#x173;" horiz-adv-x="605" 
d="M544 -100q-10 -10 -24 -15t-26 -5q-15 0 -21.5 8.5t-6.5 21.5q0 14 7.5 28.5t23.5 30t42 31.5l-41 25q-35 -18 -67.5 -38.5t-53.5 -46t-21 -60.5q0 -34 17 -56.5t43 -33t53 -10.5q47 0 72 12.5t36 27.5zM255 180v280h-205v-300q0 -82 37 -126.5t131 -44.5q54 0 88.5 21.5
t53.5 56.5v-67h195v460h-195v-280q0 -23 -7 -37.5t-19.5 -21.5t-30.5 -7q-30 0 -39 17.5t-9 48.5z" />
    <glyph glyph-name="Wcircumflex" unicode="&#x174;" horiz-adv-x="1110" 
d="M747 351l-192 384l-192 -384l-98 349h-265l320 -745l235 348l235 -348l320 745h-265zM555 875l80 -80l140 90l-220 140l-220 -140l140 -90z" />
    <glyph glyph-name="wcircumflex" unicode="&#x175;" horiz-adv-x="810" 
d="M-15 460l260 -485l160 236l160 -236l260 485h-200l-84 -197l-136 232l-136 -232l-84 197h-200zM405 635l80 -80l140 90l-220 140l-220 -140l140 -90z" />
    <glyph glyph-name="Ycircumflex" unicode="&#x176;" horiz-adv-x="720" 
d="M470 700l-110 -226l-110 226h-255l253 -427v-273h225v275l252 425h-255zM360 860l80 -80l140 90l-220 140l-220 -140l140 -90z" />
    <glyph glyph-name="ycircumflex" unicode="&#x177;" horiz-adv-x="570" 
d="M585 460h-195l-150 -375h105l-150 375h-210l213 -440l-103 -240h190zM285 611l80 -80l140 90l-220 140l-220 -140l140 -90z" />
    <glyph glyph-name="Ydieresis" unicode="&#x178;" horiz-adv-x="720" 
d="M87 895q0 -44 31.5 -71t76.5 -27t76.5 27t31.5 71t-31.5 71t-76.5 27t-76.5 -27t-31.5 -71zM417 895q0 -44 31.5 -71t76.5 -27t76.5 27t31.5 71t-31.5 71t-76.5 27t-76.5 -27t-31.5 -71zM470 700l-110 -226l-110 226h-255l253 -427v-273h225v275l252 425h-255z" />
    <glyph glyph-name="Zacute" unicode="&#x179;" horiz-adv-x="665" 
d="M70 505h236l-301 -505h605v185h-263l308 515h-585v-195zM542 930l-140 60l-150 -160l110 -50z" />
    <glyph glyph-name="zacute" unicode="&#x17a;" horiz-adv-x="560" 
d="M230 285l-215 -285h490v175h-156l196 285h-480v-175h165zM485 681l-140 60l-150 -160l110 -50z" />
    <glyph glyph-name="Zdotaccent" unicode="&#x17b;" horiz-adv-x="665" 
d="M70 505h236l-301 -505h605v185h-263l308 515h-585v-195zM254 878q0 -44 31.5 -71t76.5 -27t76.5 27t31.5 71t-31.5 71t-76.5 27t-76.5 -27t-31.5 -71z" />
    <glyph glyph-name="zdotaccent" unicode="&#x17c;" horiz-adv-x="560" 
d="M230 285l-215 -285h490v175h-156l196 285h-480v-175h165zM197 629q0 -44 31.5 -71t76.5 -27t76.5 27t31.5 71t-31.5 71t-76.5 27t-76.5 -27t-31.5 -71z" />
    <glyph glyph-name="Zcaron" unicode="&#x17d;" horiz-adv-x="665" 
d="M70 505h236l-301 -505h605v185h-263l308 515h-585v-195zM362 930l-80 80l-140 -90l220 -140l220 140l-140 90z" />
    <glyph glyph-name="zcaron" unicode="&#x17e;" horiz-adv-x="550" 
d="M305 681l-80 79l-140 -90l220 -140l220 140l-140 90zM232 285l-217 -285h490v175h-158l198 285h-480v-175h167z" />
    <glyph glyph-name="florin" unicode="&#x192;" horiz-adv-x="600" 
d="M186 -200q54 0 96.5 21t67.5 59t27 88l17 337h96l9 155h-97l8 114q2 26 13.5 41.5t30.5 15.5q11 0 22.5 -5.5t24.5 -19.5l67 134q-44 32 -78.5 45.5t-72.5 13.5q-79 1 -132 -45t-59 -123l-8 -171h-69l-11 -155h72l-16 -280q-1 -25 -14 -41t-32 -16q-10 0 -21 6t-25 19
l-68 -134q44 -31 79 -45t73 -14z" />
    <glyph glyph-name="uni0212" unicode="&#x212;" horiz-adv-x="700" 
d="M275 300l170 -300h255l-200 300h-225zM70 700v-700h220v700h-220zM212 515h133q28 0 46 -7.5t27.5 -22t9.5 -35.5q0 -20 -9.5 -35t-27.5 -22.5t-46 -7.5h-133v-165h153q103 0 167.5 31t95 85.5t30.5 123.5q0 70 -30.5 124t-95 85t-167.5 31h-153v-185zM190 780
q0 45 20 78.5t58 52.5t90 19q53 0 90.5 -19t57.5 -52.5t20 -78.5h-116q0 21 -9 31.5t-21 14.5t-22 4t-22 -4t-21 -14.5t-9 -31.5h-116z" />
    <glyph glyph-name="uni0213" unicode="&#x213;" horiz-adv-x="453" 
d="M240 460h-190v-460h190v460zM369 262l79 168q-9 17 -32.5 29.5t-48.5 12.5q-42 0 -79.5 -25.5t-60.5 -68.5t-23 -98l36 -85q0 33 10.5 54t27.5 31t34 10q20 0 34 -8t23 -20zM81 532q0 45 20 78.5t58 52.5t90 19q53 0 90.5 -19t57.5 -52.5t20 -78.5h-116q0 21 -9 31.5
t-21 14.5t-22 4t-22 -4t-21 -14.5t-9 -31.5h-116z" />
    <glyph glyph-name="uni0218" unicode="&#x218;" horiz-adv-x="672" 
d="M178 266l-148 -108q22 -57 68.5 -99.5t108.5 -65.5t129 -23q90 0 157.5 25t105.5 75.5t38 129.5q0 44 -12 79t-35.5 62t-56.5 47t-75 35q-41 15 -77.5 26.5t-59.5 24t-23 30.5q0 11 7.5 18.5t21 12t31.5 4.5q20 0 38.5 -6t35.5 -20.5t32 -38.5l163 90q-14 36 -47 72
t-89.5 60t-143.5 24q-82 0 -143.5 -26t-95.5 -73.5t-34 -110.5q0 -55 21 -94t52.5 -65.5t65.5 -43t59 -27.5q40 -16 69.5 -27t46 -22.5t16.5 -31.5q0 -15 -7.5 -24t-22 -13t-34.5 -4q-25 0 -46.5 6t-40.5 19.5t-37 34t-38 48.5zM242 -70l-88 -259l148 -25l136 250z" />
    <glyph glyph-name="uni0219" unicode="&#x219;" horiz-adv-x="488" 
d="M78 183l-63 -137q42 -22 84 -38t88 -24.5t98 -8.5q89 0 136 36.5t47 118.5q0 44 -18 70t-47 42t-62 28q-31 12 -59 19.5t-45.5 15.5t-17.5 19q0 8 7.5 11.5t27.5 3.5q19 0 46 -6.5t55.5 -19t50.5 -31.5l48 133q-34 16 -68 28t-70 19.5t-78 7.5q-57 0 -103.5 -15
t-73.5 -46.5t-27 -79.5q0 -41 14.5 -67t39 -43.5t53.5 -32.5q27 -13 58.5 -20.5t53.5 -14.5t22 -20q0 -10 -7.5 -12t-17.5 -2q-8 0 -29.5 3.5t-56.5 17.5t-86 45zM192 -65l-88 -259l148 -25l134 250z" />
    <glyph glyph-name="uni021A" unicode="&#x21a;" horiz-adv-x="620" 
d="M0 505h200v-505h220v505h200v195h-620v-195zM257 -60l-88 -259l148 -25l135 250z" />
    <glyph glyph-name="uni021B" unicode="&#x21b;" horiz-adv-x="365" 
d="M5 460v-155h355v155h-355zM90 620v-620h185v620h-185zM129 -60l-88 -259l148 -25l135 250z" />
    <glyph glyph-name="uni0237" unicode="&#x237;" horiz-adv-x="285" 
d="M-43 -55l-71 -138q13 -10 32 -23.5t48.5 -23.5t70.5 -10q67 0 111 22t65.5 60.5t21.5 87.5v540h-185v-485q0 -18 -5.5 -30t-16.5 -18.5t-26 -6.5q-14 0 -24.5 7t-20.5 18z" />
    <glyph glyph-name="circumflex" unicode="&#x2c6;" horiz-adv-x="480" 
d="M240 620l80 -80l140 90l-220 140l-220 -140l140 -90z" />
    <glyph glyph-name="caron" unicode="&#x2c7;" horiz-adv-x="480" 
d="M240 689l-80 80l-140 -90l220 -140l220 140l-140 90z" />
    <glyph glyph-name="breve" unicode="&#x2d8;" horiz-adv-x="546" 
d="M105 850q0 -44 20 -78t58 -53t90 -19q53 0 90.5 19t57.5 53t20 78h-116q0 -20 -9 -31t-21 -15t-22 -4t-22 4t-21 15t-9 31h-116z" />
    <glyph glyph-name="dotaccent" unicode="&#x2d9;" horiz-adv-x="300" 
d="M42 827q0 -44 31.5 -71t76.5 -27t76.5 27t31.5 71t-31.5 71t-76.5 27t-76.5 -27t-31.5 -71z" />
    <glyph glyph-name="ring" unicode="&#x2da;" horiz-adv-x="358" 
d="M40 760q0 -55 39 -90t99 -35t100 35t40 91q0 55 -40 89.5t-100 34.5t-99 -34.5t-39 -90.5zM135 760q0 21 12 33t31 12t31.5 -12t12.5 -33t-12.5 -32.5t-31.5 -11.5t-31 11.5t-12 32.5z" />
    <glyph glyph-name="ogonek" unicode="&#x2db;" horiz-adv-x="260" 
d="M194 -100q-10 -10 -24 -15t-26 -5q-15 0 -21.5 8.5t-6.5 21.5q0 14 7.5 28.5t23.5 30t42 31.5l-41 25q-35 -18 -67.5 -38.5t-53.5 -46t-21 -60.5q0 -34 17 -56.5t43 -33t53 -10.5q47 0 72 12.5t36 27.5z" />
    <glyph glyph-name="tilde" unicode="&#x2dc;" horiz-adv-x="530" 
d="M60 645l83 -77q0 8 3.5 20t13.5 21.5t28 9.5q26 0 50 -14.5t49 -28.5t52 -14q35 0 66.5 15.5t54 37.5t30.5 40l-86 93q-15 -24 -32 -40t-39 -16t-38 8.5t-30.5 19t-32.5 19t-43 8.5q-37 0 -64.5 -15.5t-43.5 -38.5t-21 -48z" />
    <glyph glyph-name="hungarumlaut" unicode="&#x2dd;" horiz-adv-x="0" 
d="M117 530l151 178l-148 36l-120 -184zM317 530l151 178l-148 36l-120 -184z" />
    <glyph glyph-name="gravecomb" unicode="&#x300;" horiz-adv-x="0" 
d="M180 530l110 50l-150 160l-140 -60z" />
    <glyph glyph-name="acutecomb" unicode="&#x301;" horiz-adv-x="0" 
d="M125 535l180 150l-140 60l-150 -160z" />
    <glyph glyph-name="uni0302" unicode="&#x302;" horiz-adv-x="0" 
d="M82 551l120 96h-38l121 -96l82 105l-183 120l-184 -120z" />
    <glyph glyph-name="tildecomb" unicode="&#x303;" horiz-adv-x="0" 
d="M83 568q0 14 7.5 25.5t20 18.5t27.5 7q23 0 41.5 -14.5t39 -28.5t50.5 -14t64 15.5t61.5 37.5t35.5 40l-86 93q-17 -24 -36 -40t-45 -16q-19 0 -31.5 8.5t-23.5 19t-27 19t-42 8.5q-34 0 -63.5 -15.5t-49.5 -38.5t-26 -48z" />
    <glyph glyph-name="uni0304" unicode="&#x304;" horiz-adv-x="0" 
d="M0 545h385v130h-385v-130z" />
    <glyph glyph-name="uni0306" unicode="&#x306;" horiz-adv-x="0" 
d="M168 550q51 0 89 18.5t58.5 52t20.5 79.5h-143q0 -15 -3 -26t-8.5 -17.5t-13.5 -6.5q-7 0 -13 6.5t-9 17.5t-3 26h-143q0 -46 20.5 -79.5t58.5 -52t89 -18.5z" />
    <glyph glyph-name="uni0307" unicode="&#x307;" horiz-adv-x="0" 
d="M108 509q47 0 77.5 28t30.5 70t-30.5 70t-77.5 28q-46 0 -77 -28t-31 -70t31 -70t77 -28z" />
    <glyph glyph-name="uni0308" unicode="&#x308;" horiz-adv-x="0" 
d="M108 517q49 0 78.5 27t29.5 71t-29.5 71t-78.5 27t-78.5 -27t-29.5 -71t29.5 -71t78.5 -27zM378 517q49 0 78.5 27t29.5 71t-29.5 71t-78.5 27t-78.5 -27t-29.5 -71t29.5 -71t78.5 -27z" />
    <glyph glyph-name="uni030A" unicode="&#x30a;" horiz-adv-x="0" 
d="M138 520q41 0 72.5 16.5t49.5 44.5t18 64t-18 64.5t-49.5 44.5t-72.5 16q-61 0 -99.5 -35t-38.5 -90t38.5 -90t99.5 -35zM138 601q-19 0 -31 12t-12 32t12 32.5t31 12.5q20 0 32 -12.5t12 -32.5q0 -19 -12 -31.5t-32 -12.5z" />
    <glyph glyph-name="uni030B" unicode="&#x30b;" horiz-adv-x="0" 
d="M117 530l151 178l-148 36l-120 -184zM317 530l151 178l-148 36l-120 -184z" />
    <glyph glyph-name="uni030C" unicode="&#x30c;" horiz-adv-x="0" 
d="M184 551l183 121l-82 104l-121 -96h38l-120 96l-82 -104z" />
    <glyph glyph-name="uni0312" unicode="&#x312;" horiz-adv-x="0" 
d="M195 496l88 259l-148 25l-135 -250z" />
    <glyph glyph-name="uni0326" unicode="&#x326;" horiz-adv-x="0" 
d="M107 -198l125 130l-140 46l-92 -142z" />
    <glyph glyph-name="uni0327" unicode="&#x327;" horiz-adv-x="0" 
d="M148 -213q53 0 87.5 31.5t34.5 79.5q0 35 -21 58.5t-53 23.5q-30 0 -60.5 -4t-53.5 -4l71 -20l53 121l-100 5l-62 -153q20 2 38 1.5t31 -0.5q23 0 33 -5.5t10 -18.5q0 -15 -9 -23.5t-26 -8.5q-21 0 -46.5 5.5t-42.5 12.5l-32 -72q27 -13 69.5 -21t78.5 -8z" />
    <glyph glyph-name="uni0328" unicode="&#x328;" horiz-adv-x="0" 
d="M113 -220q47 0 72 12.5t36 27.5l-33 80q-10 -10 -24 -15t-26 -5q-15 0 -21.5 8.5t-6.5 21.5q0 14 7.5 28.5t23.5 30t42 31.5l-41 25q-35 -18 -67.5 -38.5t-53.5 -46t-21 -60.5q0 -34 17 -56.5t43 -33t53 -10.5z" />
    <glyph glyph-name="uni0394" unicode="&#x394;" horiz-adv-x="600" 
d="M18 0l282 800l281 -800h-563zM216 139h167l-83 293z" />
    <glyph glyph-name="uni03A9" unicode="&#x3a9;" horiz-adv-x="600" 
d="M66 0v168l88 -20q-31 29 -49.5 55t-26.5 53.5t-8 60.5q0 69 30 123.5t82 86.5t118 32t118 -32t82 -86.5t30 -123.5q0 -33 -8 -60.5t-26.5 -53.5t-49.5 -55l88 20v-168h-218v119q21 18 36 39t22.5 44t7.5 46q0 30 -11 54.5t-29.5 39t-41.5 14.5q-22 0 -41 -14.5t-30 -39
t-11 -54.5q0 -23 8 -46t22.5 -44t35.5 -39v-119h-218z" />
    <glyph glyph-name="uni03BC" unicode="&#x3bc;" horiz-adv-x="597" 
d="M255 460h-205v-780h185v340q20 -13 33 -16.5t26 -3.5q23 0 39.5 14t26.5 33v-47h195v460h-195v-240q0 -23 -7 -37.5t-19.5 -21.5t-30.5 -7q-30 0 -39 17.5t-9 48.5v240z" />
    <glyph glyph-name="pi" unicode="&#x3c0;" horiz-adv-x="640" 
d="M90 430v-430h180v430h-180zM30 460v-155h570v155h-570zM340 430v-309q0 -64 26 -91.5t78 -33t129 -5.5v140q-15 0 -27 3.5t-19 18.5t-7 48v229h-180z" />
    <glyph glyph-name="uni0400" unicode="&#x400;" horiz-adv-x="635" 
d="M222 0h353v175h-353v-175zM222 525h353v175h-353v-175zM222 275h333v170h-333v-170zM70 700v-700h210v700h-210zM143 930l180 -150l110 50l-150 160z" />
    <glyph glyph-name="uni0401" unicode="&#x401;" horiz-adv-x="635" 
d="M222 0h353v175h-353v-175zM222 525h353v175h-353v-175zM222 275h333v170h-333v-170zM70 700v-700h210v700h-210zM350 878q0 -44 31.5 -71t76.5 -27t76.5 27t31.5 71t-31.5 71t-76.5 27t-76.5 -27t-31.5 -71zM80 878q0 -44 31.5 -71t76.5 -27t76.5 27t31.5 71t-31.5 71
t-76.5 27t-76.5 -27t-31.5 -71z" />
    <glyph glyph-name="uni0403" unicode="&#x403;" horiz-adv-x="550" 
d="M80 700v-700h220v505h240v195h-460zM490 930l-140 60l-150 -160l110 -50z" />
    <glyph glyph-name="uni040C" unicode="&#x40c;" horiz-adv-x="781" 
d="M70 700v-700h230v700h-230zM515 700l-278 -335l283 -365h266l-288 372l273 328h-256zM601 930l-140 60l-150 -160l110 -50z" />
    <glyph glyph-name="uni040D" unicode="&#x40d;" horiz-adv-x="805" 
d="M730 475l5 260l-660 -510l-5 -260zM280 700h-210v-735l210 200v535zM735 735l-210 -210v-525h210v735zM245 915l180 -150l110 50l-150 160z" />
    <glyph glyph-name="uni040E" unicode="&#x40e;" horiz-adv-x="630" 
d="M645 700h-215l-170 -385h85l-130 385h-230l218 -483l-97 -217h210zM147 930q0 -44 20 -78t58 -53t90 -19q53 0 90.5 19t57.5 53t20 78h-116q0 -20 -9 -31t-21 -15t-22 -4t-22 4t-21 15t-9 31h-116z" />
    <glyph glyph-name="uni0410" unicode="&#x410;" horiz-adv-x="780" 
d="M207 90h370v158h-370v-158zM390 382l86 -193l-15 -57l74 -132h250l-395 750l-395 -750h250l76 139l-17 50z" />
    <glyph glyph-name="uni0411" unicode="&#x411;" horiz-adv-x="748" 
d="M127 275h283q25 0 41 -5t24 -16t8 -29t-8 -29t-24 -16t-41 -5h-283v-175h343q68 0 121.5 29.5t85 80.5t31.5 115q0 65 -31.5 114.5t-85 77.5t-121.5 28h-343v-170zM80 700v-700h225v525h350v175h-575z" />
    <glyph glyph-name="uni0412" unicode="&#x412;" horiz-adv-x="728" 
d="M232 335h143q78 0 139.5 21.5t97.5 63t36 100.5q0 60 -36 100t-97.5 60t-139.5 20h-305v-700h325q93 0 158.5 19t100 61t34.5 112q0 56 -26.5 95.5t-69.5 64.5t-94.5 36.5t-102.5 11.5h-163v-120h133q19 0 35.5 -2t29.5 -7.5t20.5 -16t7.5 -27.5q0 -28 -13 -41t-34 -17
t-46 -4h-75v370h55q38 0 55.5 -12.5t17.5 -39.5q0 -18 -8 -31t-24 -20t-41 -7h-113v-90z" />
    <glyph glyph-name="uni0413" unicode="&#x413;" horiz-adv-x="550" 
d="M80 700v-700h220v505h240v195h-460z" />
    <glyph glyph-name="uni0414" unicode="&#x414;" horiz-adv-x="935" 
d="M465 362l115 -332h260l-375 705l-375 -705h260zM665 0v-110h225v295h-850v-295h225v110h400z" />
    <glyph glyph-name="uni0415" unicode="&#x415;" horiz-adv-x="635" 
d="M222 0h353v175h-353v-175zM222 525h353v175h-353v-175zM222 275h333v170h-333v-170zM70 700v-700h210v700h-210z" />
    <glyph glyph-name="uni0416" unicode="&#x416;" horiz-adv-x="1200" 
d="M265 700h-255l283 -328l-298 -372h255l296 370zM485 700v-700h230v700h-230zM925 700l-271 -330l286 -370h265l-298 372l283 328h-265z" />
    <glyph glyph-name="uni0417" unicode="&#x417;" horiz-adv-x="706" 
d="M318 335q69 0 132 9.5t111.5 30.5t76.5 56t28 85q0 57 -33 102t-99 71t-166 26t-166 -32t-99 -86t-33 -121h201q0 21 10.5 36.5t32 24t53.5 8.5q27 0 45.5 -7t28 -19t9.5 -28q0 -20 -14 -35.5t-43.5 -23.5t-74.5 -8v-89zM378 -20q105 0 173.5 28t101.5 76.5t33 110.5
q0 72 -47 117t-130 66t-191 21v-104q60 0 93 -11.5t46 -29.5t13 -39q0 -38 -30.5 -51.5t-71.5 -13.5q-27 0 -53 9t-42.5 30t-16.5 56h-216q0 -50 19 -97.5t60 -85.5t105 -60t154 -22z" />
    <glyph glyph-name="uni0418" unicode="&#x418;" horiz-adv-x="805" 
d="M730 475l5 260l-660 -510l-5 -260zM280 700h-210v-735l210 200v535zM735 735l-210 -210v-525h210v735z" />
    <glyph glyph-name="uni0419" unicode="&#x419;" horiz-adv-x="805" 
d="M730 475l5 260l-660 -510l-5 -260zM280 700h-210v-735l210 200v535zM735 735l-210 -210v-525h210v735zM257 925q0 -44 20 -78t58 -53t90 -19q53 0 90.5 19t57.5 53t20 78h-116q0 -20 -9 -31t-21 -15t-22 -4t-22 4t-21 15t-9 31h-116z" />
    <glyph glyph-name="uni041A" unicode="&#x41a;" horiz-adv-x="781" 
d="M70 700v-700h230v700h-230zM515 700l-278 -335l283 -365h266l-288 372l273 328h-256z" />
    <glyph glyph-name="uni041B" unicode="&#x41b;" horiz-adv-x="838" 
d="M758 700h-635v-398q0 -28 -8 -50t-22.5 -37t-35.5 -22.5t-47 -7.5v-185q122 0 196.5 32.5t108 105.5t33.5 192v175h185v-505h225v700z" />
    <glyph glyph-name="uni041C" unicode="&#x41c;" horiz-adv-x="940" 
d="M301 286l169 -221l169 221l36 -286h235l-130 735l-310 -378l-310 378l-130 -735h235z" />
    <glyph glyph-name="uni041D" unicode="&#x41d;" horiz-adv-x="830" 
d="M117 265h560v195h-560v-195zM540 700v-700h220v700h-220zM70 700v-700h220v700h-220z" />
    <glyph glyph-name="uni041E" unicode="&#x41e;" horiz-adv-x="840" 
d="M263 350q0 52 19 90.5t54 60t84 21.5q52 0 86.5 -21.5t52.5 -60t18 -90.5q0 -51 -19 -90t-54 -60.5t-84 -21.5t-84 21.5t-54 60.5t-19 90zM30 350q0 -84 28.5 -153.5t80.5 -120.5t123.5 -78.5t157.5 -27.5t157.5 27.5t123.5 78.5t80.5 120.5t28.5 153.5t-29 152t-82 117
t-124 75t-155 26q-82 0 -153 -26t-124 -75t-83 -117t-30 -152z" />
    <glyph glyph-name="uni041F" unicode="&#x41f;" horiz-adv-x="805" 
d="M500 505v-505h225v700h-645v-700h225v505h195z" />
    <glyph glyph-name="uni0420" unicode="&#x420;" horiz-adv-x="668" 
d="M70 700v-700h220v700h-220zM212 525h133q41 0 62 -17t21 -48t-21 -48t-62 -17h-133v-175h133q103 0 167.5 29t95 83t30.5 128q0 75 -30.5 128.5t-95 82.5t-167.5 29h-133v-175z" />
    <glyph glyph-name="uni0421" unicode="&#x421;" horiz-adv-x="710" 
d="M272 350q0 54 24.5 90.5t65 54.5t89.5 18q50 0 86 -12.5t63.5 -32.5t49.5 -41v226q-41 29 -89.5 48t-125.5 19q-91 0 -166 -26t-128 -75t-82 -117t-29 -152t29 -152t82 -117t128 -75t166 -26q77 0 125.5 19.5t89.5 47.5v226q-22 -21 -49.5 -40.5t-63.5 -32.5t-86 -13
q-49 0 -89.5 18t-65 54.5t-24.5 90.5z" />
    <glyph glyph-name="uni0422" unicode="&#x422;" horiz-adv-x="620" 
d="M0 505h200v-505h220v505h200v195h-620v-195z" />
    <glyph glyph-name="uni0423" unicode="&#x423;" horiz-adv-x="650" 
d="M665 700h-225l-170 -385h85l-130 385h-240l228 -483l-97 -217h220z" />
    <glyph glyph-name="uni0424" unicode="&#x424;" horiz-adv-x="1023" 
d="M399 700v-700h225v700h-225zM758 350q0 -36 -18.5 -54.5t-53 -24.5t-83.5 -6h-183q-49 0 -83.5 6t-53 24.5t-18.5 54.5q0 37 18.5 55t53 24t83.5 6h183q49 0 83.5 -6t53 -24t18.5 -55zM983 350q0 85 -44 145t-119 92.5t-167 32.5h-283q-92 0 -167 -32.5t-119 -92.5
t-44 -145q0 -84 44 -144.5t119 -93t167 -32.5h283q92 0 167 32.5t119 93t44 144.5z" />
    <glyph glyph-name="uni0425" unicode="&#x425;" horiz-adv-x="765" 
d="M475 700l-89 -169l-86 169h-275l223 -346l-248 -354h275l109 196l106 -196h275l-242 354l227 346h-275z" />
    <glyph glyph-name="uni0426" unicode="&#x426;" horiz-adv-x="920" 
d="M295 195v505h-225v-700h605v-150h215v345h-125v505h-225v-505h-245z" />
    <glyph glyph-name="uni0427" unicode="&#x427;" horiz-adv-x="780" 
d="M320 185h217v195h-137zM470 700v-700h230v700h-230zM295 700h-225v-262q0 -67 29.5 -125t85.5 -93t135 -35l80 195q-28 0 -52 8.5t-38.5 29t-14.5 55.5v227z" />
    <glyph glyph-name="uni0428" unicode="&#x428;" horiz-adv-x="1140" 
d="M840 195h-165v505h-210v-505h-165v505h-220v-700h980v700h-220v-505z" />
    <glyph glyph-name="uni0429" unicode="&#x429;" horiz-adv-x="1225" 
d="M840 195h-165v505h-210v-505h-165v505h-220v-700h890v-150h215v345h-125v505h-220v-505z" />
    <glyph glyph-name="uni042A" unicode="&#x42a;" horiz-adv-x="783" 
d="M327 305h133q28 0 46 -7.5t27.5 -22t9.5 -35.5q0 -20 -9.5 -35t-27.5 -22.5t-46 -7.5h-133v-175h133q103 0 167.5 29t95 83t30.5 128q0 75 -30.5 128.5t-95 82.5t-167.5 29h-133v-175zM190 506v-506h220v700h-400v-194h180z" />
    <glyph glyph-name="uni042B" unicode="&#x42b;" horiz-adv-x="995" 
d="M700 700v-700h225v700h-225zM70 700v-700h220v700h-220zM212 305h133q28 0 46 -7.5t27.5 -22t9.5 -35.5q0 -20 -9.5 -35t-27.5 -22.5t-46 -7.5h-133v-175h133q103 0 167.5 29t95 83t30.5 128q0 75 -30.5 128.5t-95 82.5t-167.5 29h-133v-175z" />
    <glyph glyph-name="uni042C" unicode="&#x42c;" horiz-adv-x="668" 
d="M70 700v-700h220v700h-220zM212 305h133q28 0 46 -7.5t27.5 -22t9.5 -35.5q0 -20 -9.5 -35t-27.5 -22.5t-46 -7.5h-133v-175h133q103 0 167.5 29t95 83t30.5 128q0 75 -30.5 128.5t-95 82.5t-167.5 29h-133v-175z" />
    <glyph glyph-name="uni042D" unicode="&#x42d;" horiz-adv-x="710" 
d="M140 265h343v170h-343v-170zM468 350q0 -54 -32 -92.5t-80 -59.5t-97 -21t-88 12t-66.5 27.5t-44.5 26.5v-196q41 -28 90 -47.5t125 -19.5q92 0 166.5 26t127.5 75t82 117t29 152t-29 152t-82 117t-127.5 75t-166.5 26q-76 0 -125 -19t-90 -48v-196q17 11 44.5 26.5
t66.5 27.5t88 12t97 -20.5t80 -59.5t32 -93z" />
    <glyph glyph-name="uni042E" unicode="&#x42e;" horiz-adv-x="1210" 
d="M117 265h410v195h-410v-195zM70 700v-700h220v700h-220zM633 350q0 52 19 90.5t54 60t84 21.5q52 0 86.5 -21.5t52.5 -60t18 -90.5q0 -51 -19 -90t-54 -60.5t-84 -21.5t-84 21.5t-54 60.5t-19 90zM400 350q0 -84 28.5 -153.5t80.5 -120.5t123.5 -78.5t157.5 -27.5
t157.5 27.5t123.5 78.5t80.5 120.5t28.5 153.5t-29 152t-82 117t-124 75t-155 26q-82 0 -153 -26t-124 -75t-83 -117t-30 -152z" />
    <glyph glyph-name="uni042F" unicode="&#x42f;" horiz-adv-x="700" 
d="M425 300h-225l-200 -300h255zM630 700h-220v-700h220v700zM488 515v185h-153q-102 0 -167 -31t-95.5 -85t-30.5 -124q0 -69 30.5 -123.5t95.5 -85.5t167 -31h153v165h-133q-27 0 -45.5 7.5t-28 22.5t-9.5 35q0 21 9.5 35.5t28 22t45.5 7.5h133z" />
    <glyph glyph-name="uni0430" unicode="&#x430;" horiz-adv-x="580" 
d="M216 139q0 12 7.5 21t21 14.5t30.5 5.5q36 0 59 -8t44 -25v86q-12 12 -38 21.5t-58 15t-61 5.5q-60 0 -105.5 -18t-70.5 -50.5t-25 -76.5t21.5 -75.5t60.5 -48t91 -16.5q48 0 86 16.5t60 48t22 75.5l-16 60q0 -33 -12 -51t-31 -25.5t-39 -7.5q-12 0 -23 3.5t-17.5 10.5
t-6.5 19zM121 298q11 6 34.5 14t54 14.5t63.5 6.5q38 0 55 -17.5t17 -43.5v-272h185v320q0 50 -31 84.5t-84.5 52.5t-121.5 18q-62 0 -122.5 -16t-108.5 -35z" />
    <glyph glyph-name="uni0431" unicode="&#x431;" horiz-adv-x="646" 
d="M334 316q20 0 37.5 -10t28 -29t10.5 -47t-11 -47t-28.5 -28.5t-37.5 -9.5t-38 9.5t-29 28.5t-11 47l-220 60q0 -99 38 -166t105.5 -100.5t154.5 -33.5q88 0 150 31t95 85.5t33 123.5q0 70 -32 124t-90 85t-136 31zM169 230h86q0 21 6 37t16.5 27t25 16.5t31.5 5.5l19 154
q-43 0 -77 -16.5t-58 -47.5t-36.5 -75.5t-12.5 -100.5zM35 290l210 -63l-40 113q0 50 14 90.5t48.5 73t94.5 57.5q55 23 98.5 57t70.5 76t32 86h-185q-7 -36 -45.5 -59.5t-106.5 -54.5q-77 -35 -118.5 -87t-57 -123.5t-15.5 -165.5z" />
    <glyph glyph-name="uni0432" unicode="&#x432;" horiz-adv-x="568" 
d="M187 240v-62h133q11 0 18.5 -3t11.5 -7.5t6 -10.5t2 -12q0 -12 -7.5 -23.5t-30.5 -11.5h-133v-110h203q79 0 113.5 36.5t34.5 88.5q0 45 -22 70t-60 35t-86 10h-183zM187 220h173q43 0 78.5 12.5t57.5 38t22 64.5q0 45 -22 72.5t-57.5 40t-78.5 12.5h-173v-110h123
q14 0 21 -10t7 -22q0 -6 -2 -11.5t-5.5 -10t-8.5 -7t-12 -2.5h-123v-67zM75 460v-460h185v460h-185z" />
    <glyph glyph-name="uni0433" unicode="&#x433;" horiz-adv-x="375" 
d="M50 460v-460h190v305h135v155h-325z" />
    <glyph glyph-name="uni0434" unicode="&#x434;" horiz-adv-x="735" 
d="M365 252l95 -222l180 50l-275 415l-275 -415l180 -50zM510 0v-90h180v235h-650v-235h185v90h285z" />
    <glyph glyph-name="uni0435" unicode="&#x435;" horiz-adv-x="612" 
d="M136 190h437q2 16 2 29.5v19.5q0 73 -29.5 124.5t-88.5 79t-149 27.5q-84 0 -141.5 -24t-90 -67t-42.5 -100q-2 -12 -3 -24t-1 -25q0 -69 31.5 -123.5t95.5 -85.5t161 -31q70 0 120.5 18t85.5 51t58 78l-178 28q-8 -15 -21.5 -25t-32 -15t-42.5 -5q-20 0 -39 9.5
t-31 33.5t-12 67l2 20q0 33 8.5 55.5t25 33.5t41.5 11q20 0 33 -7t20.5 -21.5t10.5 -37.5h-231v-94z" />
    <glyph glyph-name="uni0436" unicode="&#x436;" horiz-adv-x="1005" 
d="M765 460l-200 -190l220 -270h220l-210 270l190 190h-220zM595 460h-185v-460h185v460zM240 460h-220l190 -190l-210 -270h220l220 270z" />
    <glyph glyph-name="uni0437" unicode="&#x437;" horiz-adv-x="576" 
d="M293 230q116 -7 167 22.5t51 80.5q0 40 -27.5 71t-74.5 48.5t-108 17.5q-65 0 -112.5 -21t-73 -59.5t-25.5 -93.5h171q1 16 7 25t15.5 13t19.5 4q14 0 24.5 -9t10.5 -23q0 -15 -11 -24.5t-34 -9.5v-42zM299 -10q69 0 121 18t81.5 50.5t29.5 75.5q0 60 -61 97t-177 29v-62
q20 0 33 -4.5t19.5 -13t6.5 -21.5t-7 -21.5t-19.5 -13t-27.5 -4.5t-32 9t-25 36h-181q8 -82 69 -128.5t170 -46.5z" />
    <glyph glyph-name="uni0438" unicode="&#x438;" horiz-adv-x="620" 
d="M565 300l5 195l-515 -335l-5 -195zM235 460h-185v-495l185 160v335zM570 495l-185 -160v-335h185v495z" />
    <glyph glyph-name="uni0439" unicode="&#x439;" horiz-adv-x="620" 
d="M565 300l5 195l-515 -335l-5 -195zM235 460h-185v-495l185 160v335zM570 495l-185 -160v-335h185v495zM152 695q0 -44 20 -78t58 -53t90 -19q53 0 90.5 19t57.5 53t20 78h-116q0 -20 -9 -31t-21 -15t-22 -4t-22 4t-21 15t-9 31h-116z" />
    <glyph glyph-name="uni043A" unicode="&#x43a;" horiz-adv-x="660" 
d="M50 460v-460h185v460h-185zM401 460l-195 -190l219 -270h225l-215 270l195 190h-229z" />
    <glyph glyph-name="uni043B" unicode="&#x43b;" horiz-adv-x="663" 
d="M583 460h-500v-240q0 -34 -21.5 -40.5t-51.5 -6.5v-173q102 0 158 17.5t78 53t22 89.5v125h130v-285h185v460z" />
    <glyph glyph-name="uni043C" unicode="&#x43c;" horiz-adv-x="687" 
d="M492 0h190l-150 495l-95 -210zM312 169l30 -200l200 296l-10 230zM342 -31l30 200l-217 326l-10 -230zM5 0h190l55 285l-95 210z" />
    <glyph glyph-name="uni043D" unicode="&#x43d;" 
d="M97 175h390v135h-390v-135zM410 460v-460h185v460h-185zM50 460v-460h185v460h-185z" />
    <glyph glyph-name="uni043E" unicode="&#x43e;" horiz-adv-x="616" 
d="M30 230q0 -74 36 -128t99 -83t143 -29t143 29t99 83t36 128q0 75 -36 129t-99 83t-143 29t-143 -29t-99 -83t-36 -129zM231 230q0 28 11 47t28.5 29t37.5 10t37.5 -10t28.5 -29t11 -47t-11 -47t-28.5 -28.5t-37.5 -9.5t-37.5 9.5t-28.5 28.5t-11 47z" />
    <glyph glyph-name="uni043F" unicode="&#x43f;" horiz-adv-x="605" 
d="M555 460h-505v-460h185v295h135v-295h185v460z" />
    <glyph glyph-name="uni0440" unicode="&#x440;" 
d="M245 -220v680h-195v-680h195zM615 230q0 85 -31.5 140t-80 82.5t-101.5 27.5q-62 0 -105.5 -31.5t-65.5 -87.5t-22 -131q0 -74 22 -130.5t65.5 -88t105.5 -31.5q53 0 101.5 27.5t80 83t31.5 139.5zM409 230q0 -25 -11 -43t-29.5 -27.5t-41.5 -9.5q-20 0 -39 8.5t-31 26
t-12 45.5t12 45.5t31 26t39 8.5q23 0 41.5 -9.5t29.5 -27t11 -43.5z" />
    <glyph glyph-name="uni0441" unicode="&#x441;" horiz-adv-x="503" 
d="M231 230q0 26 14 46.5t37.5 33t50.5 12.5q17 0 39 -5.5t44 -18t37 -34.5v177q-24 11 -54.5 20t-85.5 9q-82 0 -146 -29t-100.5 -82.5t-36.5 -128.5q0 -74 36.5 -128t100.5 -83t146 -29q55 0 85.5 9t54.5 22v176q-15 -21 -35 -34t-41.5 -19t-43.5 -6q-27 0 -50.5 10.5
t-37.5 31t-14 50.5z" />
    <glyph glyph-name="uni0442" unicode="&#x442;" horiz-adv-x="365" 
d="M5 460v-155h355v155h-355zM90 440v-440h185v440h-185z" />
    <glyph glyph-name="uni0443" unicode="&#x443;" horiz-adv-x="570" 
d="M585 460h-195l-150 -375h105l-150 375h-210l213 -440l-103 -240h190z" />
    <glyph glyph-name="uni0444" unicode="&#x444;" horiz-adv-x="716" 
d="M268 560v-660h180v660h-180zM30 230q0 -74 38.5 -128t111.5 -83t178 -29t178.5 29t111.5 83t38 128q0 75 -38 129t-111.5 83t-178.5 29t-178 -29t-111.5 -83t-38.5 -129zM201 230q0 28 14 47t48.5 29t94.5 10t94 -10t48.5 -29t14.5 -47t-14.5 -47t-48.5 -28.5t-94 -9.5
t-94.5 9.5t-48.5 28.5t-14 47z" />
    <glyph glyph-name="uni0445" unicode="&#x445;" horiz-adv-x="600" 
d="M375 460l-71 -97l-69 97h-225l192 -224l-202 -236h225l79 109l81 -109h215l-198 236l188 224h-215z" />
    <glyph glyph-name="uni0446" unicode="&#x446;" horiz-adv-x="655" 
d="M565 155v305h-195v-305h-125v305h-195v-460h410v-110h185v265h-80z" />
    <glyph glyph-name="uni0447" unicode="&#x447;" horiz-adv-x="585" 
d="M230 100h157v155h-87zM330 460v-460h195v460h-195zM245 460h-195v-132q0 -67 16 -118.5t55.5 -80.5t108.5 -29l70 155q-18 0 -30 5t-18.5 16.5t-6.5 31.5v152z" />
    <glyph glyph-name="uni0448" unicode="&#x448;" horiz-adv-x="871" 
d="M528 155v305h-185v-305h-108v305h-185v-460h771v460h-185v-305h-108z" />
    <glyph glyph-name="uni0449" unicode="&#x449;" horiz-adv-x="910" 
d="M528 155v305h-185v-305h-108v305h-185v-460h665v-110h185v265h-80v305h-185v-305h-107z" />
    <glyph glyph-name="uni044A" unicode="&#x44a;" horiz-adv-x="633" 
d="M277 201h100q14 0 22.5 -8t8.5 -20q0 -8 -4 -14.5t-11 -10t-16 -3.5h-100v-145h143q48 0 86 22.5t60 62t22 88.5q0 74 -48.5 108.5t-119.5 34.5h-143v-115zM130 305v-305h175v460h-300v-155h125z" />
    <glyph glyph-name="uni044B" unicode="&#x44b;" horiz-adv-x="835" 
d="M590 460v-460h195v460h-195zM50 460v-460h195v460h-195zM212 201h100q14 0 22.5 -8t8.5 -20q0 -8 -4 -14.5t-11 -10t-16 -3.5h-100v-145h143q48 0 86 22.5t60 62t22 88.5q0 74 -48.5 108.5t-119.5 34.5h-143v-115z" />
    <glyph glyph-name="uni044C" unicode="&#x44c;" horiz-adv-x="583" 
d="M60 460v-460h195v460h-195zM222 201h100q14 0 22.5 -8t8.5 -20q0 -8 -4 -14.5t-11 -10t-16 -3.5h-100v-145h143q48 0 86 22.5t60 62t22 88.5q0 74 -48.5 108.5t-119.5 34.5h-143v-115z" />
    <glyph glyph-name="uni044D" unicode="&#x44d;" horiz-adv-x="503" 
d="M97 287v-114h290v114h-290zM272 230q0 -45 -14 -72t-37 -38.5t-51 -11.5q-22 0 -43.5 6t-41 19t-35.5 34v-146q24 -13 54.5 -22t85.5 -9q83 0 146.5 29t100 83t36.5 128q0 75 -36.5 128.5t-100 82.5t-146.5 29q-55 0 -85.5 -9t-54.5 -20v-147q16 22 37.5 34.5t43.5 18
t39 5.5q28 0 51 -13.5t37 -40.5t14 -68z" />
    <glyph glyph-name="uni044E" unicode="&#x44e;" horiz-adv-x="866" 
d="M97 175h330v135h-330v-135zM50 460v-460h185v460h-185zM280 230q0 -74 36 -128t99 -83t143 -29t143 29t99 83t36 128q0 75 -36 129t-99 83t-143 29t-143 -29t-99 -83t-36 -129zM481 230q0 28 11 47t28.5 29t37.5 10t37.5 -10t28.5 -29t11 -47t-11 -47t-28.5 -28.5
t-37.5 -9.5t-37.5 9.5t-28.5 28.5t-11 47z" />
    <glyph glyph-name="uni044F" unicode="&#x44f;" horiz-adv-x="583" 
d="M231 0l100 190h-178l-120 -190h198zM548 0v460h-195v-460h195zM416 274h-108q-14 0 -23.5 1t-14.5 5t-5 12t5 12t14.5 5t23.5 1h108v150h-143q-47 0 -93 -14.5t-75.5 -46.5t-29.5 -87q0 -54 29.5 -89t75.5 -52t93 -17h143v120z" />
    <glyph glyph-name="uni0450" unicode="&#x450;" horiz-adv-x="612" 
d="M136 190h437q2 16 2 29.5v19.5q0 73 -29.5 124.5t-88.5 79t-149 27.5q-84 0 -141.5 -24t-90 -67t-42.5 -100q-2 -12 -3 -24t-1 -25q0 -69 31.5 -123.5t95.5 -85.5t161 -31q70 0 120.5 18t85.5 51t58 78l-178 28q-8 -15 -21.5 -25t-32 -15t-42.5 -5q-20 0 -39 9.5
t-31 33.5t-12 67l2 20q0 33 8.5 55.5t25 33.5t41.5 11q20 0 33 -7t20.5 -21.5t10.5 -37.5h-231v-94zM128 681l180 -150l110 50l-150 160z" />
    <glyph glyph-name="uni0451" unicode="&#x451;" horiz-adv-x="612" 
d="M136 190h437q2 16 2 29.5v19.5q0 73 -29.5 124.5t-88.5 79t-149 27.5q-84 0 -141.5 -24t-90 -67t-42.5 -100q-2 -12 -3 -24t-1 -25q0 -69 31.5 -123.5t95.5 -85.5t161 -31q70 0 120.5 18t85.5 51t58 78l-178 28q-8 -15 -21.5 -25t-32 -15t-42.5 -5q-20 0 -39 9.5
t-31 33.5t-12 67l2 20q0 33 8.5 55.5t25 33.5t41.5 11q20 0 33 -7t20.5 -21.5t10.5 -37.5h-231v-94zM335 629q0 -44 31.5 -71t76.5 -27t76.5 27t31.5 71t-31.5 71t-76.5 27t-76.5 -27t-31.5 -71zM65 629q0 -44 31.5 -71t76.5 -27t76.5 27t31.5 71t-31.5 71t-76.5 27
t-76.5 -27t-31.5 -71z" />
    <glyph glyph-name="uni0453" unicode="&#x453;" horiz-adv-x="375" 
d="M50 460v-460h190v305h135v155h-325zM393 681l-140 60l-150 -160l110 -50z" />
    <glyph glyph-name="uni045C" unicode="&#x45c;" horiz-adv-x="440" 
d="M50 460v-460h185v460h-185zM401 460l-195 -190l219 -270h225l-215 270l195 190h-229zM520 681l-140 60l-150 -160l110 -50z" />
    <glyph glyph-name="uni045D" unicode="&#x45d;" horiz-adv-x="620" 
d="M565 300l5 195l-515 -335l-5 -195zM235 460h-185v-495l185 160v335zM570 495l-185 -160v-335h185v495zM140 705l180 -150l110 50l-150 160z" />
    <glyph glyph-name="uni045E" unicode="&#x45e;" horiz-adv-x="440" 
d="M585 460h-195l-150 -375h105l-150 375h-210l213 -440l-103 -240h190zM117 681q0 -44 20 -78t58 -53t90 -19q53 0 90.5 19t57.5 53t20 78h-116q0 -20 -9 -31t-21 -15t-22 -4t-22 4t-21 15t-9 31h-116z" />
    <glyph glyph-name="Wgrave" unicode="&#x1e80;" horiz-adv-x="1110" 
d="M555 795l110 50l-150 160l-140 -60zM737 371l-182 364l-182 -364l-108 329h-265l320 -745l235 348l235 -348l320 745h-265z" />
    <glyph glyph-name="wgrave" unicode="&#x1e81;" horiz-adv-x="810" 
d="M405 555l110 50l-150 160l-140 -60zM-15 460l260 -485l160 236l160 -236l260 485h-200l-84 -197l-136 232l-136 -232l-84 197h-200z" />
    <glyph glyph-name="Wacute" unicode="&#x1e82;" horiz-adv-x="1110" 
d="M555 795l180 150l-140 60l-150 -160zM737 371l-182 364l-182 -364l-108 329h-265l320 -745l235 348l235 -348l320 745h-265z" />
    <glyph glyph-name="wacute" unicode="&#x1e83;" horiz-adv-x="810" 
d="M405 555l180 150l-140 60l-150 -160zM-15 460l260 -485l160 236l160 -236l260 485h-200l-84 -197l-136 232l-136 -232l-84 197h-200z" />
    <glyph glyph-name="Wdieresis" unicode="&#x1e84;" horiz-adv-x="1110" 
d="M582 893q0 -44 31.5 -71t76.5 -27t76.5 27t31.5 71t-31.5 71t-76.5 27t-76.5 -27t-31.5 -71zM312 893q0 -44 31.5 -71t76.5 -27t76.5 27t31.5 71t-31.5 71t-76.5 27t-76.5 -27t-31.5 -71zM737 371l-182 364l-182 -364l-108 329h-265l320 -745l235 348l235 -348l320 745
h-265z" />
    <glyph glyph-name="wdieresis" unicode="&#x1e85;" horiz-adv-x="810" 
d="M432 653q0 -44 31.5 -71t76.5 -27t76.5 27t31.5 71t-31.5 71t-76.5 27t-76.5 -27t-31.5 -71zM162 653q0 -44 31.5 -71t76.5 -27t76.5 27t31.5 71t-31.5 71t-76.5 27t-76.5 -27t-31.5 -71zM-15 460l260 -485l160 236l160 -236l260 485h-200l-84 -197l-136 232l-136 -232
l-84 197h-200z" />
    <glyph glyph-name="uni1E86" unicode="&#x1e86;" horiz-adv-x="1110" 
d="M447 893q0 -44 31.5 -71t76.5 -27t76.5 27t31.5 71t-31.5 71t-76.5 27t-76.5 -27t-31.5 -71zM737 371l-182 364l-182 -364l-108 329h-265l320 -745l235 348l235 -348l320 745h-265z" />
    <glyph glyph-name="uni1E87" unicode="&#x1e87;" horiz-adv-x="810" 
d="M297 653q0 -44 31.5 -71t76.5 -27t76.5 27t31.5 71t-31.5 71t-76.5 27t-76.5 -27t-31.5 -71zM-15 460l260 -485l160 236l160 -236l260 485h-200l-84 -197l-136 232l-136 -232l-84 197h-200z" />
    <glyph glyph-name="uni1E88" unicode="&#x1e88;" horiz-adv-x="1110" 
d="M447 -203q0 -44 31.5 -71t76.5 -27t76.5 27t31.5 71t-31.5 71t-76.5 27t-76.5 -27t-31.5 -71zM737 371l-182 364l-182 -364l-108 329h-265l320 -745l235 348l235 -348l320 745h-265z" />
    <glyph glyph-name="uni1E89" unicode="&#x1e89;" horiz-adv-x="810" 
d="M297 -183q0 -44 31.5 -71t76.5 -27t76.5 27t31.5 71t-31.5 71t-76.5 27t-76.5 -27t-31.5 -71zM-15 460l260 -485l160 236l160 -236l260 485h-200l-84 -197l-136 232l-136 -232l-84 197h-200z" />
    <glyph glyph-name="uni1E9E" unicode="&#x1e9e;" horiz-adv-x="874" 
d="M612 -12q-63 0 -133.5 9t-128.5 25l38 176q47 -17 88 -26.5t64 -9.5q18 0 31 4t20 12.5t7 21.5q0 21 -12 35.5t-30 26t-36 24t-30 29.5t-12 41q0 17 5.5 30.5t14 24t16.5 20t13.5 19.5t5.5 22q0 16 -12 28t-31.5 18.5t-42.5 6.5q-53 0 -83.5 -25t-43 -69t-12.5 -101v-332
h-228v354q0 78 16 145t56 117t111.5 78t181.5 28q112 0 185 -27t108.5 -71.5t35.5 -95.5q0 -25 -5.5 -47t-13.5 -40.5t-16.5 -34t-14 -27.5t-5.5 -21q0 -12 11 -22.5t28 -23t33.5 -30.5t27.5 -44.5t11 -66.5q0 -58 -25 -98.5t-73.5 -61.5t-119.5 -21z" />
    <glyph glyph-name="Ygrave" unicode="&#x1ef2;" horiz-adv-x="720" 
d="M360 780l110 50l-150 160l-140 -60zM470 700l-110 -226l-110 226h-255l253 -427v-273h225v275l252 425h-255z" />
    <glyph glyph-name="ygrave" unicode="&#x1ef3;" horiz-adv-x="570" 
d="M285 531l110 50l-150 160l-140 -60zM585 460h-195l-150 -375h105l-150 375h-210l213 -440l-103 -240h190z" />
    <glyph glyph-name="uni2010" unicode="&#x2010;" horiz-adv-x="230" 
d="M5 155h220v165h-220v-165z" />
    <glyph glyph-name="figuredash" unicode="&#x2012;" horiz-adv-x="650" 
d="M70 155h495v165h-495v-165z" />
    <glyph glyph-name="endash" unicode="&#x2013;" horiz-adv-x="810" 
d="M70 155h660v165h-660v-165z" />
    <glyph glyph-name="emdash" unicode="&#x2014;" horiz-adv-x="970" 
d="M70 155h825v165h-825v-165z" />
    <glyph glyph-name="quoteleft" unicode="&#x2018;" horiz-adv-x="365" 
d="M265 430l50 270h-140l-105 -270h195z" />
    <glyph glyph-name="quoteright" unicode="&#x2019;" horiz-adv-x="365" 
d="M100 700l-50 -270h140l105 270h-195z" />
    <glyph glyph-name="quotesinglbase" unicode="&#x201a;" horiz-adv-x="365" 
d="M110 80l-50 -270h140l105 270h-195z" />
    <glyph glyph-name="quotedblleft" unicode="&#x201c;" horiz-adv-x="615" 
d="M265 430l50 270h-140l-105 -270h195zM515 430l50 270h-140l-105 -270h195z" />
    <glyph glyph-name="quotedblright" unicode="&#x201d;" horiz-adv-x="615" 
d="M100 700l-50 -270h140l105 270h-195zM350 700l-50 -270h140l105 270h-195z" />
    <glyph glyph-name="quotedblbase" unicode="&#x201e;" horiz-adv-x="615" 
d="M100 80l-50 -270h140l105 270h-195zM350 80l-50 -270h140l105 270h-195z" />
    <glyph glyph-name="dagger" unicode="&#x2020;" horiz-adv-x="670" 
d="M90 540v-155h490v155h-490zM245 700v-850h180v850h-180z" />
    <glyph glyph-name="daggerdbl" unicode="&#x2021;" horiz-adv-x="670" 
d="M90 180v-155h490v155h-490zM90 540v-155h490v155h-490zM245 700v-850h180v850h-180z" />
    <glyph glyph-name="bullet" unicode="&#x2022;" horiz-adv-x="300" 
d="M50 460q0 -47 33 -81t85 -34q53 0 85.5 34t32.5 81t-32.5 81t-85.5 34q-52 0 -85 -34t-33 -81z" />
    <glyph glyph-name="ellipsis" unicode="&#x2026;" horiz-adv-x="940" 
d="M50 85q0 -47 33 -81t85 -34q53 0 85.5 34t32.5 81t-32.5 81t-85.5 34q-52 0 -85 -34t-33 -81zM350 85q0 -47 33 -81t85 -34q53 0 85.5 34t32.5 81t-32.5 81t-85.5 34q-52 0 -85 -34t-33 -81zM650 85q0 -47 33 -81t85 -34q53 0 85.5 34t32.5 81t-32.5 81t-85.5 34
q-52 0 -85 -34t-33 -81z" />
    <glyph glyph-name="perthousand" unicode="&#x2030;" horiz-adv-x="1521" 
d="M1090 176q0 -55 28 -100.5t75.5 -72.5t104.5 -27q58 0 105 27t75 72.5t28 100.5t-28 100.5t-75 72.5t-105 27q-57 0 -104.5 -27t-75.5 -72.5t-28 -100.5zM1247 176q0 14 7 25t18.5 17.5t25.5 6.5t25.5 -6.5t18.5 -17.5t7 -25q0 -13 -7 -24.5t-18.5 -18t-25.5 -6.5
t-25.5 6.5t-18.5 18t-7 24.5zM15 525q0 -55 28 -100.5t75.5 -72.5t104.5 -27q58 0 105 27t75 72.5t28 100.5t-28 100.5t-75 72.5t-105 27q-57 0 -104.5 -27t-75.5 -72.5t-28 -100.5zM172 525q0 14 7 25t18.5 17.5t25.5 6.5t25.5 -6.5t18.5 -17.5t7 -25q0 -13 -7 -24.5
t-18.5 -18t-25.5 -6.5t-25.5 6.5t-18.5 18t-7 24.5zM590 176q0 -55 28 -100.5t75.5 -72.5t104.5 -27q58 0 105 27t75 72.5t28 100.5t-28 100.5t-75 72.5t-105 27q-57 0 -104.5 -27t-75.5 -72.5t-28 -100.5zM747 176q0 14 7 25t18.5 17.5t25.5 6.5t25.5 -6.5t18.5 -17.5
t7 -25q0 -13 -7 -24.5t-18.5 -18t-25.5 -6.5t-25.5 6.5t-18.5 18t-7 24.5zM703 700l-590 -700h205l590 700h-205z" />
    <glyph glyph-name="uni2031" unicode="&#x2031;" horiz-adv-x="2021" 
d="M1590 176q0 -55 28 -100.5t75.5 -72.5t104.5 -27q58 0 105 27t75 72.5t28 100.5t-28 100.5t-75 72.5t-105 27q-57 0 -104.5 -27t-75.5 -72.5t-28 -100.5zM1747 176q0 14 7 25t18.5 17.5t25.5 6.5t25.5 -6.5t18.5 -17.5t7 -25q0 -13 -7 -24.5t-18.5 -18t-25.5 -6.5
t-25.5 6.5t-18.5 18t-7 24.5zM1090 176q0 -55 28 -100.5t75.5 -72.5t104.5 -27q58 0 105 27t75 72.5t28 100.5t-28 100.5t-75 72.5t-105 27q-57 0 -104.5 -27t-75.5 -72.5t-28 -100.5zM1247 176q0 14 7 25t18.5 17.5t25.5 6.5t25.5 -6.5t18.5 -17.5t7 -25q0 -13 -7 -24.5
t-18.5 -18t-25.5 -6.5t-25.5 6.5t-18.5 18t-7 24.5zM15 525q0 -55 28 -100.5t75.5 -72.5t104.5 -27q58 0 105 27t75 72.5t28 100.5t-28 100.5t-75 72.5t-105 27q-57 0 -104.5 -27t-75.5 -72.5t-28 -100.5zM172 525q0 14 7 25t18.5 17.5t25.5 6.5t25.5 -6.5t18.5 -17.5t7 -25
q0 -13 -7 -24.5t-18.5 -18t-25.5 -6.5t-25.5 6.5t-18.5 18t-7 24.5zM590 176q0 -55 28 -100.5t75.5 -72.5t104.5 -27q58 0 105 27t75 72.5t28 100.5t-28 100.5t-75 72.5t-105 27q-57 0 -104.5 -27t-75.5 -72.5t-28 -100.5zM747 176q0 14 7 25t18.5 17.5t25.5 6.5t25.5 -6.5
t18.5 -17.5t7 -25q0 -13 -7 -24.5t-18.5 -18t-25.5 -6.5t-25.5 6.5t-18.5 18t-7 24.5zM703 700l-590 -700h205l590 700h-205z" />
    <glyph glyph-name="guilsinglleft" unicode="&#x2039;" horiz-adv-x="350" 
d="M160 259l150 186l-120 75l-170 -265l170 -265l120 75z" />
    <glyph glyph-name="guilsinglright" unicode="&#x203a;" horiz-adv-x="350" 
d="M190 251l-150 -186l120 -75l170 265l-170 265l-120 -75z" />
    <glyph glyph-name="uni203D" unicode="&#x203d;" horiz-adv-x="669" 
d="M445 470q0 -38 -22 -65t-54.5 -41t-62.5 -14v-80q35 0 76.5 8t83 24.5t76.5 43.5t56 65t21 89q0 56 -24.5 98t-65 69.5t-90 41.5t-100.5 14q-64 0 -124 -19.5t-106 -50.5t-69 -66l125 -111q16 35 41 54.5t55 27t58 7.5q38 0 66 -10t44 -31t16 -54zM225 500l32 -280h108
l32 280h-172zM200 75q0 -45 34 -75t86 -30q53 0 86.5 30t33.5 75t-33.5 75t-86.5 30q-52 0 -86 -30t-34 -75z" />
    <glyph glyph-name="fraction" unicode="&#x2044;" horiz-adv-x="745" 
d="M580 700l-520 -700h155l520 700h-155z" />
    <glyph glyph-name="uni2070" unicode="&#x2070;" horiz-adv-x="402" 
d="M141 490q0 34 7.5 58t21.5 37t31 13q18 0 31.5 -13t21 -37t7.5 -58t-7.5 -58t-21 -37t-31.5 -13q-17 0 -31 13t-21.5 37t-7.5 58zM15 490q0 -71 23.5 -120t65.5 -74t97 -25q58 0 99.5 25t64 74t22.5 120q0 72 -22.5 120.5t-64 73.5t-99.5 25q-55 0 -97 -25t-65.5 -73.5
t-23.5 -120.5z" />
    <glyph glyph-name="uni2074" unicode="&#x2074;" horiz-adv-x="451" 
d="M7 349h425v111h-119l-10 -21h-188zM139 397l107 136v-156l-18 -6v-91h138v420h-108l-251 -351z" />
    <glyph glyph-name="uni2075" unicode="&#x2075;" horiz-adv-x="406" 
d="M382 410q0 45 -19 75t-48.5 45t-61.5 15q-35 0 -64 -8t-55 -35l-95 -58q32 12 67.5 16t56.5 4q25 0 49.5 -6.5t24.5 -29.5t-20 -31t-54 -8q-16 0 -45 6.5t-61 24.5l-37 -117q35 -13 78 -23.5t101 -10.5q41 0 83 14t71 45.5t29 81.5zM195 584h174v114h-270l-60 -254
l119 48z" />
    <glyph glyph-name="uni2076" unicode="&#x2076;" horiz-adv-x="406" 
d="M145 431q0 17 7.5 29.5t20.5 19t29 6.5t28.5 -6.5t20 -19t7.5 -29.5q0 -25 -16 -39.5t-40 -14.5t-40.5 14.5t-16.5 39.5zM185 695l-109 -129q-25 -31 -43.5 -63.5t-18.5 -71.5q0 -56 26 -93t68.5 -54.5t93.5 -17.5t94 17.5t68.5 54.5t25.5 93q0 45 -21 75.5t-52 46
t-61 15.5q-24 0 -38.5 -5.5t-34.5 -22.5l31 16l138 139h-167z" />
    <glyph glyph-name="uni2077" unicode="&#x2077;" horiz-adv-x="394" 
d="M19 577h179l-154 -297h143l204 420h-372v-123z" />
    <glyph glyph-name="uni2078" unicode="&#x2078;" horiz-adv-x="386" 
d="M33 599q0 -41 25 -67.5t62 -38.5t71 -12q35 0 71.5 12t61.5 38.5t25 67.5q0 39 -22 64t-58 37t-78 12t-78 -12t-58 -37t-22 -64zM157 587q0 17 9 26t25 9t25 -9t9 -26q0 -11 -4 -19.5t-11.5 -13t-18.5 -4.5q-10 0 -18 4.5t-12 13t-4 19.5zM18 394q0 -41 25 -69.5
t65 -42.5t83 -14q44 0 83.5 14t64.5 42.5t25 69.5q0 36 -17 60t-43.5 38.5t-56.5 21t-56 6.5t-56 -6.5t-56.5 -21t-43.5 -38.5t-17 -60zM151 415q0 11 5 20t14 14t21 5t21 -5t14 -14t5 -20q0 -21 -11 -31.5t-29 -10.5t-29 10.5t-11 31.5z" />
    <glyph glyph-name="uni2079" unicode="&#x2079;" horiz-adv-x="401" 
d="M256 549q0 -17 -7.5 -29.5t-20 -19t-28.5 -6.5t-29 6.5t-20.5 19t-7.5 29.5q0 26 16.5 40t40.5 14t40 -14t16 -40zM217 285l108 129q26 31 44.5 63.5t18.5 71.5q0 57 -25.5 93.5t-68.5 54t-94 17.5t-93.5 -17.5t-68.5 -54t-26 -93.5q0 -44 21 -75t52 -46.5t60 -15.5
q24 0 39.5 5.5t34.5 22.5l-31 -16l-139 -139h168z" />
    <glyph glyph-name="uni2080" unicode="&#x2080;" horiz-adv-x="402" 
d="M141 210q0 34 7.5 58t21.5 37t31 13q18 0 31.5 -13t21 -37t7.5 -58t-7.5 -58t-21 -37t-31.5 -13q-17 0 -31 13t-21.5 37t-7.5 58zM15 210q0 -71 23.5 -120t65.5 -74t97 -25q58 0 99.5 25t64 74t22.5 120q0 72 -22.5 120.5t-64 73.5t-99.5 25q-55 0 -97 -25t-65.5 -73.5
t-23.5 -120.5z" />
    <glyph glyph-name="uni2081" unicode="&#x2081;" horiz-adv-x="389" 
d="M90 276l111 25v-300h126v429l-237 -44v-110z" />
    <glyph glyph-name="uni2082" unicode="&#x2082;" horiz-adv-x="450" 
d="M30 2h392v120h-154l76 58q29 22 46 49.5t17 61.5q0 36 -20.5 68t-59.5 52.5t-95 20.5q-61 0 -102 -24.5t-61.5 -63.5t-20.5 -84h129q0 26 14 43.5t36 17.5q16 0 25.5 -5.5t14 -14.5t4.5 -20q0 -25 -16 -45.5t-44 -50.5z" />
    <glyph glyph-name="uni2083" unicode="&#x2083;" horiz-adv-x="408" 
d="M169 201q56 0 102 10.5t73.5 34.5t27.5 64q0 51 -43 85t-124 34q-76 0 -121.5 -41.5t-45.5 -101.5h121q0 19 12.5 30t32.5 11t29 -7t9 -19t-9.5 -23t-26 -17.5t-37.5 -6.5v-53zM199 -12q90 0 137.5 37t47.5 92q0 43 -27 70t-75 39.5t-113 12.5v-62q33 0 51.5 -7t26 -17.5
t7.5 -23.5q0 -23 -14.5 -31t-34.5 -8t-37.5 12.5t-17.5 44.5h-130q0 -40 21 -76.5t61 -59.5t97 -23z" />
    <glyph glyph-name="uni2084" unicode="&#x2084;" horiz-adv-x="459" 
d="M5 69h425v111h-119l-10 -21h-188zM137 117l107 136v-156l-18 -6v-91h138v420h-108l-251 -351z" />
    <glyph glyph-name="uni2085" unicode="&#x2085;" horiz-adv-x="420" 
d="M387 130q0 45 -19 75t-48.5 45t-61.5 15q-35 0 -64 -8t-55 -35l-95 -58q32 12 67.5 16t56.5 4q25 0 49.5 -6.5t24.5 -29.5t-20 -31t-54 -8q-16 0 -45 6.5t-61 24.5l-37 -117q35 -13 78 -23.5t101 -10.5q41 0 83 14t71 45.5t29 81.5zM200 304h174v114h-270l-60 -254
l119 48z" />
    <glyph glyph-name="uni2086" unicode="&#x2086;" horiz-adv-x="424" 
d="M151 151q0 17 7.5 29.5t20.5 19t29 6.5t28.5 -6.5t20 -19t7.5 -29.5q0 -25 -16 -39.5t-40 -14.5t-40.5 14.5t-16.5 39.5zM191 415l-109 -129q-25 -31 -43.5 -63.5t-18.5 -71.5q0 -56 26 -93t68.5 -54.5t93.5 -17.5t94 17.5t68.5 54.5t25.5 93q0 45 -21 75.5t-52 46
t-61 15.5q-24 0 -38.5 -5.5t-34.5 -22.5l31 16l138 139h-167z" />
    <glyph glyph-name="uni2087" unicode="&#x2087;" horiz-adv-x="402" 
d="M25 297h179l-154 -297h143l204 420h-372v-123z" />
    <glyph glyph-name="uni2088" unicode="&#x2088;" horiz-adv-x="396" 
d="M40 319q0 -41 25 -67.5t62 -38.5t71 -12q35 0 71.5 12t61.5 38.5t25 67.5q0 39 -22 64t-58 37t-78 12t-78 -12t-58 -37t-22 -64zM164 307q0 17 9 26t25 9t25 -9t9 -26q0 -11 -4 -19.5t-11.5 -13t-18.5 -4.5q-10 0 -18 4.5t-12 13t-4 19.5zM25 114q0 -41 25 -69.5
t65 -42.5t83 -14q44 0 83.5 14t64.5 42.5t25 69.5q0 36 -17 60t-43.5 38.5t-56.5 21t-56 6.5t-56 -6.5t-56.5 -21t-43.5 -38.5t-17 -60zM158 135q0 11 5 20t14 14t21 5t21 -5t14 -14t5 -20q0 -21 -11 -31.5t-29 -10.5t-29 10.5t-11 31.5z" />
    <glyph glyph-name="uni2089" unicode="&#x2089;" horiz-adv-x="430" 
d="M269 269q0 -17 -7.5 -29.5t-20 -19t-28.5 -6.5t-29 6.5t-20.5 19t-7.5 29.5q0 26 16.5 40t40.5 14t40 -14t16 -40zM230 5l108 129q26 31 44.5 63.5t18.5 71.5q0 57 -25.5 93.5t-68.5 54t-94 17.5t-93.5 -17.5t-68.5 -54t-26 -93.5q0 -44 21 -75t52 -46.5t60 -15.5
q24 0 39.5 5.5t34.5 22.5l-31 -16l-139 -139h168z" />
    <glyph glyph-name="Euro" unicode="&#x20ac;" horiz-adv-x="700" 
d="M77 366h486v106h-486v-106zM55 228h492v106h-492v-106zM305 350q0 72 17.5 116t48 64t69.5 20q86 0 150 -62v197q-34 20 -71.5 30.5t-78.5 10.5q-76 0 -135.5 -29t-101 -80.5t-62.5 -120t-21 -146.5q0 -105 37.5 -190t109 -135t173.5 -50q41 0 78.5 11t71.5 30v196
q-64 -62 -150 -62q-39 0 -69.5 20t-48 64.5t-17.5 115.5z" />
    <glyph glyph-name="ruble" unicode="&#x20bd;" horiz-adv-x="748" 
d="M150 700v-700h220v700h-220zM292 525h133q28 0 46 -2.5t27.5 -11t9.5 -26.5t-9.5 -26.5t-27.5 -11t-46 -2.5h-133v-175h133q103 0 167.5 22.5t95 70.5t30.5 122q0 75 -30.5 122.5t-95 70t-167.5 22.5h-133v-175zM360 60h220v165h-220v-165zM30 280h220v165h-220v-165z
M30 60h220v165h-220v-165z" />
    <glyph glyph-name="trademark" unicode="&#x2122;" horiz-adv-x="795" 
d="M28 602h100v-252h110v252h100v98h-310v-98zM626 588l30 -238h117l-65 368zM398 718l-65 -368h117l30 238zM708 718l-155 -190l-155 190v-133l155 -203l155 203v133z" />
    <glyph glyph-name="uni2150" unicode="&#x2150;" horiz-adv-x="1002" 
d="M628 700l-520 -700h155l520 700h-155zM20 549l111 25v-300h126v429l-237 -44v-110zM613 297h179l-154 -297h143l204 420h-372v-123z" />
    <glyph glyph-name="uni2151" unicode="&#x2151;" horiz-adv-x="944" 
d="M618 700l-520 -700h155l520 700h-155zM20 549l111 25v-300h126v429l-237 -44v-110zM787 269q0 -17 -7.5 -29.5t-20 -19t-28.5 -6.5t-29 6.5t-20.5 19t-7.5 29.5q0 26 16.5 40t40.5 14t40 -14t16 -40zM748 5l108 129q26 31 44.5 63.5t18.5 71.5q0 57 -25.5 93.5t-68.5 54
t-94 17.5t-94 -17.5t-68.5 -54t-25.5 -93.5q0 -44 21 -75t52 -46.5t60 -15.5q24 0 39.5 5.5t34.5 22.5l-31 -16l-139 -139h168z" />
    <glyph glyph-name="uni2152" unicode="&#x2152;" horiz-adv-x="1290" 
d="M618 700l-520 -700h155l520 700h-155zM20 549l111 25v-300h126v429l-237 -44v-110zM588 276l111 25v-300h126v429l-237 -44v-110zM1009 210q0 34 7.5 58t21.5 37t31 13q18 0 31.5 -13t21 -37t7.5 -58t-7.5 -58t-21 -37t-31.5 -13q-17 0 -31 13t-21.5 37t-7.5 58zM883 210
q0 -71 23.5 -120t65.5 -74t97 -25q58 0 99.5 25t64 74t22.5 120q0 72 -22.5 120.5t-64 73.5t-99.5 25q-55 0 -97 -25t-65.5 -73.5t-23.5 -120.5z" />
    <glyph glyph-name="onethird" unicode="&#x2153;" horiz-adv-x="945" 
d="M617 700l-520 -700h155l520 700h-155zM20 549l111 25v-300h126v429l-237 -44v-110zM707 201q56 0 102 10.5t73.5 34.5t27.5 64q0 51 -43 85t-124 34q-76 0 -121.5 -41.5t-45.5 -101.5h121q0 19 12.5 30t32.5 11t29 -7t9 -19t-9.5 -23t-26 -17.5t-37.5 -6.5v-53zM737 -12
q90 0 137.5 37t47.5 92q0 43 -27 70t-75 39.5t-113 12.5v-62q33 0 51.5 -7t26 -17.5t7.5 -23.5q0 -23 -14.5 -31t-34.5 -8t-37.5 12.5t-17.5 44.5h-130q0 -40 21 -76.5t61 -59.5t97 -23z" />
    <glyph glyph-name="twothirds" unicode="&#x2154;" horiz-adv-x="1082" 
d="M775 700l-520 -700h155l520 700h-155zM30 282h392v120h-154l76 58q29 22 46 49.5t17 61.5q0 36 -20.5 68t-59.5 52.5t-95 20.5q-61 0 -102 -24.5t-61.5 -63.5t-20.5 -84h129q0 26 14 43.5t36 17.5q16 0 25.5 -5.5t14 -14.5t4.5 -20q0 -25 -16 -45.5t-44 -50.5zM844 201
q56 0 102 10.5t73.5 34.5t27.5 64q0 51 -43 85t-124 34q-76 0 -121.5 -41.5t-45.5 -101.5h121q0 19 12.5 30t32.5 11t29 -7t9 -19t-9.5 -23t-26 -17.5t-37.5 -6.5v-53zM874 -12q90 0 137.5 37t47.5 92q0 43 -27 70t-75 39.5t-113 12.5v-62q33 0 51.5 -7t26 -17.5t7.5 -23.5
q0 -23 -14.5 -31t-34.5 -8t-37.5 12.5t-17.5 44.5h-130q0 -40 21 -76.5t61 -59.5t97 -23z" />
    <glyph glyph-name="uni2155" unicode="&#x2155;" horiz-adv-x="934" 
d="M618 700l-520 -700h155l520 700h-155zM20 549l111 25v-300h126v429l-237 -44v-110zM915 130q0 45 -19 75t-48.5 45t-61.5 15q-35 0 -64 -8t-55 -35l-95 -58q32 12 67.5 16t56.5 4q25 0 49.5 -6.5t24.5 -29.5t-20 -31t-54 -8q-16 0 -45 6.5t-61 24.5l-37 -117
q35 -13 78 -23.5t101 -10.5q41 0 83 14t71 45.5t29 81.5zM728 304h174v114h-270l-60 -254l119 48z" />
    <glyph glyph-name="uni2156" unicode="&#x2156;" horiz-adv-x="1086" 
d="M775 700l-520 -700h155l520 700h-155zM30 282h392v120h-154l76 58q29 22 46 49.5t17 61.5q0 36 -20.5 68t-59.5 52.5t-95 20.5q-61 0 -102 -24.5t-61.5 -63.5t-20.5 -84h129q0 26 14 43.5t36 17.5q16 0 25.5 -5.5t14 -14.5t4.5 -20q0 -25 -16 -45.5t-44 -50.5zM1052 130
q0 45 -19 75t-48.5 45t-61.5 15q-35 0 -64 -8t-55 -35l-95 -58q32 12 67.5 16t56.5 4q25 0 49.5 -6.5t24.5 -29.5t-20 -31t-54 -8q-16 0 -45 6.5t-61 24.5l-37 -117q35 -13 78 -23.5t101 -10.5q41 0 83 14t71 45.5t29 81.5zM865 304h174v114h-270l-60 -254l119 48z" />
    <glyph glyph-name="uni2157" unicode="&#x2157;" horiz-adv-x="991" 
d="M685 700l-520 -700h155l520 700h-155zM167 481q56 0 102 10.5t73.5 34.5t27.5 64q0 51 -43 85t-124 34q-76 0 -121.5 -41.5t-45.5 -101.5h121q0 19 12.5 30t32.5 11t29 -7t9 -19t-9.5 -23t-26 -17.5t-37.5 -6.5v-53zM197 268q90 0 137.5 37t47.5 92q0 43 -27 70t-75 39.5
t-113 12.5v-62q33 0 51.5 -7t26 -17.5t7.5 -23.5q0 -23 -14.5 -31t-34.5 -8t-37.5 12.5t-17.5 44.5h-130q0 -40 21 -76.5t61 -59.5t97 -23zM952 130q0 45 -19 75t-48.5 45t-61.5 15q-35 0 -64 -8t-55 -35l-95 -58q32 12 67.5 16t56.5 4q25 0 49.5 -6.5t24.5 -29.5t-20 -31
t-54 -8q-16 0 -45 6.5t-61 24.5l-37 -117q35 -13 78 -23.5t101 -10.5q41 0 83 14t71 45.5t29 81.5zM765 304h174v114h-270l-60 -254l119 48z" />
    <glyph glyph-name="uni2158" unicode="&#x2158;" horiz-adv-x="1106" 
d="M760 699l-520 -700h155l520 700h-155zM17 349h425v111h-119l-10 -21h-188zM149 397l107 136v-156l-18 -6v-91h138v420h-108l-251 -351zM1077 129q0 45 -19 75t-48.5 45t-61.5 15q-35 0 -64 -8t-55 -35l-95 -58q32 12 67.5 16t56.5 4q25 0 49.5 -6.5t24.5 -29.5t-20 -31
t-54 -8q-16 0 -45 6.5t-61 24.5l-37 -117q35 -13 78 -23.5t101 -10.5q41 0 83 14t71 45.5t29 81.5zM890 303h174v114h-270l-60 -254l119 48z" />
    <glyph glyph-name="uni2159" unicode="&#x2159;" horiz-adv-x="954" 
d="M648 700l-520 -700h155l520 700h-155zM20 549l111 25v-300h126v429l-237 -44v-110zM679 151q0 17 7.5 29.5t20.5 19t29 6.5t28.5 -6.5t20 -19t7.5 -29.5q0 -25 -16 -39.5t-40 -14.5t-40.5 14.5t-16.5 39.5zM719 415l-109 -129q-25 -31 -43.5 -63.5t-18.5 -71.5
q0 -56 25.5 -93t68.5 -54.5t94 -17.5t94 17.5t68.5 54.5t25.5 93q0 45 -21 75.5t-52 46t-61 15.5q-24 0 -38.5 -5.5t-34.5 -22.5l31 16l138 139h-167z" />
    <glyph glyph-name="uni215A" unicode="&#x215a;" horiz-adv-x="976" 
d="M700 700l-520 -700h155l520 700h-155zM392 410q0 45 -19 75t-48.5 45t-61.5 15q-35 0 -64 -8t-55 -35l-95 -58q32 12 67.5 16t56.5 4q25 0 49.5 -6.5t24.5 -29.5t-20 -31t-54 -8q-16 0 -45 6.5t-61 24.5l-37 -117q35 -13 78 -23.5t101 -10.5q41 0 83 14t71 45.5t29 81.5z
M205 584h174v114h-270l-60 -254l119 48zM701 151q0 17 7.5 29.5t20.5 19t29 6.5t28.5 -6.5t20 -19t7.5 -29.5q0 -25 -16 -39.5t-40 -14.5t-40.5 14.5t-16.5 39.5zM741 415l-109 -129q-25 -31 -43.5 -63.5t-18.5 -71.5q0 -56 25.5 -93t68.5 -54.5t94 -17.5t94 17.5t68.5 54.5
t25.5 93q0 45 -21 75.5t-52 46t-61 15.5q-24 0 -38.5 -5.5t-34.5 -22.5l31 16l138 139h-167z" />
    <glyph glyph-name="oneeighth" unicode="&#x215b;" horiz-adv-x="970" 
d="M648 700l-520 -700h155l520 700h-155zM20 549l111 25v-300h126v429l-237 -44v-110zM608 319q0 -41 25 -67.5t62 -38.5t71 -12q35 0 71.5 12t61.5 38.5t25 67.5q0 39 -22 64t-58 37t-78 12t-78 -12t-58 -37t-22 -64zM732 307q0 17 9 26t25 9t25 -9t9 -26q0 -11 -4 -19.5
t-11.5 -13t-18.5 -4.5q-10 0 -18 4.5t-12 13t-4 19.5zM593 114q0 -41 25 -69.5t65 -42.5t83 -14q44 0 83.5 14t64.5 42.5t25 69.5q0 36 -17 60t-43.5 38.5t-56.5 21t-56 6.5t-56 -6.5t-56.5 -21t-43.5 -38.5t-17 -60zM726 135q0 11 5 20t14 14t21 5t21 -5t14 -14t5 -20
q0 -21 -11 -31.5t-29 -10.5t-29 10.5t-11 31.5z" />
    <glyph glyph-name="threeeighths" unicode="&#x215c;" horiz-adv-x="1017" 
d="M695 700l-520 -700h155l520 700h-155zM167 481q56 0 102 10.5t73.5 34.5t27.5 64q0 51 -43 85t-124 34q-76 0 -121.5 -41.5t-45.5 -101.5h121q0 19 12.5 30t32.5 11t29 -7t9 -19t-9.5 -23t-26 -17.5t-37.5 -6.5v-53zM197 268q90 0 137.5 37t47.5 92q0 43 -27 70t-75 39.5
t-113 12.5v-62q33 0 51.5 -7t26 -17.5t7.5 -23.5q0 -23 -14.5 -31t-34.5 -8t-37.5 12.5t-17.5 44.5h-130q0 -40 21 -76.5t61 -59.5t97 -23zM655 319q0 -41 25 -67.5t62 -38.5t71 -12q35 0 71.5 12t61.5 38.5t25 67.5q0 39 -22 64t-58 37t-78 12t-78 -12t-58 -37t-22 -64z
M779 307q0 17 9 26t25 9t25 -9t9 -26q0 -11 -4 -19.5t-11.5 -13t-18.5 -4.5q-10 0 -18 4.5t-12 13t-4 19.5zM640 114q0 -41 25 -69.5t65 -42.5t83 -14q44 0 83.5 14t64.5 42.5t25 69.5q0 36 -17 60t-43.5 38.5t-56.5 21t-56 6.5t-56 -6.5t-56.5 -21t-43.5 -38.5t-17 -60z
M773 135q0 11 5 20t14 14t21 5t21 -5t14 -14t5 -20q0 -21 -11 -31.5t-29 -10.5t-29 10.5t-11 31.5z" />
    <glyph glyph-name="fiveeighths" unicode="&#x215d;" horiz-adv-x="1022" 
d="M700 700l-520 -700h155l520 700h-155zM382 410q0 45 -19 75t-48.5 45t-61.5 15q-35 0 -64 -8t-55 -35l-95 -58q32 12 67.5 16t56.5 4q25 0 49.5 -6.5t24.5 -29.5t-20 -31t-54 -8q-16 0 -45 6.5t-61 24.5l-37 -117q35 -13 78 -23.5t101 -10.5q41 0 83 14t71 45.5t29 81.5z
M195 584h174v114h-270l-60 -254l119 48zM660 319q0 -41 25 -67.5t62 -38.5t71 -12q35 0 71.5 12t61.5 38.5t25 67.5q0 39 -22 64t-58 37t-78 12t-78 -12t-58 -37t-22 -64zM784 307q0 17 9 26t25 9t25 -9t9 -26q0 -11 -4 -19.5t-11.5 -13t-18.5 -4.5q-10 0 -18 4.5t-12 13
t-4 19.5zM645 114q0 -41 25 -69.5t65 -42.5t83 -14q44 0 83.5 14t64.5 42.5t25 69.5q0 36 -17 60t-43.5 38.5t-56.5 21t-56 6.5t-56 -6.5t-56.5 -21t-43.5 -38.5t-17 -60zM778 135q0 11 5 20t14 14t21 5t21 -5t14 -14t5 -20q0 -21 -11 -31.5t-29 -10.5t-29 10.5t-11 31.5z
" />
    <glyph glyph-name="seveneighths" unicode="&#x215e;" horiz-adv-x="912" 
d="M580 700l-520 -700h155l520 700h-155zM19 577h179l-154 -297h143l204 420h-372v-123zM550 319q0 -41 25 -67.5t62 -38.5t71 -12q35 0 71.5 12t61.5 38.5t25 67.5q0 39 -22 64t-58 37t-78 12t-78 -12t-58 -37t-22 -64zM674 307q0 17 9 26t25 9t25 -9t9 -26q0 -11 -4 -19.5
t-11.5 -13t-18.5 -4.5q-10 0 -18 4.5t-12 13t-4 19.5zM535 114q0 -41 25 -69.5t65 -42.5t83 -14q44 0 83.5 14t64.5 42.5t25 69.5q0 36 -17 60t-43.5 38.5t-56.5 21t-56 6.5t-56 -6.5t-56.5 -21t-43.5 -38.5t-17 -60zM668 135q0 11 5 20t14 14t21 5t21 -5t14 -14t5 -20
q0 -21 -11 -31.5t-29 -10.5t-29 10.5t-11 31.5z" />
    <glyph glyph-name="partialdiff" unicode="&#x2202;" horiz-adv-x="657" 
d="M324 -20q81 0 145.5 36t101.5 98.5t37 140.5q0 46 -14.5 96t-42 102.5t-69 107t-95 110.5t-118.5 111l-151 -87q56 -37 105.5 -79t93 -89t81 -98.5t68.5 -108.5l41 -2q-93 165 -244 165q-64 0 -112 -28t-74.5 -79.5t-26.5 -120.5q0 -80 35 -142.5t97 -97.5t142 -35z
M328 145q-23 0 -40.5 11t-27 30t-9.5 44t10 44.5t27.5 30.5t39.5 11q23 0 40 -11t27 -30.5t10 -44.5t-9.5 -44t-27 -30t-40.5 -11z" />
    <glyph glyph-name="emptyset" unicode="&#x2205;" horiz-adv-x="600" 
d="M298 18q62 0 113 30.5t81.5 81.5t30.5 113t-30.5 113t-81.5 81.5t-113 30.5t-113 -30.5t-81 -81.5t-30 -113t30 -113t81 -81.5t113 -30.5zM298 140q-28 0 -51.5 14t-37 37.5t-13.5 51.5q0 29 13.5 52t37 37t51.5 14q29 0 52.5 -14t37.5 -37t14 -52q0 -27 -14 -50.5
t-37.5 -38t-52.5 -14.5zM134 18l390 388l-62 62l-390 -388z" />
    <glyph glyph-name="product" unicode="&#x220f;" horiz-adv-x="600" 
d="M108 0h151v554h82v-554h151v554h71v146h-526v-146h71v-554z" />
    <glyph glyph-name="summation" unicode="&#x2211;" horiz-adv-x="600" 
d="M100 0h400v156h-144l94 196l-94 192h144v156h-400l170 -348z" />
    <glyph glyph-name="minus" unicode="&#x2212;" horiz-adv-x="595" 
d="M50 155h495v165h-495v-165z" />
    <glyph glyph-name="uni2215" unicode="&#x2215;" horiz-adv-x="665" 
d="M465 700l-450 -850h195l440 850h-185z" />
    <glyph glyph-name="uni2219" unicode="&#x2219;" horiz-adv-x="336" 
d="M50 460q0 -47 33 -81t85 -34q53 0 85.5 34t32.5 81t-32.5 81t-85.5 34q-52 0 -85 -34t-33 -81z" />
    <glyph glyph-name="radical" unicode="&#x221a;" horiz-adv-x="600" 
d="M246 -194l-148 398l86 -39l-130 -41l-44 130l172 64l101 -286l-75 54l150 614h179v-149h-162l103 107z" />
    <glyph glyph-name="infinity" unicode="&#x221e;" horiz-adv-x="840" 
d="M220 18q98 0 200 120q51 -60 100 -90t100 -30q53 0 98 29.5t72.5 77.5t27.5 105t-27.5 105t-72.5 77.5t-98 29.5q-99 0 -200 -121q-102 121 -200 121q-53 0 -98 -29.5t-72.5 -77.5t-27.5 -105t27.5 -105t72.5 -77.5t98 -29.5zM246 155q-18 0 -34 10.5t-26 28t-10 36.5
q0 20 10 36.5t26 27t34 10.5q24 0 48 -19t46 -55q-22 -36 -46 -55.5t-48 -19.5zM595 155q-24 0 -48 19.5t-47 55.5q23 36 47 55t48 19q18 0 34 -10t25.5 -27t9.5 -37q0 -19 -9.5 -36.5t-25.5 -28t-34 -10.5z" />
    <glyph glyph-name="integral" unicode="&#x222b;" horiz-adv-x="600" 
d="M186 -200q54 0 96.5 21t67.5 59t27 88l33 606q2 26 13.5 41.5t30.5 15.5q11 0 22.5 -5.5t24.5 -19.5l67 134q-44 32 -78.5 45.5t-72.5 13.5q-79 1 -132 -45t-59 -123l-32 -606q-1 -25 -14 -41t-32 -16q-10 0 -21 6t-25 19l-68 -134q44 -31 79 -45t73 -14z" />
    <glyph glyph-name="approxequal" unicode="&#x2248;" horiz-adv-x="600" 
d="M414 292q-32 0 -66.5 13t-73.5 38q-30 20 -53 30t-38 10q-24 0 -28.5 -18.5t10.5 -58.5l-147 5q-15 51 4 95.5t61.5 72.5t100.5 28q31 0 61.5 -11t74.5 -38q32 -19 51 -27.5t29 -8.5q18 0 20.5 18.5t-11.5 52.5l147 -5q13 -53 -2.5 -97.5t-52 -71.5t-87.5 -27zM414 42
q-32 0 -66.5 13t-73.5 38q-30 20 -53 30t-38 10q-24 0 -28.5 -18.5t10.5 -58.5l-147 5q-15 51 4 95.5t61.5 72.5t100.5 28q31 0 61.5 -11t74.5 -38q32 -19 51 -27.5t29 -8.5q18 0 20.5 18.5t-11.5 52.5l147 -5q13 -53 -2.5 -97.5t-52 -71.5t-87.5 -27z" />
    <glyph glyph-name="notequal" unicode="&#x2260;" horiz-adv-x="600" 
d="M278 -26l-155 56l232 551l155 -57zM50 80v165h533v-165h-533zM50 320v165h533v-165h-533z" />
    <glyph glyph-name="lessequal" unicode="&#x2264;" horiz-adv-x="600" 
d="M65 10v160h515v-160h-515zM575 190l-510 210v135l510 210v-190l-244 -84l244 -91v-190z" />
    <glyph glyph-name="greaterequal" unicode="&#x2265;" horiz-adv-x="600" 
d="M65 10v160h515v-160h-515zM65 190v190l244 84l-244 91v190l510 -210v-135z" />
    <glyph glyph-name="lozenge" unicode="&#x25ca;" horiz-adv-x="600" 
d="M306 15l-206 341l206 340l194 -340zM301 283l42 73l-42 72l-44 -72z" />
    <glyph glyph-name="uniFF10" unicode="&#xff10;" horiz-adv-x="660" 
d="M229 350q0 42 7.5 75.5t21 57t31.5 35.5t40 12t40 -12t31.5 -35.5t21 -57t7.5 -75.5t-7.5 -75.5t-21 -57t-31.5 -35.5t-40 -12t-40 12t-31.5 35.5t-21 57t-7.5 75.5zM19 350q0 -120 39 -201t109 -122.5t162 -41.5q97 0 166.5 41.5t106.5 122.5t37 201t-37 201
t-106.5 122.5t-166.5 41.5q-92 0 -162 -41.5t-109 -122.5t-39 -201z" />
    <glyph glyph-name="uniFF11" unicode="&#xff11;" horiz-adv-x="660" 
d="M105 459l185 41v-500h210v715l-395 -73v-183z" />
    <glyph glyph-name="uniFF12" unicode="&#xff12;" horiz-adv-x="660" 
d="M5 0h654v200h-257l126 97q48 37 77 81.5t29 102.5q0 45 -19.5 87t-57 75.5t-92 53t-123.5 19.5q-102 0 -170.5 -40.5t-102.5 -105.5t-34 -140h215q0 28 10.5 51t29.5 36.5t44 13.5q19 0 32.5 -5.5t22.5 -14.5t13 -21t4 -25q0 -27 -12 -51t-34.5 -49.5t-53.5 -59.5z" />
    <glyph glyph-name="uniFF13" unicode="&#xff13;" horiz-adv-x="660" 
d="M275 335q93 0 169.5 17.5t122.5 57t46 106.5q0 57 -32 102t-94 71t-152 26q-85 0 -147.5 -32t-96.5 -86t-34 -121h201q0 31 21 50t55 19q22 0 35.5 -5.5t20.5 -15.5t7 -23q0 -15 -9 -29t-25.5 -25t-39 -17t-48.5 -6v-89zM325 -20q100 0 168.5 28t104 76.5t35.5 110.5
q0 54 -25.5 92.5t-73 63.5t-113 36.5t-146.5 11.5v-104q41 0 68.5 -6.5t43.5 -18t23 -26t7 -29.5q0 -25 -11 -39.5t-29.5 -20t-41.5 -5.5q-22 0 -43.5 9t-35 30t-13.5 56h-216q0 -50 20 -97.5t58 -85.5t93.5 -60t126.5 -22z" />
    <glyph glyph-name="uniFF14" unicode="&#xff14;" horiz-adv-x="660" 
d="M8 115h638v185h-178l-17 -35h-263zM208 195l148 226v-259l-30 -11v-151h230v700h-180l-368 -585z" />
    <glyph glyph-name="uniFF15" unicode="&#xff15;" horiz-adv-x="660" 
d="M626 220q0 75 -32 125t-81 75t-102 25q-59 0 -108 -13.5t-91 -58.5l-159 -96q36 14 75 21t74.5 9.5t58.5 2.5q28 0 56 -4.5t47 -17t19 -38.5q0 -25 -15 -39.5t-42 -20t-65 -5.5q-18 0 -46 4.5t-61.5 15.5t-69.5 31l-62 -194q38 -15 82.5 -28t98.5 -21t118 -8
q51 0 104.5 13t99 41t73.5 73t28 108zM313 510h291v190h-450l-101 -423l199 80z" />
    <glyph glyph-name="uniFF16" unicode="&#xff16;" horiz-adv-x="660" 
d="M235 255q0 28 12.5 48.5t34 32t47.5 11.5q27 0 48 -11.5t33.5 -32t12.5 -48.5t-12.5 -48t-33.5 -31t-48 -11q-26 0 -47.5 11t-34 31t-12.5 48zM301 695l-181 -215q-43 -51 -73.5 -105.5t-30.5 -119.5q0 -94 43 -155t114 -90.5t156 -29.5t156 29.5t114 90.5t43 155
q0 56 -20.5 98.5t-53.5 71.5t-72 43.5t-76 14.5q-40 0 -65 -8.5t-58 -37.5l52 27l231 231h-279z" />
    <glyph glyph-name="uniFF17" unicode="&#xff17;" horiz-adv-x="660" 
d="M27 495h299l-258 -495h239l340 700h-620v-205z" />
    <glyph glyph-name="uniFF18" unicode="&#xff18;" horiz-adv-x="660" 
d="M87 531q0 -52 24.5 -89.5t64 -61t85.5 -34.5t89 -11t89 11t85.5 34.5t64 61t24.5 89.5q0 65 -36.5 106.5t-96.5 62t-130 20.5t-130 -20.5t-96.5 -62t-36.5 -106.5zM293 511q0 18 7 31.5t20 20.5t30 7q18 0 30.5 -7t19.5 -20.5t7 -31.5t-7 -31.5t-19.5 -21.5t-30.5 -8
q-17 0 -30 8t-20 21.5t-7 31.5zM62 190q0 -52 24 -91.5t65.5 -65.5t93 -39.5t105.5 -13.5t105.5 13.5t93 39.5t65.5 65.5t24 91.5q0 60 -28 100t-72.5 64.5t-94.5 35t-93 10.5t-93 -10.5t-94.5 -35t-72.5 -64.5t-28 -100zM283 225q0 18 8.5 33t23.5 23.5t35 8.5t35 -8.5
t23.5 -23.5t8.5 -33q0 -23 -8.5 -38.5t-23.5 -23.5t-35 -8t-35 8t-23.5 23.5t-8.5 38.5z" />
    <glyph glyph-name="uniFF19" unicode="&#xff19;" horiz-adv-x="660" 
d="M423 445q0 -28 -12.5 -48.5t-33.5 -32t-48 -11.5q-26 0 -47.5 11.5t-34 32t-12.5 48.5t12.5 48t34 31t47.5 11q27 0 48 -11t33.5 -31t12.5 -48zM357 5l181 215q43 51 73.5 105.5t30.5 119.5q0 95 -43 155.5t-114 90t-156 29.5t-156 -29.5t-114 -90t-43 -155.5
q0 -56 20.5 -98.5t53.5 -71.5t72 -43.5t76 -14.5q40 0 65 9t58 37l-52 -27l-231 -231h279z" />
    <glyph glyph-name="a.alt" 
d="M400 460v-460h195v460h-195zM30 230q0 -79 31.5 -132.5t80.5 -80.5t101 -27q58 0 103.5 29t72.5 83t27 128q0 75 -27 128.5t-72.5 82.5t-103.5 29q-52 0 -101 -27t-80.5 -80t-31.5 -133zM236 230q0 26 11 46t30 32t41 12q20 0 39 -11t31 -31t12 -48t-12 -48t-31 -31
t-39 -11q-22 0 -41 12t-30 32.5t-11 45.5z" />
    <glyph glyph-name="agrave.alt" 
d="M400 460v-460h195v460h-195zM30 230q0 -79 31.5 -132.5t80.5 -80.5t101 -27q58 0 103.5 29t72.5 83t27 128q0 75 -27 128.5t-72.5 82.5t-103.5 29q-52 0 -101 -27t-80.5 -80t-31.5 -133zM236 230q0 26 11 46t30 32t41 12q20 0 39 -11t31 -31t12 -48t-12 -48t-31 -31
t-39 -11q-22 0 -41 12t-30 32.5t-11 45.5zM143 681l180 -150l110 50l-150 160z" />
    <glyph glyph-name="aacute.alt" 
d="M400 460v-460h195v460h-195zM30 230q0 -79 31.5 -132.5t80.5 -80.5t101 -27q58 0 103.5 29t72.5 83t27 128q0 75 -27 128.5t-72.5 82.5t-103.5 29q-52 0 -101 -27t-80.5 -80t-31.5 -133zM236 230q0 26 11 46t30 32t41 12q20 0 39 -11t31 -31t12 -48t-12 -48t-31 -31
t-39 -11q-22 0 -41 12t-30 32.5t-11 45.5zM483 681l-140 60l-150 -160l110 -50z" />
    <glyph glyph-name="acircumflex.alt" 
d="M400 460v-460h195v460h-195zM30 230q0 -79 31.5 -132.5t80.5 -80.5t101 -27q58 0 103.5 29t72.5 83t27 128q0 75 -27 128.5t-72.5 82.5t-103.5 29q-52 0 -101 -27t-80.5 -80t-31.5 -133zM236 230q0 26 11 46t30 32t41 12q20 0 39 -11t31 -31t12 -48t-12 -48t-31 -31
t-39 -11q-22 0 -41 12t-30 32.5t-11 45.5zM333 611l80 -80l140 90l-220 140l-220 -140l140 -90z" />
    <glyph glyph-name="atilde.alt" 
d="M400 460v-460h195v460h-195zM30 230q0 -79 31.5 -132.5t80.5 -80.5t101 -27q58 0 103.5 29t72.5 83t27 128q0 75 -27 128.5t-72.5 82.5t-103.5 29q-52 0 -101 -27t-80.5 -80t-31.5 -133zM236 230q0 26 11 46t30 32t41 12q20 0 39 -11t31 -31t12 -48t-12 -48t-31 -31
t-39 -11q-22 0 -41 12t-30 32.5t-11 45.5zM128 614l83 -77q0 8 3.5 20t13.5 21.5t28 9.5q26 0 50 -14.5t49 -28.5t52 -14q35 0 66.5 15.5t54 37.5t30.5 40l-86 93q-15 -24 -32 -40t-39 -16t-38 8.5t-30.5 19t-32.5 19t-43 8.5q-37 0 -64.5 -15.5t-43.5 -38.5t-21 -48z" />
    <glyph glyph-name="adieresis.alt" 
d="M400 460v-460h195v460h-195zM30 230q0 -79 31.5 -132.5t80.5 -80.5t101 -27q58 0 103.5 29t72.5 83t27 128q0 75 -27 128.5t-72.5 82.5t-103.5 29q-52 0 -101 -27t-80.5 -80t-31.5 -133zM236 230q0 26 11 46t30 32t41 12q20 0 39 -11t31 -31t12 -48t-12 -48t-31 -31
t-39 -11q-22 0 -41 12t-30 32.5t-11 45.5zM350 629q0 -44 31.5 -71t76.5 -27t76.5 27t31.5 71t-31.5 71t-76.5 27t-76.5 -27t-31.5 -71zM80 629q0 -44 31.5 -71t76.5 -27t76.5 27t31.5 71t-31.5 71t-76.5 27t-76.5 -27t-31.5 -71z" />
    <glyph glyph-name="aring.alt" 
d="M400 460v-460h195v460h-195zM30 230q0 -79 31.5 -132.5t80.5 -80.5t101 -27q58 0 103.5 29t72.5 83t27 128q0 75 -27 128.5t-72.5 82.5t-103.5 29q-52 0 -101 -27t-80.5 -80t-31.5 -133zM236 231q0 25 11 45t30 32t41 12q20 0 39 -11t31 -31t12 -48t-12 -48t-31 -31
t-39 -11q-22 0 -41 12t-30 32.5t-11 46.5zM184 656q0 -55 39 -90t99 -35t100 35t40 91q0 55 -40 89.5t-100 34.5t-99 -34.5t-39 -90.5zM279 656q0 21 12 33t31 12t31.5 -12t12.5 -33t-12.5 -32.5t-31.5 -11.5t-31 11.5t-12 32.5z" />
    <glyph glyph-name="amacron.alt" 
d="M400 460v-460h195v460h-195zM30 230q0 -79 31.5 -132.5t80.5 -80.5t101 -27q58 0 103.5 29t72.5 83t27 128q0 75 -27 128.5t-72.5 82.5t-103.5 29q-52 0 -101 -27t-80.5 -80t-31.5 -133zM236 230q0 26 11 46t30 32t41 12q20 0 39 -11t31 -31t12 -48t-12 -48t-31 -31
t-39 -11q-22 0 -41 12t-30 32.5t-11 45.5zM141 531h385v165h-385v-165z" />
    <glyph glyph-name="abreve.alt" 
d="M400 460v-460h195v460h-195zM30 230q0 -79 31.5 -132.5t80.5 -80.5t101 -27q58 0 103.5 29t72.5 83t27 128q0 75 -27 128.5t-72.5 82.5t-103.5 29q-52 0 -101 -27t-80.5 -80t-31.5 -133zM236 230q0 26 11 46t30 32t41 12q20 0 39 -11t31 -31t12 -48t-12 -48t-31 -31
t-39 -11q-22 0 -41 12t-30 32.5t-11 45.5zM155 681q0 -44 20 -78t58 -53t90 -19q53 0 90.5 19t57.5 53t20 78h-116q0 -20 -9 -31t-21 -15t-22 -4t-22 4t-21 15t-9 31h-116z" />
    <glyph glyph-name="aogonek.alt" 
d="M400 460v-460h195v460h-195zM30 230q0 -79 31.5 -132.5t80.5 -80.5t101 -27q58 0 103.5 29t72.5 83t27 128q0 75 -27 128.5t-72.5 82.5t-103.5 29q-52 0 -101 -27t-80.5 -80t-31.5 -133zM236 230q0 26 11 46t30 32t41 12q20 0 39 -11t31 -31t12 -48t-12 -48t-31 -31
t-39 -11q-22 0 -41 12t-30 32.5t-11 45.5zM550 -100q-10 -10 -24 -15t-26 -5q-15 0 -21.5 8.5t-6.5 21.5q0 14 7.5 28.5t23.5 30t42 31.5l-41 25q-35 -18 -67.5 -38.5t-53.5 -46t-21 -60.5q0 -34 17 -56.5t43 -33t53 -10.5q47 0 72 12.5t36 27.5z" />
    </font>
</defs>
</svg>
