<?xml version="1.0" standalone="no"?>
<!DOCTYPE svg PUBLIC "-//W3C//DTD SVG 1.1//EN" "http://www.w3.org/Graphics/SVG/1.1/DTD/svg11.dtd" >
<svg xmlns="http://www.w3.org/2000/svg" xmlns:xlink="http://www.w3.org/1999/xlink" version="1.1">
<metadata>
Created by FontForge 20201107 at Fri Sep 10 18:37:55 2021
 By 
Copyright 2020 The Jost Project Authors (https://github.com/indestructible-type/Jost)
</metadata>
<defs>
<font id="Jost-ExtraLight" horiz-adv-x="550" >
  <font-face 
    font-family="Jost ExtraLight"
    font-weight="250"
    font-stretch="normal"
    units-per-em="1000"
    panose-1="0 0 0 0 0 0 0 0 0 0"
    ascent="800"
    descent="-200"
    x-height="460"
    cap-height="700"
    bbox="-127 -332 1427 1012"
    underline-thickness="50"
    underline-position="-125"
    unicode-range="U+000D-FF19"
  />
<missing-glyph horiz-adv-x="500" 
 />
    <glyph glyph-name=".notdef" horiz-adv-x="500" 
 />
    <glyph glyph-name="uni0000" horiz-adv-x="300" 
 />
    <glyph glyph-name="uni0000" horiz-adv-x="300" 
 />
    <glyph glyph-name="uni000D" unicode="&#xd;" horiz-adv-x="300" 
 />
    <glyph glyph-name="space" unicode=" " horiz-adv-x="300" 
 />
    <glyph glyph-name="exclam" unicode="!" horiz-adv-x="273" 
d="M117 700l9 -500h21l9 500h-39zM113 12q0 -10 7 -16.5t17 -6.5t16.5 6.5t6.5 16.5q0 11 -6.5 17.5t-16.5 6.5t-17 -7t-7 -17z" />
    <glyph glyph-name="quotedbl" unicode="&#x22;" horiz-adv-x="421" 
d="M137 700l-50 -286h21l66 286h-37zM317 700l-50 -286h21l66 286h-37z" />
    <glyph glyph-name="numbersign" unicode="#" horiz-adv-x="581" 
d="M75 450h131h7h203h7h123v27h-471v-27zM35 228h471v27h-127h-10h-203h-8h-123v-27zM466 700l-57 -233l-2 -8l-51 -213l-3 -7l-57 -239h29l170 700h-29zM256 700l-170 -700h29l58 238l1 6l53 216l2 8l56 232h-29z" />
    <glyph glyph-name="dollar" unicode="$" horiz-adv-x="580" 
d="M251 818v-127h29v127h-29zM253 13v-125h28v125h-28zM432 538l28 15q-11 36 -35 72t-63.5 60t-96.5 24q-50 0 -91.5 -20.5t-66 -57t-24.5 -84.5q0 -42 17.5 -74t45.5 -55t60 -39t61 -26q38 -14 76 -36.5t63 -56t25 -83.5q0 -45 -16 -80t-51 -54.5t-93 -19.5
q-55 0 -93.5 26t-63.5 67.5t-41 89.5l-29 -16q17 -51 46.5 -96.5t74 -74t105.5 -28.5q70 0 112.5 25t62.5 68t20 95q0 43 -15 75.5t-40.5 55.5t-56 39.5t-60.5 26.5q-42 16 -82.5 37.5t-67 53.5t-26.5 78q0 40 19 69.5t52 46t77 16.5q49 0 82 -21.5t53.5 -53t31.5 -64.5z
" />
    <glyph glyph-name="percent" unicode="%" horiz-adv-x="716" 
d="M35 557q0 -43 19 -77.5t52.5 -55t79.5 -20.5t80 20.5t52.5 55t18.5 77.5t-18.5 77.5t-52.5 55t-80 20.5t-79.5 -20.5t-52.5 -55t-19 -77.5zM63 557q0 35 15 63.5t42.5 46t65.5 17.5q39 0 66 -17.5t42 -46t15 -63.5q0 -34 -15 -63t-42 -46.5t-66 -17.5q-38 0 -65.5 17.5
t-42.5 46.5t-15 63zM379 143q0 -43 18.5 -77.5t52.5 -55t80 -20.5t80 20.5t52.5 55t18.5 77.5t-18.5 77.5t-52.5 55t-80 20.5t-80 -20.5t-52.5 -55t-18.5 -77.5zM407 143q0 34 15 63t42.5 46.5t65.5 17.5t65.5 -17.5t42.5 -46.5t15 -63t-15 -63t-42.5 -47t-65.5 -18
t-65.5 18t-42.5 47t-15 63zM570 700l-455 -700h31l455 700h-31z" />
    <glyph glyph-name="ampersand" unicode="&#x26;" horiz-adv-x="675" 
d="M195 414l363 -414h38l-378 432q-24 29 -46.5 60t-22.5 78t31.5 80t93.5 33q40 0 65.5 -17.5t38 -43.5t12.5 -54q0 -42 -36 -81t-100 -77q-20 -12 -47.5 -25.5t-56.5 -31.5t-54 -42.5t-40.5 -57.5t-15.5 -77q0 -59 29 -101t77 -63.5t105 -21.5q67 0 120 28.5t96 74.5
t81.5 101t78.5 107l-24 15q-38 -52 -75.5 -104.5t-78.5 -96t-89 -70t-108 -26.5q-50 0 -91 18t-65 54t-24 86q0 49 21 82.5t53 56.5t67 41t62 34q35 21 62 42t45.5 42.5t28.5 44.5t10 48q0 35 -16.5 67.5t-49 54t-81.5 21.5q-50 0 -85 -18.5t-53.5 -50.5t-18.5 -72
q0 -36 12.5 -64.5t31 -50.5t34.5 -41z" />
    <glyph glyph-name="quotesingle" unicode="'" horiz-adv-x="241" 
d="M137 700l-50 -286h21l66 286h-37z" />
    <glyph glyph-name="parenleft" unicode="(" horiz-adv-x="261" 
d="M205 780q-60 -112 -87.5 -237t-27.5 -253q0 -127 27.5 -252t87.5 -238h26q-55 118 -81.5 240.5t-26.5 249.5q0 128 26.5 250t81.5 240h-26z" />
    <glyph glyph-name="parenright" unicode=")" horiz-adv-x="261" 
d="M56 -200q60 113 87.5 238t27.5 252q0 128 -27.5 253t-87.5 237h-26q55 -118 81 -240t26 -250q0 -127 -26 -249.5t-81 -240.5h26z" />
    <glyph glyph-name="asterisk" unicode="*" horiz-adv-x="592" 
d="M464 589l-172 -61l7 -18l173 51zM414 381l-111 144l-14 -12l101 -149zM202 364l101 149l-14 12l-111 -144zM120 561l173 -51l7 18l-172 61zM281 700l6 -181h18l6 181h-30z" />
    <glyph glyph-name="plus" unicode="+" horiz-adv-x="569" 
d="M65 240h432v30h-432v-30zM265 486v-462h32v462h-32z" />
    <glyph glyph-name="comma" unicode="," horiz-adv-x="285" 
d="M167 99l-100 -255l21 -8l110 250z" />
    <glyph glyph-name="hyphen" unicode="-" horiz-adv-x="210" 
d="M5 246h200v29h-200v-29z" />
    <glyph glyph-name="period" unicode="." horiz-adv-x="272" 
d="M112 12q0 -10 7 -16.5t17 -6.5t17 6.5t7 16.5q0 11 -7 17.5t-17 6.5q-9 0 -16.5 -7t-7.5 -17z" />
    <glyph glyph-name="slash" unicode="/" horiz-adv-x="487" 
d="M440 700l-425 -850h32l425 850h-32z" />
    <glyph glyph-name="zero" unicode="0" horiz-adv-x="565" 
d="M83 350q0 67 13.5 127t39.5 105.5t63 71t83 25.5q48 0 84.5 -25.5t62.5 -71t39 -105.5t13 -127t-13 -127t-39 -105.5t-62.5 -71t-84.5 -25.5q-46 0 -83 25.5t-63 71t-39.5 105.5t-13.5 127zM51 350q0 -101 28 -182.5t80 -129.5t123 -48q72 0 124 48t80 129.5t28 182.5
t-28 182.5t-80 129.5t-124 48q-71 0 -123 -48t-80 -129.5t-28 -182.5z" />
    <glyph glyph-name="one" unicode="1" horiz-adv-x="422" 
d="M91 627l165 40v-667h32v706l-197 -45v-34z" />
    <glyph glyph-name="two" unicode="2" horiz-adv-x="530" 
d="M24 0h465v31h-396l280 291q39 40 67.5 87.5t28.5 106.5q0 32 -11.5 66t-35.5 63t-62 47.5t-90 18.5q-65 0 -113.5 -31.5t-74.5 -88t-26 -131.5h32q0 66 22 115.5t63 77t97 27.5q44 0 75.5 -15t51.5 -39.5t29 -53.5t9 -57q0 -38 -12 -68t-32 -56t-44 -51z" />
    <glyph glyph-name="three" unicode="3" 
d="M249 357q58 0 108 21.5t81.5 61t31.5 91.5q0 47 -21.5 87.5t-63.5 66t-102 25.5q-57 0 -99.5 -23.5t-66 -64.5t-23.5 -96h30q0 67 43.5 110.5t116.5 43.5q50 0 84.5 -21t52 -55.5t17.5 -74.5q0 -34 -16.5 -62t-44 -47.5t-61 -30t-67.5 -10.5v-22zM279 -10
q63 0 110.5 23.5t74 66t26.5 98.5q0 49 -21 85.5t-56.5 60.5t-78 36t-85.5 12v-22q34 0 70.5 -10.5t68 -31.5t51 -53t19.5 -74q0 -47 -22 -83.5t-62 -56.5t-95 -20q-57 0 -98.5 21t-63 58.5t-21.5 84.5h-32q0 -41 14.5 -76.5t42.5 -62t67.5 -41.5t90.5 -15z" />
    <glyph glyph-name="four" unicode="4" horiz-adv-x="562" 
d="M24 140h504v29h-122h-7h-321l308 452v-462v-7v-152h33v700h-11z" />
    <glyph glyph-name="five" unicode="5" horiz-adv-x="559" 
d="M499 230q0 66 -27 116t-72.5 78t-102.5 28q-55 0 -97 -20.5t-65 -48.5l71 288h305v29h-330l-92 -373q29 32 59 53.5t64.5 32t74.5 10.5q50 0 90.5 -25t64.5 -68t24 -100q0 -67 -25.5 -114t-70.5 -71t-102 -24q-47 0 -84.5 16.5t-64 47t-44.5 70.5l-27 -18
q19 -44 48.5 -77t72 -51.5t99.5 -18.5q49 0 90.5 15t73 45t49.5 75t18 105z" />
    <glyph glyph-name="six" unicode="6" horiz-adv-x="548" 
d="M81 223q0 51 24 96t69 72t108 27q50 0 92 -26t67.5 -70t25.5 -99q0 -59 -24.5 -104.5t-67.5 -72t-101 -26.5q-57 0 -100.5 26.5t-68 72t-24.5 104.5zM330 700l-228 -322q-20 -28 -36 -70t-16 -85q0 -69 28 -121.5t78.5 -82t117.5 -29.5q68 0 118 29.5t78 82t28 121.5
q0 46 -16 85.5t-44.5 70t-66 47.5t-80.5 17q-50 0 -90 -17.5t-68 -52.5l2 -2l235 329h-40z" />
    <glyph glyph-name="seven" unicode="7" horiz-adv-x="518" 
d="M34 669h427l-345 -669h34l359 700h-475v-31z" />
    <glyph glyph-name="eight" unicode="8" horiz-adv-x="525" 
d="M84 538q0 -38 14.5 -70t39.5 -55t57 -36t67 -13q36 0 68 13t57 36t39.5 55t14.5 70q0 47 -23 86t-63.5 62.5t-92.5 23.5q-51 0 -91.5 -23.5t-63.5 -62.5t-23 -86zM114 535q0 40 19.5 73t53 53t75.5 20q44 0 77 -20t52 -53t19 -73q0 -43 -22.5 -77t-57 -53.5t-68.5 -19.5
q-33 0 -67.5 19.5t-57.5 53.5t-23 77zM62 186q0 -41 13.5 -76.5t39.5 -62.5t63 -42t84 -15t84 15t63 42t40 62.5t14 76.5q0 44 -16.5 79t-44.5 60t-64 38.5t-76 13.5q-38 0 -74.5 -13.5t-64.5 -38.5t-44.5 -60t-16.5 -79zM93 189q0 49 24.5 86.5t63.5 59t81 21.5t81 -21.5
t64 -59t25 -86.5q0 -50 -21.5 -88.5t-59 -60t-89.5 -21.5q-50 0 -88.5 21.5t-59.5 60t-21 88.5z" />
    <glyph glyph-name="nine" unicode="9" horiz-adv-x="548" 
d="M467 477q0 -51 -24 -95.5t-69 -72t-108 -27.5q-50 0 -92 26t-67.5 70t-25.5 99q0 59 24.5 105t68 72t100.5 26q58 0 101 -26t67.5 -72t24.5 -105zM218 0l227 322q20 28 36.5 70t16.5 85q0 69 -28 121.5t-78 82t-118 29.5q-67 0 -117.5 -29.5t-78.5 -82t-28 -121.5
q0 -46 16 -85.5t44.5 -70t66 -47.5t80.5 -17q50 0 90 17.5t68 52.5l-2 2l-235 -329h40z" />
    <glyph glyph-name="colon" unicode=":" horiz-adv-x="300" 
d="M112 12q0 -10 7 -16.5t17 -6.5t17 6.5t7 16.5q0 11 -7 17.5t-17 6.5q-9 0 -16.5 -7t-7.5 -17zM112 370q0 -10 7 -17t17 -7t17 7t7 17t-7 17t-17 7q-9 0 -16.5 -7t-7.5 -17z" />
    <glyph glyph-name="semicolon" unicode=";" horiz-adv-x="292" 
d="M142 370q0 -10 7 -17t17 -7t17 7t7 17t-7 17t-17 7q-9 0 -16.5 -7t-7.5 -17zM167 99l-100 -255l21 -8l110 250z" />
    <glyph glyph-name="less" unicode="&#x3c;" horiz-adv-x="640" 
d="M116 258l459 190v31l-510 -213v-18l510 -212v31z" />
    <glyph glyph-name="equal" unicode="=" horiz-adv-x="615" 
d="M65 172h485v29h-485v-29zM65 304h485v29h-485v-29z" />
    <glyph glyph-name="greater" unicode="&#x3e;" horiz-adv-x="640" 
d="M524 257l-459 -190v-31l510 213v18l-510 212v-31z" />
    <glyph glyph-name="question" unicode="?" horiz-adv-x="546" 
d="M441 514q0 -45 -27.5 -83.5t-77 -62t-113.5 -23.5h-8l9 -175h24l1 153q62 2 112.5 28.5t80.5 69t30 93.5q0 42 -14 77.5t-41 62.5t-64.5 41.5t-84.5 14.5q-52 0 -89.5 -14.5t-64.5 -41t-50 -61.5l25 -16q30 48 71.5 76t104.5 28q56 0 95.5 -21.5t60 -59t20.5 -86.5z
M208 12q0 -10 7.5 -16.5t16.5 -6.5q11 0 17.5 6.5t6.5 16.5q0 11 -6.5 17.5t-17.5 6.5q-9 0 -16.5 -6.5t-7.5 -17.5z" />
    <glyph glyph-name="at" unicode="@" horiz-adv-x="770" 
d="M231 320q0 59 21.5 99t55.5 60.5t70 20.5q32 0 55.5 -18t36.5 -47.5t13 -64.5q0 -53 -20 -93.5t-52 -63.5t-70 -23q-49 0 -79.5 36t-30.5 94zM201 319q0 -49 18 -84.5t49.5 -54t67.5 -18.5q45 0 82 27t59.5 73.5t22.5 105.5q0 43 -14.5 79.5t-41.5 59t-66 22.5
q-42 0 -83 -23.5t-67.5 -70t-26.5 -116.5zM35 320q0 -99 37.5 -173t109.5 -115t176 -41q86 0 142.5 18t101.5 42l-14 23q-43 -24 -100 -40t-130 -16q-92 0 -158 37t-101.5 105t-35.5 160q0 77 25.5 143.5t72 115t111.5 76t143 27.5q71 0 125.5 -24.5t91.5 -66.5t56 -94
t19 -107q0 -70 -24.5 -117t-59 -70.5t-64.5 -23.5q-25 0 -38 12.5t-17 31t-4 33.5q0 6 0.5 17t1.5 16l41 231h-30l-39 -236h3q-6 -40 1.5 -70t27.5 -46.5t50 -16.5q28 0 59 14.5t58.5 43.5t44.5 74t17 107q0 60 -20.5 116.5t-62 102.5t-100.5 73t-137 27q-84 0 -153.5 -30
t-120.5 -83t-78.5 -123.5t-27.5 -152.5z" />
    <glyph glyph-name="A" unicode="A" horiz-adv-x="618" 
d="M134 254h351l-9 30h-333zM309 645l152 -374l3 -8l105 -263h37l-297 721l-297 -721h36l107 265l3 8z" />
    <glyph glyph-name="B" unicode="B" horiz-adv-x="513" 
d="M112 381h113q56 0 99.5 16.5t69 51t25.5 87.5t-24.5 89t-69 55.5t-107.5 19.5h-131v-700h141q68 0 119 21.5t80 66t29 113.5q0 48 -20 84t-53 59.5t-72 35t-76 11.5h-123v-19h116q36 0 71 -11.5t63 -33t45 -53t17 -71.5q0 -59 -24.5 -97.5t-68.5 -57t-103 -18.5h-109v640
h99q79 0 123.5 -35.5t44.5 -100.5q0 -47 -23 -76.5t-61.5 -43t-83.5 -13.5h-106v-20z" />
    <glyph glyph-name="C" unicode="C" horiz-adv-x="685" 
d="M82 350q0 96 39.5 169t107.5 114.5t154 41.5q48 0 88.5 -10t75 -30t61.5 -49v43q-44 39 -96 59.5t-129 20.5q-73 0 -134.5 -26.5t-106.5 -75t-70 -114t-25 -143.5t25 -143.5t70 -114t106.5 -75t134.5 -26.5q77 0 129 20.5t96 59.5v44q-28 -29 -61 -49.5t-73.5 -30.5
t-90.5 -10q-86 0 -154 42t-107.5 115.5t-39.5 167.5z" />
    <glyph glyph-name="D" unicode="D" horiz-adv-x="648" 
d="M87 700v-700h33v700h-33zM262 0q102 0 178.5 44t118.5 122.5t42 183.5t-42 183.5t-118.5 122.5t-178.5 44h-158v-33h158q70 0 127 -22t96.5 -64t61 -100.5t21.5 -130.5t-21.5 -130.5t-61 -100.5t-96.5 -64t-127 -22h-158v-33h158z" />
    <glyph glyph-name="E" unicode="E" horiz-adv-x="522" 
d="M102 0h343v31h-343v-31zM102 669h343v31h-343v-31zM102 371h323v31h-323v-31zM87 700v-700h33v700h-33z" />
    <glyph glyph-name="F" unicode="F" horiz-adv-x="465" 
d="M103 669h302v31h-302v-31zM103 363h292v31h-292v-31zM87 700v-700h33v700h-33z" />
    <glyph glyph-name="G" unicode="G" horiz-adv-x="768" 
d="M416 314h265q-3 -59 -24.5 -111t-59.5 -92.5t-90 -63.5t-116 -23q-89 0 -159.5 42t-110.5 116t-40 168q0 96 40.5 169t111 115t158.5 42q89 0 155.5 -39.5t102.5 -99.5l24 20q-30 46 -71 79.5t-93.5 53t-117.5 19.5q-73 0 -136 -26.5t-109.5 -75t-72.5 -114t-26 -143.5
t26 -143.5t72.5 -114t109.5 -75t136 -26.5q76 0 136 28.5t102 78t64.5 113t22.5 133.5h-300v-30z" />
    <glyph glyph-name="H" unicode="H" horiz-adv-x="667" 
d="M103 366h466v31h-466v-31zM547 700v-700h33v700h-33zM87 700v-700h33v700h-33z" />
    <glyph glyph-name="I" unicode="I" horiz-adv-x="199" 
d="M84 700v-700h32v700h-32z" />
    <glyph glyph-name="J" unicode="J" horiz-adv-x="210" 
d="M-109 -142l-18 -24q8 -10 25.5 -23t42 -22t50.5 -9q35 0 60 9.5t41 29.5t23.5 50t7.5 71v760h-32v-750q0 -76 -22.5 -107.5t-76.5 -31.5q-32 0 -58.5 14.5t-42.5 32.5z" />
    <glyph glyph-name="K" unicode="K" horiz-adv-x="487" 
d="M84 700v-700h32v700h-32zM417 700l-310 -329l325 -371h42l-326 372l311 328h-42z" />
    <glyph glyph-name="L" unicode="L" horiz-adv-x="436" 
d="M87 700v-700h332v31h-300v669h-32z" />
    <glyph glyph-name="M" unicode="M" horiz-adv-x="824" 
d="M152 616l260 -523l260 523l65 -616h33l-78 721l-280 -562l-280 562l-78 -721h33z" />
    <glyph glyph-name="N" unicode="N" horiz-adv-x="740" 
d="M620 700v-635l-533 656v-721h33v632l533 -653v721h-33z" />
    <glyph glyph-name="O" unicode="O" horiz-adv-x="779" 
d="M81 350q0 95 39.5 168t109.5 115.5t159 42.5q91 0 160.5 -42.5t108.5 -115.5t39 -168q0 -94 -39 -167.5t-108.5 -116t-160.5 -42.5q-89 0 -159 42.5t-109.5 116t-39.5 167.5zM47 350q0 -77 25.5 -143t71.5 -114t108.5 -75t136.5 -27q75 0 137 27t108.5 75t72 114
t25.5 143q0 78 -25.5 143.5t-72 113.5t-108.5 75t-137 27q-74 0 -136.5 -27t-108.5 -75t-71.5 -113.5t-25.5 -143.5z" />
    <glyph glyph-name="P" unicode="P" horiz-adv-x="500" 
d="M87 700v-700h33v700h-33zM106 669h125q84 0 136.5 -45t52.5 -129t-52.5 -129.5t-136.5 -45.5h-125v-30h125q65 0 115 24.5t78.5 70.5t28.5 110q0 65 -28.5 110.5t-78.5 70t-115 24.5h-125v-31z" />
    <glyph glyph-name="Q" unicode="Q" horiz-adv-x="777" 
d="M81 350q0 95 39.5 168t109.5 115.5t159 42.5q91 0 160.5 -42.5t108.5 -115.5t39 -168q0 -94 -39 -167.5t-108.5 -116t-160.5 -42.5q-89 0 -159 42.5t-109.5 116t-39.5 167.5zM47 350q0 -77 25.5 -143t71.5 -114t108.5 -75t136.5 -27q75 0 137 27t108.5 75t72 114
t25.5 143q0 78 -25.5 143.5t-72 113.5t-108.5 75t-137 27q-74 0 -136.5 -27t-108.5 -75t-71.5 -113.5t-25.5 -143.5zM394 300l314 -300h44l-315 300h-43z" />
    <glyph glyph-name="R" unicode="R" horiz-adv-x="495" 
d="M201 325l226 -325h40l-230 325h-36zM87 700v-700h33v700h-33zM102 670h122q60 0 106 -18.5t72 -56t26 -93.5t-26 -93.5t-72 -56.5t-106 -19h-122v-29h122q68 0 121 22.5t84.5 67t31.5 108.5q0 65 -31.5 109t-84.5 66.5t-121 22.5h-122v-30z" />
    <glyph glyph-name="S" unicode="S" horiz-adv-x="506" 
d="M76 195l-27 -16q12 -50 39 -93t71 -69t107 -26q44 0 80 14t61.5 38.5t39.5 58.5t14 74q0 45 -15.5 78t-40.5 56t-55.5 39t-60.5 28q-53 19 -92.5 42t-62 54.5t-22.5 76.5q0 58 38.5 92t103.5 34q49 0 82 -18t53.5 -45t30.5 -55l30 16q-12 31 -37 62t-64 52t-94 21
q-51 0 -91 -20t-62.5 -56.5t-22.5 -85.5q0 -43 16 -74t43.5 -53.5t60.5 -39t66 -29.5q40 -15 77 -36t61 -55t24 -87q0 -65 -42 -107.5t-118 -42.5q-58 0 -96 24t-60.5 63.5t-34.5 84.5z" />
    <glyph glyph-name="T" unicode="T" horiz-adv-x="441" 
d="M17 669h187v-669h33v669h187v31h-407v-31z" />
    <glyph glyph-name="U" unicode="U" horiz-adv-x="591" 
d="M82 700v-477q0 -52 13.5 -95t41 -73.5t67 -47.5t91.5 -17t92 17t67 47.5t41 73.5t14 95v477h-33v-477q0 -93 -47.5 -147.5t-133.5 -54.5q-85 0 -132.5 54.5t-47.5 147.5v477h-33z" />
    <glyph glyph-name="V" unicode="V" horiz-adv-x="618" 
d="M309 57l-260 643h-37l297 -721l297 721h-38z" />
    <glyph glyph-name="W" unicode="W" horiz-adv-x="962" 
d="M697 73l-216 648l-215 -648l-213 627h-36l247 -721l217 649l217 -649l247 721h-36z" />
    <glyph glyph-name="X" unicode="X" horiz-adv-x="516" 
d="M445 700l-184 -304l-180 304h-39l202 -333l-227 -367h39l204 338l200 -338h39l-221 367l206 333h-39z" />
    <glyph glyph-name="Y" unicode="Y" horiz-adv-x="523" 
d="M474 700l-217 -391l-208 391h-37l230 -424v-276h32v277l237 423h-37z" />
    <glyph glyph-name="Z" unicode="Z" horiz-adv-x="538" 
d="M39 669h425l-445 -669h490v31h-433l445 669h-482v-31z" />
    <glyph glyph-name="bracketleft" unicode="[" horiz-adv-x="272" 
d="M131 750h121v30h-152v-1000h152v30h-121v940z" />
    <glyph glyph-name="backslash" unicode="\" horiz-adv-x="458" 
d="M15 700l394 -700h34l-394 700h-34z" />
    <glyph glyph-name="bracketright" unicode="]" horiz-adv-x="272" 
d="M141 -190h-121v-30h152v1000h-152v-30h121v-940z" />
    <glyph glyph-name="asciicircum" unicode="^" horiz-adv-x="510" 
d="M255 672l156 -212h34l-184 250h-12l-184 -250h34z" />
    <glyph glyph-name="underscore" unicode="_" horiz-adv-x="500" 
d="M0 -116h500v24h-500v-24z" />
    <glyph glyph-name="grave" unicode="`" horiz-adv-x="359" 
d="M93 683l175 -155l16 12l-164 160z" />
    <glyph glyph-name="a" unicode="a" horiz-adv-x="448" 
d="M68 136q0 41 19 66.5t51 37t70 11.5q44 0 83 -12t72 -37v23q-9 9 -31 21t-53.5 21.5t-74.5 9.5q-76 0 -121.5 -38t-45.5 -105q0 -49 22.5 -81t57.5 -47.5t72 -15.5q42 0 81 19.5t64.5 59.5t25.5 100l-9 32q0 -62 -22 -103t-56.5 -61t-75.5 -20q-33 0 -62.5 12.5t-48 38.5
t-18.5 68zM81 393q15 11 35 22t47 19t61 8q42 0 67.5 -12.5t38.5 -32t17 -40t4 -37.5v-320h30v323q0 47 -17.5 80t-52 50t-85.5 17q-57 0 -96 -18t-64 -36z" />
    <glyph glyph-name="b" unicode="b" 
d="M108 780h-31v-780h31v780zM507 230q0 74 -28.5 127.5t-78 83t-110.5 29.5q-60 0 -104 -33t-68 -88t-24 -119q0 -63 24 -118.5t68 -88.5t104 -33q61 0 110.5 29.5t78 83.5t28.5 127zM477 230q0 -65 -26 -112.5t-69 -73t-97 -25.5q-48 0 -88.5 29.5t-64.5 77t-24 104.5
t24 104.5t64.5 77t88.5 29.5q54 0 97 -25.5t69 -72.5t26 -113z" />
    <glyph glyph-name="c" unicode="c" horiz-adv-x="485" 
d="M68 230q0 61 27 109t73.5 75t103.5 27q37 0 68.5 -11t54.5 -26.5t33 -30.5v39q-18 21 -61 39.5t-95 18.5q-67 0 -120 -31t-84 -85t-31 -124q0 -69 31 -123.5t84 -85.5t120 -31q52 0 95 18.5t61 39.5v39q-10 -15 -33 -30.5t-54.5 -26.5t-68.5 -11q-57 0 -103.5 27
t-73.5 75t-27 109z" />
    <glyph glyph-name="d" unicode="d" 
d="M442 780v-780h30v780h-30zM42 230q0 -73 29 -127t78.5 -83.5t109.5 -29.5q61 0 105 33t68 88.5t24 118.5q0 64 -24 119t-68 88t-105 33q-60 0 -109.5 -29.5t-78.5 -83t-29 -127.5zM73 230q0 66 25.5 113t69 72.5t97.5 25.5q49 0 89 -29.5t64 -77t24 -104.5t-24 -104.5
t-64 -77t-89 -29.5q-54 0 -97.5 25.5t-69 73t-25.5 112.5z" />
    <glyph glyph-name="e" unicode="e" horiz-adv-x="506" 
d="M251 -10q66 0 115 28t90 89l-25 16q-36 -54 -78 -79t-99 -25q-53 0 -93.5 27.5t-64 76t-23.5 110.5q0 61 24 108.5t65.5 74t94.5 26.5q49 0 88.5 -24t62.5 -66t23 -94q0 -8 -1.5 -15.5t-3.5 -12.5l14 20h-378v-27h400q1 6 1.5 13t0.5 12q0 63 -27 113.5t-73.5 79.5
t-106.5 29q-62 0 -110.5 -30.5t-76.5 -84.5t-28 -124q0 -69 27 -123.5t74.5 -86t107.5 -31.5z" />
    <glyph glyph-name="f" unicode="f" horiz-adv-x="280" 
d="M47 460v-29h205v29h-205zM275 719l18 24q-7 10 -19 20.5t-28.5 18t-38.5 7.5q-42 0 -67 -19.5t-36.5 -52t-11.5 -73.5v-644h31v641q0 30 7 56.5t25 43.5t51 17q23 0 40.5 -12t28.5 -27z" />
    <glyph glyph-name="g" unicode="g" 
d="M55 -30q0 -59 25.5 -104.5t71.5 -70.5t106 -25q58 0 106.5 27t78 80.5t29.5 132.5v450h-30v-450q0 -71 -26 -118.5t-68 -70t-90 -22.5q-51 0 -90 22t-60.5 60t-21.5 89h-31zM42 230q0 -73 29 -127t78.5 -83.5t109.5 -29.5q61 0 105 33t68 88.5t24 118.5q0 64 -24 119
t-68 88t-105 33q-60 0 -109.5 -29.5t-78.5 -83t-29 -127.5zM73 230q0 66 25.5 113t69 72.5t97.5 25.5q36 0 68.5 -17.5t56.5 -47t38 -66t14 -76.5q0 -58 -24 -107t-64 -78.5t-89 -29.5q-54 0 -97.5 25.5t-69 73t-25.5 112.5z" />
    <glyph glyph-name="h" unicode="h" horiz-adv-x="490" 
d="M113 780h-31v-780h31v780zM377 308v-308h31v311q0 50 -15.5 85t-46.5 54.5t-79 19.5q-47 0 -84.5 -25t-59.5 -67.5t-22 -97.5h12q0 44 19 80.5t53 58.5t76 22q63 0 89.5 -36.5t26.5 -96.5z" />
    <glyph glyph-name="i" unicode="i" horiz-adv-x="211" 
d="M82 682q0 -9 6.5 -16t16.5 -7q11 0 17 7t6 16q0 10 -6 16.5t-17 6.5q-10 0 -16.5 -6.5t-6.5 -16.5zM90 460v-460h31v460h-31z" />
    <glyph glyph-name="j" unicode="j" horiz-adv-x="201" 
d="M71 682q0 -9 6.5 -16t16.5 -7t16.5 7t6.5 16q0 10 -6.5 16.5t-16.5 6.5t-16.5 -6.5t-6.5 -16.5zM-73 -150l-18 -24q9 -11 21 -21.5t28 -17.5t37 -7q42 0 67.5 19.5t37 53t11.5 71.5v536h-31v-533q0 -29 -7 -55.5t-25 -43.5t-51 -17q-25 0 -42 12.5t-28 26.5z" />
    <glyph glyph-name="k" unicode="k" horiz-adv-x="392" 
d="M77 780v-780h31v780h-31zM326 460l-229 -190l249 -270h39l-248 270l229 190h-40z" />
    <glyph glyph-name="l" unicode="l" horiz-adv-x="195" 
d="M82 780v-780h31v780h-31z" />
    <glyph glyph-name="m" unicode="m" horiz-adv-x="716" 
d="M634 311q0 49 -14 84.5t-41 55t-68 19.5q-46 0 -85 -33t-57 -88q-7 56 -37 88.5t-82 32.5q-46 0 -83.5 -33t-53.5 -89v112h-31v-460h31v280q0 44 18.5 81t48.5 58.5t64 21.5q51 0 75 -36t24 -97v-308h30v280q0 44 18.5 81t49 58.5t64.5 21.5q51 0 75 -36t24 -97v-308h30
v311z" />
    <glyph glyph-name="n" unicode="n" horiz-adv-x="490" 
d="M377 308v-308h31v311q0 72 -34.5 115.5t-106.5 43.5q-55 0 -96.5 -34t-57.5 -90v114h-31v-460h31v280q0 44 19 80.5t53 58.5t76 22q63 0 89.5 -36.5t26.5 -96.5z" />
    <glyph glyph-name="o" unicode="o" horiz-adv-x="553" 
d="M42 230q0 -69 31 -123.5t84 -85.5t119 -31q67 0 120 31t84 85.5t31 123.5q0 70 -31 124t-84 85t-120 31q-66 0 -119 -31t-84 -85t-31 -124zM73 230q0 61 27 109t73.5 75t103.5 27t103 -27t73 -75t27 -109t-27 -109t-73 -75t-103 -27t-103.5 27t-73.5 74.5t-27 109.5z" />
    <glyph glyph-name="p" unicode="p" 
d="M108 -220v680h-31v-680h31zM507 230q0 74 -28.5 127.5t-78 83t-110.5 29.5q-60 0 -104 -33t-68 -88t-24 -119q0 -63 24 -118.5t68 -88.5t104 -33q61 0 110.5 29.5t78 83.5t28.5 127zM477 230q0 -65 -26 -112.5t-69 -73t-97 -25.5q-48 0 -88.5 29.5t-64.5 77t-24 104.5
t24 104.5t64.5 77t88.5 29.5q54 0 97 -25.5t69 -72.5t26 -113z" />
    <glyph glyph-name="q" unicode="q" 
d="M442 -220h30v680h-30v-680zM42 230q0 -73 29 -127t78.5 -83.5t109.5 -29.5q61 0 105 33t68 88.5t24 118.5q0 64 -24 119t-68 88t-105 33q-60 0 -109.5 -29.5t-78.5 -83t-29 -127.5zM73 230q0 66 25.5 113t69 72.5t97.5 25.5q49 0 89 -29.5t64 -77t24 -104.5t-24 -104.5
t-64 -77t-89 -29.5q-54 0 -97.5 25.5t-69 73t-25.5 112.5z" />
    <glyph glyph-name="r" unicode="r" horiz-adv-x="306" 
d="M113 460h-31v-460h31v460zM276 420l17 25q-14 12 -32 18.5t-37 6.5q-39 0 -67.5 -25t-43 -67.5t-14.5 -97.5h14q0 44 10.5 80.5t34 58.5t60.5 22q16 0 30 -5.5t28 -15.5z" />
    <glyph glyph-name="s" unicode="s" horiz-adv-x="403" 
d="M66 123l-26 -12q7 -30 26 -58t53 -45.5t84 -17.5q63 0 102 36t39 95q0 37 -19 61.5t-49.5 41t-65.5 27.5q-31 10 -58 21t-43 31t-16 55q0 41 28 62t68 21q53 0 83 -25.5t44 -58.5l26 15q-10 26 -30 47.5t-49.5 35.5t-70.5 14q-34 0 -63.5 -13t-47.5 -37.5t-18 -62.5
q0 -42 18.5 -67t48.5 -39t64 -25q32 -10 59 -23t43.5 -33t16.5 -51q0 -47 -30.5 -73.5t-78.5 -26.5q-41 0 -69.5 15t-45 39t-23.5 51z" />
    <glyph glyph-name="t" unicode="t" horiz-adv-x="205" 
d="M12 460v-29h181v29h-181zM87 620v-620h31v620h-31z" />
    <glyph glyph-name="u" unicode="u" horiz-adv-x="490" 
d="M113 159v301h-31v-304q0 -76 34.5 -121t105.5 -45q56 0 97.5 34t57.5 90v-114h31v460h-31v-280q0 -43 -19.5 -79.5t-53 -58.5t-76.5 -22q-61 0 -88 37.5t-27 101.5z" />
    <glyph glyph-name="v" unicode="v" horiz-adv-x="426" 
d="M7 460l206 -481l206 481h-35l-171 -413l-171 413h-35z" />
    <glyph glyph-name="w" unicode="w" horiz-adv-x="638" 
d="M12 460l163 -481l139 421l149 -421l163 481h-34l-131 -401l-147 422l-138 -421l-130 400h-34z" />
    <glyph glyph-name="x" unicode="x" horiz-adv-x="392" 
d="M338 460l-142 -199l-142 199h-37l161 -223l-171 -237h37l152 213l152 -213h37l-172 237l161 223h-36z" />
    <glyph glyph-name="y" unicode="y" horiz-adv-x="429" 
d="M422 460h-34l-179 -415l18 -2l-184 417h-36l193 -427l-112 -253h34z" />
    <glyph glyph-name="z" unicode="z" horiz-adv-x="439" 
d="M356 431l-337 -431h395v29h-338l337 431h-372v-29h315z" />
    <glyph glyph-name="braceleft" unicode="{" horiz-adv-x="290" 
d="M157 646q0 57 15.5 81.5t57.5 24.5h24v28h-32q-32 0 -53.5 -14.5t-32 -45t-10.5 -80.5v-210q0 -57 -16 -88.5t-39 -39.5v-24q23 -7 39 -39t16 -89v-210q0 -49 10.5 -80t32 -45.5t53.5 -14.5h32v28h-24q-42 0 -57.5 25t-15.5 81v198q0 33 -5.5 63t-15.5 52t-25.5 34.5
t-34.5 12.5v-8q19 0 34.5 12.5t25.5 34.5t15.5 52t5.5 63v198z" />
    <glyph glyph-name="bar" unicode="|" horiz-adv-x="229" 
d="M100 785v-1000h29v1000h-29z" />
    <glyph glyph-name="braceright" unicode="}" horiz-adv-x="290" 
d="M136 -66q0 -56 -16 -81t-57 -25h-24v-28h31q33 0 54 14.5t31.5 45.5t10.5 80v210q0 57 16.5 89t38.5 39v24q-22 8 -38.5 39.5t-16.5 88.5v210q0 50 -10.5 80.5t-31.5 45t-54 14.5h-31v-28h24q41 0 57 -24.5t16 -81.5v-198q0 -33 5 -63t15.5 -52t25.5 -34.5t35 -12.5v8
q-20 0 -35 -12.5t-25.5 -34.5t-15.5 -52t-5 -63v-198z" />
    <glyph glyph-name="asciitilde" unicode="~" horiz-adv-x="575" 
d="M104 177q-2 6 -3 11.5t-1 10.5q0 44 23 71.5t64 27.5q23 0 41.5 -9.5t33.5 -24t28 -28.5q24 -24 49.5 -44t61.5 -20q26 0 46 10t34 29q12 16 17 37t5 42q0 8 -1 15t-3 13l-30 4q3 -7 4 -15.5t1 -14.5q0 -40 -18.5 -65.5t-55.5 -25.5q-29 0 -51.5 18.5t-42.5 39.5
q-15 16 -33 31.5t-38.5 26t-47.5 10.5q-28 0 -51 -11t-39 -30q-13 -17 -19 -38t-6 -43q0 -13 3 -24z" />
    <glyph glyph-name="uni00A0" unicode="&#xa0;" horiz-adv-x="300" 
 />
    <glyph glyph-name="exclamdown" unicode="&#xa1;" horiz-adv-x="300" 
d="M183 -245l-9 500h-21l-9 -500h39zM187 442q0 11 -6.5 17.5t-16.5 6.5t-17 -6.5t-7 -16.5t7 -17t17 -7t16.5 7t6.5 16z" />
    <glyph glyph-name="cent" unicode="&#xa2;" horiz-adv-x="580" 
d="M305 8l-3 -120h29l-4 120h-22zM115 230q0 61 27 108.5t73 75t104 27.5q56 0 98 -22t58 -46v39q-18 21 -60.5 39.5t-95.5 18.5q-66 0 -119 -31t-84 -85t-31 -124q0 -69 31 -123.5t84 -85.5t119 -31q53 0 95.5 18.5t60.5 39.5v39q-16 -24 -58 -46t-98 -22q-58 0 -104 27.5
t-73 75.5t-27 108zM302 578l3 -125h22l4 125h-29z" />
    <glyph glyph-name="sterling" unicode="&#xa3;" horiz-adv-x="580" 
d="M81 324v-29h325v29h-325zM472 492l28 9q-2 30 -12.5 66t-32.5 68.5t-56.5 53.5t-84.5 21q-56 0 -97.5 -24t-64 -64t-22.5 -90q0 -39 12 -68.5t29 -54t34 -47.5t29 -47.5t12 -54.5q0 -44 -22.5 -84t-59.5 -82.5t-79 -93.5h418v31h-384l2 -16q14 15 40 40t52.5 58.5t45 72
t18.5 78.5q0 33 -11.5 58.5t-28.5 48.5t-34 46.5t-28.5 51t-11.5 64.5q0 40 19 73t53 52.5t79 19.5q41 0 70.5 -17.5t48.5 -46t28.5 -60.5t10.5 -62z" />
    <glyph glyph-name="currency" unicode="&#xa4;" horiz-adv-x="566" 
d="M51 517l73 -72l21 21l-72 73zM73 61l72 73l-21 21l-73 -72zM449 445l72 72l-21 22l-73 -73zM427 134l73 -73l21 22l-72 72zM52 300q0 -69 31 -123.5t83.5 -85.5t116.5 -31t116.5 31t83.5 85.5t31 123.5q0 70 -31 124t-83.5 85t-116.5 31t-116.5 -31t-83.5 -85t-31 -124z
M83 300q0 61 27 108.5t72 75t101 27.5t101 -27.5t72 -75t27 -108.5t-27 -108.5t-72 -75t-101 -27.5t-101 27.5t-72 75t-27 108.5z" />
    <glyph glyph-name="yen" unicode="&#xa5;" horiz-adv-x="569" 
d="M34 276h480v29h-480v-29zM34 144h480v29h-480v-29zM487 700l-215 -391l-209 391h-37l229 -422v-278h33v277l236 423h-37z" />
    <glyph glyph-name="brokenbar" unicode="&#xa6;" horiz-adv-x="229" 
d="M100 695v-240h29v240h-29zM129 245h-29v-240h29v240z" />
    <glyph glyph-name="section" unicode="&#xa7;" horiz-adv-x="401" 
d="M343 605l24 15q-9 26 -34 46t-58.5 32t-70.5 12t-70 -12.5t-54 -38t-21 -63.5q0 -29 14.5 -49t37 -34t48.5 -24.5t50 -19.5q27 -10 57 -24.5t52 -35t22 -48.5q0 -31 -17 -54t-47 -37t-70 -20v-10q37 0 67.5 7t52.5 22t33.5 38.5t11.5 55.5q0 34 -21 57t-53.5 40t-65.5 30
q-19 8 -43 17t-46.5 21.5t-37 29t-14.5 38.5q0 30 17 48.5t44 27.5t54 9q28 0 56 -9.5t50 -26.5t32 -40zM55 137l-25 -14q7 -37 34.5 -67.5t67.5 -48t82 -17.5q32 0 60 6.5t50 21t34.5 37t12.5 54.5q0 41 -22.5 67t-56 42.5t-66.5 29.5q-19 8 -42.5 18t-45 23t-35 31
t-13.5 42t15 47t45 40t74 23v8q-43 0 -74 -10t-51 -27t-30 -39t-10 -45q0 -34 23 -59t57 -42t65 -30q30 -12 61.5 -26.5t53 -37t21.5 -57.5q0 -34 -19.5 -53t-48 -27t-57.5 -8q-39 0 -73 16.5t-57 43t-30 58.5z" />
    <glyph glyph-name="dieresis" unicode="&#xa8;" horiz-adv-x="436" 
d="M294 680q0 -9 7.5 -16t16.5 -7q10 0 17 7t7 16q0 11 -7 17.5t-17 6.5q-9 0 -16.5 -7t-7.5 -17zM94 680q0 -9 7.5 -16t16.5 -7q10 0 17 7t7 16q0 11 -7 17.5t-17 6.5q-9 0 -16.5 -7t-7.5 -17z" />
    <glyph glyph-name="copyright" unicode="&#xa9;" horiz-adv-x="800" 
d="M210 350q0 57 23.5 101.5t64 69t93.5 24.5q42 0 76.5 -13.5t58.5 -39.5v26q-26 23 -57.5 35t-77.5 12q-58 0 -103.5 -27.5t-72 -76t-26.5 -111.5q0 -62 26.5 -111t72 -76.5t103.5 -27.5q46 0 77.5 12t57.5 35v27q-25 -26 -58 -40t-77 -14q-53 0 -93.5 25t-64 69
t-23.5 101zM63 350q0 73 26 135t72.5 107.5t107.5 70.5t131 25t131 -25t107.5 -70.5t72.5 -107.5t26 -135t-26 -135t-72.5 -107.5t-107.5 -70.5t-131 -25t-131 25t-107.5 70.5t-72.5 107.5t-26 135zM40 350q0 -78 27.5 -144t76 -114.5t114.5 -75t142 -26.5q77 0 142.5 26.5
t114 75t76 114.5t27.5 144t-27.5 144t-76 114.5t-114 75t-142.5 26.5q-76 0 -142 -26.5t-114.5 -75t-76 -114.5t-27.5 -144z" />
    <glyph glyph-name="ordfeminine" unicode="&#xaa;" horiz-adv-x="238" 
d="M39 529q0 31 24 47t54 16q25 0 42 -7.5t28 -16.5v11q-6 7 -23 16t-47 9q-35 0 -64 -19.5t-29 -55.5q0 -38 24.5 -56t52.5 -18q38 0 61.5 24t23.5 57l-4 7q0 -32 -23 -53t-55 -21q-26 0 -45.5 14.5t-19.5 45.5zM52 657q12 12 29.5 21.5t42.5 9.5q29 0 43.5 -16t14.5 -44
v-168h15v168q0 33 -18.5 53t-54.5 20q-28 0 -48 -10.5t-33 -21.5z" />
    <glyph glyph-name="guillemotleft" unicode="&#xab;" horiz-adv-x="492" 
d="M233 256l189 216l-19 18l-203 -235l203 -235l19 18zM73 256l189 216l-19 18l-203 -235l203 -235l19 18z" />
    <glyph glyph-name="logicalnot" unicode="&#xac;" horiz-adv-x="620" 
d="M65 346h461v-171h29v200h-490v-29z" />
    <glyph glyph-name="uni00AD" unicode="&#xad;" horiz-adv-x="210" 
d="M5 246h200v29h-200v-29z" />
    <glyph glyph-name="registered" unicode="&#xae;" horiz-adv-x="800" 
d="M360 345l136 -195h25l-138 195h-23zM292 570v-420h20v420h-20zM301 552h74q53 0 87.5 -25t34.5 -76q0 -50 -34.5 -75.5t-87.5 -25.5h-74v-18h74q61 0 101.5 30.5t40.5 88.5t-40.5 88.5t-101.5 30.5h-74v-18zM63 350q0 73 26 135t72.5 107.5t107.5 70.5t131 25t131 -25
t107.5 -70.5t72.5 -107.5t26 -135t-26 -135t-72.5 -107.5t-107.5 -70.5t-131 -25t-131 25t-107.5 70.5t-72.5 107.5t-26 135zM40 350q0 -78 27.5 -144t76 -114.5t114.5 -75t142 -26.5q77 0 142.5 26.5t114 75t76 114.5t27.5 144t-27.5 144t-76 114.5t-114 75t-142.5 26.5
q-76 0 -142 -26.5t-114.5 -75t-76 -114.5t-27.5 -144z" />
    <glyph glyph-name="macron" unicode="&#xaf;" horiz-adv-x="510" 
d="M80 646h350v29h-350v-29z" />
    <glyph glyph-name="degree" unicode="&#xb0;" horiz-adv-x="278" 
d="M20 600q0 -52 34 -86t85 -34t85 34t34 86q0 53 -34 86.5t-85 33.5t-85 -33.5t-34 -86.5zM39 600q0 45 29 73.5t71 28.5t71 -28.5t29 -73.5t-29 -73.5t-71 -28.5t-71 28.5t-29 73.5z" />
    <glyph glyph-name="plusminus" unicode="&#xb1;" horiz-adv-x="611" 
d="M65 0h481v31h-481v-31zM65 370h481v30h-481v-30zM290 620v-470h32v470h-32z" />
    <glyph glyph-name="uni00B2" unicode="&#xb2;" horiz-adv-x="336" 
d="M29 282h279v18h-238l168 175q23 24 40 52t17 63q0 26 -12 53.5t-38 46.5t-67 19q-39 0 -68.5 -19t-45.5 -53t-16 -79h19q0 59 30.5 96t80.5 37q35 0 56.5 -16t31 -38.5t9.5 -44.5q0 -34 -15.5 -58.5t-37.5 -47.5z" />
    <glyph glyph-name="uni00B3" unicode="&#xb3;" horiz-adv-x="309" 
d="M140 494q35 0 65 13t49 36.5t19 54.5q0 41 -29 74.5t-83 33.5q-52 0 -83 -30.5t-31 -79.5h18q0 41 26.5 66.5t69.5 25.5q45 0 69 -27t24 -63q0 -28 -17.5 -48.5t-43.5 -31.5t-53 -11v-13zM158 274q56 0 91.5 31.5t35.5 81.5q0 40 -22 65.5t-55 38t-68 12.5v-13
q27 0 56 -11t49.5 -33.5t20.5 -56.5q0 -43 -29.5 -70t-78.5 -27q-51 0 -80.5 28t-29.5 71h-19q0 -32 15 -59t44.5 -42.5t69.5 -15.5z" />
    <glyph glyph-name="acute" unicode="&#xb4;" horiz-adv-x="359" 
d="M267 683l-28 17l-164 -160l17 -12z" />
    <glyph glyph-name="mu" unicode="&#xb5;" horiz-adv-x="490" 
d="M113 460h-31v-780h31v375q14 -31 40.5 -48t68.5 -17q55 0 97 33.5t58 87.5v-111h31v460h-31v-280q0 -43 -19.5 -80t-53 -59t-76.5 -22q-61 0 -88 37.5t-27 102.5v301z" />
    <glyph glyph-name="paragraph" unicode="&#xb6;" horiz-adv-x="486" 
d="M288 270v-490h28v894h83v-894h27v920h-138q-62 0 -114 -25t-83 -72.5t-31 -117.5q0 -69 31 -117t83 -73t114 -25z" />
    <glyph glyph-name="periodcentered" unicode="&#xb7;" horiz-adv-x="259" 
d="M106 227q0 -10 7 -17t17 -7t16.5 7t6.5 16q0 11 -6.5 17.5t-16.5 6.5t-17 -6.5t-7 -16.5z" />
    <glyph glyph-name="cedilla" unicode="&#xb8;" horiz-adv-x="350" 
d="M182 18l-64 -112q17 12 36.5 18t37.5 6q23 0 41 -13.5t18 -42.5q0 -35 -25.5 -53t-57.5 -18q-23 0 -39 7.5t-35 23.5l-15 -16q21 -21 41 -29.5t48 -8.5t52 11t39.5 32t15.5 51q0 25 -11.5 41t-28 24.5t-33.5 8.5q-18 0 -27.5 -4t-24.5 -13l58 87h-26z" />
    <glyph glyph-name="uni00B9" unicode="&#xb9;" horiz-adv-x="470" 
d="M146 650l99 24v-400h19v424l-118 -28v-20z" />
    <glyph glyph-name="ordmasculine" unicode="&#xba;" horiz-adv-x="278" 
d="M20 580q0 -52 34 -86t85 -34t85 34t34 86q0 53 -34 86.5t-85 33.5t-85 -33.5t-34 -86.5zM39 580q0 45 29 73.5t71 28.5t71 -28.5t29 -73.5t-29 -73.5t-71 -28.5t-71 28.5t-29 73.5z" />
    <glyph glyph-name="guillemotright" unicode="&#xbb;" horiz-adv-x="492" 
d="M259 254l-189 -216l20 -18l202 235l-202 235l-20 -18zM419 254l-189 -216l20 -18l202 235l-202 235l-20 -18z" />
    <glyph glyph-name="onequarter" unicode="&#xbc;" horiz-adv-x="754" 
d="M655 700l-557 -700h28l557 700h-28zM24 650l99 24v-400h19v424l-118 -28v-20zM400 84h303v17h-73h-4h-209zM421 84l197 289v-278v-4v-91h19v420h-6l-231 -336h21z" />
    <glyph glyph-name="onehalf" unicode="&#xbd;" horiz-adv-x="819" 
d="M655 700l-557 -700h28l557 700h-28zM24 650l99 24v-400h19v424l-118 -28v-20zM495 2h279v18h-237l167 175q24 24 41 51.5t17 63.5q0 26 -12 53.5t-38 46.5t-68 19q-39 0 -68 -19t-45 -53t-16 -79h19q0 59 30 96t80 37q35 0 56.5 -16t31.5 -39t10 -45q0 -34 -15.5 -58.5
t-37.5 -46.5z" />
    <glyph glyph-name="threequarters" unicode="&#xbe;" horiz-adv-x="820" 
d="M722 700l-557 -700h28l557 700h-28zM145 494q35 0 65 13t49 36.5t19 54.5q0 41 -29 74.5t-83 33.5q-52 0 -83 -30.5t-31 -79.5h18q0 41 26.5 66.5t69.5 25.5q45 0 69 -27t24 -63q0 -28 -17.5 -48.5t-43.5 -31.5t-53 -11v-13zM163 274q56 0 91.5 31.5t35.5 81.5
q0 40 -22 65.5t-55 38t-68 12.5v-13q27 0 56 -11t49.5 -33.5t20.5 -56.5q0 -43 -29.5 -70t-78.5 -27q-51 0 -80.5 28t-29.5 71h-19q0 -32 15 -59t44.5 -42.5t69.5 -15.5zM467 84h303v17h-73h-4h-209zM488 84l197 289v-278v-4v-91h19v420h-6l-231 -336h21z" />
    <glyph glyph-name="questiondown" unicode="&#xbf;" horiz-adv-x="546" 
d="M105 186q0 45 28.5 83.5t77.5 62t113 23.5h7l-9 175h-23l-2 -153q-61 -2 -111.5 -28t-81 -68.5t-30.5 -94.5q0 -42 14.5 -77.5t41 -62.5t64 -41.5t84.5 -14.5q53 0 90 14.5t64.5 41t50.5 61.5l-26 16q-30 -47 -71.5 -75.5t-104.5 -28.5q-56 0 -95 21.5t-60 59.5t-21 86z
M338 688q0 10 -7 16.5t-17 6.5q-9 0 -16.5 -6.5t-7.5 -16.5t7.5 -17t16.5 -7q10 0 17 7t7 17z" />
    <glyph glyph-name="Agrave" unicode="&#xc0;" horiz-adv-x="618" 
d="M133 254h352l-9 30h-334zM309 645l152 -374l3 -8l105 -263h37l-297 721l-297 -721h36l107 265l3 8zM175 936l175 -155l16 12l-164 160z" />
    <glyph glyph-name="Aacute" unicode="&#xc1;" horiz-adv-x="618" 
d="M133 254h352l-9 30h-334zM309 645l152 -374l3 -8l105 -263h37l-297 721l-297 -721h36l107 265l3 8zM443 936l-28 17l-164 -160l16 -12z" />
    <glyph glyph-name="Acircumflex" unicode="&#xc2;" horiz-adv-x="618" 
d="M133 254h352l-9 30h-334zM309 645l152 -374l3 -8l105 -263h37l-297 721l-297 -721h36l107 265l3 8zM309 892l140 -123l20 17l-160 140l-160 -140l19 -17z" />
    <glyph glyph-name="Atilde" unicode="&#xc3;" horiz-adv-x="618" 
d="M133 254h352l-9 30h-334zM309 645l152 -374l3 -8l105 -263h37l-297 721l-297 -721h36l107 265l3 8zM171 801l23 -12q0 12 4.5 23.5t16.5 19.5t32 8q23 0 40 -11.5t36 -23.5t46 -12q17 0 32 7t26 20.5t19 31.5l-20 15q-12 -24 -24.5 -36t-31.5 -12q-20 0 -34 7t-26.5 16.5
t-27 16.5t-36.5 7t-38.5 -9t-25.5 -23.5t-11 -32.5z" />
    <glyph glyph-name="Adieresis" unicode="&#xc4;" horiz-adv-x="618" 
d="M133 254h352l-9 30h-334zM309 645l152 -374l3 -8l105 -263h37l-297 721l-297 -721h36l107 265l3 8zM385 819q0 -10 7.5 -17t16.5 -7q10 0 17 7t7 17t-7 17t-17 7q-9 0 -16.5 -7t-7.5 -17zM185 819q0 -10 7.5 -17t16.5 -7q10 0 17 7t7 17t-7 17t-17 7q-9 0 -16.5 -7
t-7.5 -17z" />
    <glyph glyph-name="Aring" unicode="&#xc5;" horiz-adv-x="618" 
d="M133 254h352l-9 30h-334zM309 645l152 -374l3 -8l105 -263h37l-297 721l-297 -721h36l107 265l3 8zM207 805q0 -45 31.5 -72.5t70.5 -27.5t70.5 27.5t31.5 72.5t-31.5 72.5t-70.5 27.5t-70.5 -27.5t-31.5 -72.5zM229 805q0 36 24.5 57.5t55.5 21.5t55.5 -21.5t24.5 -57.5
t-24.5 -57.5t-55.5 -21.5t-55.5 21.5t-24.5 57.5z" />
    <glyph glyph-name="AE" unicode="&#xc6;" horiz-adv-x="915" 
d="M210 259h293v31h-293v-31zM470 700l-465 -700h37l458 688zM509 0h329v31h-329v-31zM513 669h325v31h-368zM509 371h309v31h-309v-31zM490 700v-700h33v700h-33z" />
    <glyph glyph-name="Ccedilla" unicode="&#xc7;" horiz-adv-x="685" 
d="M82 350q0 96 39.5 169t107.5 114.5t154 41.5q48 0 88.5 -10t75 -30t61.5 -49v43q-44 39 -96 59.5t-129 20.5q-73 0 -134.5 -26.5t-106.5 -75t-70 -114t-25 -143.5t25 -143.5t70 -114t106.5 -75t134.5 -26.5q77 0 129 20.5t96 59.5v44q-28 -29 -61 -49.5t-73.5 -30.5
t-90.5 -10q-86 0 -154 42t-107.5 115.5t-39.5 167.5zM376 17l-64 -112q16 12 36 18t38 6q23 0 41 -13.5t18 -42.5q0 -35 -25.5 -53t-57.5 -18q-23 0 -39.5 7.5t-34.5 23.5l-15 -16q21 -21 41 -29.5t48 -8.5t52 11t39.5 32t15.5 51q0 25 -11.5 41t-28 24.5t-33.5 8.5
q-18 0 -27.5 -4t-24.5 -13l58 87h-26z" />
    <glyph glyph-name="Egrave" unicode="&#xc8;" horiz-adv-x="522" 
d="M102 0h343v31h-343v-31zM102 669h343v31h-343v-31zM102 371h323v31h-323v-31zM87 700v-700h33v700h-33zM117 924l176 -155l16 12l-164 160z" />
    <glyph glyph-name="Eacute" unicode="&#xc9;" horiz-adv-x="522" 
d="M102 0h343v31h-343v-31zM102 669h343v31h-343v-31zM102 371h323v31h-323v-31zM87 700v-700h33v700h-33zM414 924l-27 17l-165 -160l16 -12z" />
    <glyph glyph-name="Ecircumflex" unicode="&#xca;" horiz-adv-x="522" 
d="M102 0h343v31h-343v-31zM102 669h343v31h-343v-31zM102 371h323v31h-323v-31zM87 700v-700h33v700h-33zM269 892l140 -123l20 16l-160 140l-160 -140l19 -16z" />
    <glyph glyph-name="Edieresis" unicode="&#xcb;" horiz-adv-x="522" 
d="M102 0h343v31h-343v-31zM102 669h343v31h-343v-31zM102 371h323v31h-323v-31zM87 700v-700h33v700h-33zM345 812q0 -9 7 -16t17 -7t17 7t7 16q0 11 -7 17.5t-17 6.5q-9 0 -16.5 -7t-7.5 -17zM145 812q0 -9 7 -16t17 -7t17 7t7 16q0 11 -7 17.5t-17 6.5q-9 0 -16.5 -7
t-7.5 -17z" />
    <glyph glyph-name="Igrave" unicode="&#xcc;" horiz-adv-x="199" 
d="M84 700v-700h32v700h-32zM-49 924l176 -155l16 12l-164 160z" />
    <glyph glyph-name="Iacute" unicode="&#xcd;" horiz-adv-x="199" 
d="M84 700v-700h32v700h-32zM248 924l-28 17l-164 -160l16 -12z" />
    <glyph glyph-name="Icircumflex" unicode="&#xce;" horiz-adv-x="199" 
d="M84 700v-700h32v700h-32zM99 892l141 -123l19 16l-160 140l-160 -140l20 -16z" />
    <glyph glyph-name="Idieresis" unicode="&#xcf;" horiz-adv-x="199" 
d="M84 700v-700h32v700h-32zM155 807q0 -10 7 -17t16 -7q10 0 17 7t7 17t-7 17t-17 7q-9 0 -16 -7t-7 -17zM-3 807q0 -10 7 -17t17 -7t17 7t7 17t-7 17t-17 7t-17 -7t-7 -17z" />
    <glyph glyph-name="Eth" unicode="&#xd0;" horiz-adv-x="680" 
d="M5 335h300v29h-300v-29zM87 700v-700h33v700h-33zM262 0q102 0 178.5 44t118.5 122.5t42 183.5t-42 183.5t-118.5 122.5t-178.5 44h-158v-33h158q69 0 126 -22t97 -64t61.5 -100.5t21.5 -130.5t-21.5 -130.5t-61.5 -100.5t-97 -64t-126 -22h-158v-33h158z" />
    <glyph glyph-name="Ntilde" unicode="&#xd1;" horiz-adv-x="697" 
d="M592 700v-635l-533 656v-721h33v632l532 -653v721h-32zM208 767l22 -12q0 12 4.5 23.5t16.5 19.5t32 8q23 0 39.5 -11.5t35.5 -23.5t46 -12q18 0 33 7t26 20.5t19 31.5l-20 15q-12 -24 -24 -36t-32 -12t-34 7t-26 16.5t-27 16.5t-37 7t-38.5 -9.5t-25.5 -24t-10 -31.5z
" />
    <glyph glyph-name="Ograve" unicode="&#xd2;" horiz-adv-x="779" 
d="M81 350q0 95 39.5 168t109.5 115.5t159 42.5q91 0 160.5 -42.5t108.5 -115.5t39 -168q0 -94 -39 -167.5t-108.5 -116t-160.5 -42.5q-89 0 -159 42.5t-109.5 116t-39.5 167.5zM47 350q0 -77 25.5 -143t71.5 -114t108.5 -75t136.5 -27q75 0 137 27t108.5 75t72 114
t25.5 143q0 78 -25.5 143.5t-72 113.5t-108.5 75t-137 27q-74 0 -136.5 -27t-108.5 -75t-71.5 -113.5t-25.5 -143.5zM259 924l174 -155l18 12l-165 160z" />
    <glyph glyph-name="Oacute" unicode="&#xd3;" horiz-adv-x="779" 
d="M81 350q0 95 39.5 168t109.5 115.5t159 42.5q91 0 160.5 -42.5t108.5 -115.5t39 -168q0 -94 -39 -167.5t-108.5 -116t-160.5 -42.5q-89 0 -159 42.5t-109.5 116t-39.5 167.5zM47 350q0 -77 25.5 -143t71.5 -114t108.5 -75t136.5 -27q75 0 137 27t108.5 75t72 114
t25.5 143q0 78 -25.5 143.5t-72 113.5t-108.5 75t-137 27q-74 0 -136.5 -27t-108.5 -75t-71.5 -113.5t-25.5 -143.5zM520 924l-28 17l-164 -160l18 -12z" />
    <glyph glyph-name="Ocircumflex" unicode="&#xd4;" horiz-adv-x="779" 
d="M81 350q0 95 39.5 168t109.5 115.5t159 42.5q91 0 160.5 -42.5t108.5 -115.5t39 -168q0 -94 -39 -167.5t-108.5 -116t-160.5 -42.5q-89 0 -159 42.5t-109.5 116t-39.5 167.5zM47 350q0 -77 25.5 -143t71.5 -114t108.5 -75t136.5 -27q75 0 137 27t108.5 75t72 114
t25.5 143q0 78 -25.5 143.5t-72 113.5t-108.5 75t-137 27q-74 0 -136.5 -27t-108.5 -75t-71.5 -113.5t-25.5 -143.5zM389 892l141 -123l19 16l-160 140l-160 -140l20 -16z" />
    <glyph glyph-name="Otilde" unicode="&#xd5;" horiz-adv-x="779" 
d="M81 350q0 95 39.5 168t109.5 115.5t159 42.5q91 0 160.5 -42.5t108.5 -115.5t39 -168q0 -94 -39 -167.5t-108.5 -116t-160.5 -42.5q-89 0 -159 42.5t-109.5 116t-39.5 167.5zM47 350q0 -77 25.5 -143t71.5 -114t108.5 -75t136.5 -27q75 0 137 27t108.5 75t72 114
t25.5 143q0 78 -25.5 143.5t-72 113.5t-108.5 75t-137 27q-74 0 -136.5 -27t-108.5 -75t-71.5 -113.5t-25.5 -143.5zM253 794l21 -11q0 11 5 23t17 20t32 8q23 0 39.5 -11.5t35 -23.5t45.5 -12q18 0 33 7t26 20.5t19 31.5l-19 14q-12 -24 -24 -36t-32 -12t-34 7t-26.5 16.5
t-27 16.5t-36.5 7t-38.5 -9t-25.5 -23.5t-10 -32.5z" />
    <glyph glyph-name="Odieresis" unicode="&#xd6;" horiz-adv-x="779" 
d="M81 350q0 95 39.5 168t109.5 115.5t159 42.5q91 0 160.5 -42.5t108.5 -115.5t39 -168q0 -94 -39 -167.5t-108.5 -116t-160.5 -42.5q-89 0 -159 42.5t-109.5 116t-39.5 167.5zM47 350q0 -77 25.5 -143t71.5 -114t108.5 -75t136.5 -27q75 0 137 27t108.5 75t72 114
t25.5 143q0 78 -25.5 143.5t-72 113.5t-108.5 75t-137 27q-74 0 -136.5 -27t-108.5 -75t-71.5 -113.5t-25.5 -143.5zM473 814q0 -10 7 -17t16 -7q11 0 17.5 7t6.5 17t-6.5 17t-17.5 7q-9 0 -16 -7t-7 -17zM258 814q0 -10 7.5 -17t16.5 -7q11 0 17.5 7t6.5 17t-6.5 17
t-17.5 7q-9 0 -16.5 -7t-7.5 -17z" />
    <glyph glyph-name="multiply" unicode="&#xd7;" horiz-adv-x="583" 
d="M98 39l194 196l194 -196l21 21l-196 194l197 195l-22 21l-194 -197l-195 197l-21 -21l196 -195l-196 -194z" />
    <glyph glyph-name="Oslash" unicode="&#xd8;" horiz-adv-x="790" 
d="M81 350q0 95 39.5 168t109.5 115.5t159 42.5q91 0 160.5 -42.5t108.5 -115.5t39 -168q0 -94 -39 -167.5t-108.5 -116t-160.5 -42.5q-89 0 -159 42.5t-109.5 116t-39.5 167.5zM47 350q0 -77 25.5 -143t71.5 -114t108.5 -75t136.5 -27q75 0 137 27t108.5 75t72 114
t25.5 143q0 78 -25.5 143.5t-72 113.5t-108.5 75t-137 27q-74 0 -136.5 -27t-108.5 -75t-71.5 -113.5t-25.5 -143.5zM705 738l-648 -760l24 -16l649 760z" />
    <glyph glyph-name="Ugrave" unicode="&#xd9;" horiz-adv-x="591" 
d="M82 700v-477q0 -52 13.5 -95t41 -73.5t67 -47.5t91.5 -17t92 17t67 47.5t41 73.5t14 95v477h-33v-477q0 -93 -47.5 -147.5t-133.5 -54.5q-85 0 -132.5 54.5t-47.5 147.5v477h-33zM161 924l176 -155l16 12l-164 160z" />
    <glyph glyph-name="Uacute" unicode="&#xda;" horiz-adv-x="591" 
d="M82 700v-477q0 -52 13.5 -95t41 -73.5t67 -47.5t91.5 -17t92 17t67 47.5t41 73.5t14 95v477h-33v-477q0 -93 -47.5 -147.5t-133.5 -54.5q-85 0 -132.5 54.5t-47.5 147.5v477h-33zM430 924l-28 17l-164 -160l16 -12z" />
    <glyph glyph-name="Ucircumflex" unicode="&#xdb;" horiz-adv-x="591" 
d="M82 700v-477q0 -52 13.5 -95t41 -73.5t67 -47.5t91.5 -17t92 17t67 47.5t41 73.5t14 95v477h-33v-477q0 -93 -47.5 -147.5t-133.5 -54.5q-85 0 -132.5 54.5t-47.5 147.5v477h-33zM295 892l141 -123l19 16l-160 140l-160 -140l20 -16z" />
    <glyph glyph-name="Udieresis" unicode="&#xdc;" horiz-adv-x="591" 
d="M82 700v-477q0 -52 13.5 -95t41 -73.5t67 -47.5t91.5 -17t92 17t67 47.5t41 73.5t14 95v477h-33v-477q0 -93 -47.5 -147.5t-133.5 -54.5q-85 0 -132.5 54.5t-47.5 147.5v477h-33zM364 792q0 -9 7.5 -16t16.5 -7q11 0 17.5 7t6.5 16q0 11 -7 17.5t-17 6.5q-9 0 -16.5 -7
t-7.5 -17zM178 792q0 -9 7.5 -16t17.5 -7t16.5 7t6.5 16q0 11 -6.5 17.5t-16.5 6.5t-17.5 -7t-7.5 -17z" />
    <glyph glyph-name="Yacute" unicode="&#xdd;" horiz-adv-x="523" 
d="M409 924l-27 17l-164 -160l16 -12zM474 700l-217 -391l-208 391h-37l230 -424v-276h32v277l237 423h-37z" />
    <glyph glyph-name="Thorn" unicode="&#xde;" horiz-adv-x="529" 
d="M80 700v-700h32v700h-32zM97 529h152q58 0 104.5 -20.5t73.5 -61t27 -97.5q0 -54 -27 -94t-73.5 -62.5t-104.5 -22.5h-152v-31h152q68 0 121.5 25.5t85 73t31.5 111.5q0 65 -31.5 112t-85 72.5t-121.5 25.5h-152v-31z" />
    <glyph glyph-name="germandbls" unicode="&#xdf;" horiz-adv-x="540" 
d="M312 -11q42 0 76.5 15.5t59.5 43.5t39 66t14 82q0 46 -14.5 75t-36.5 47t-46.5 29.5t-46.5 20t-36.5 20t-14.5 30.5q0 20 12.5 37t31 34t37.5 37.5t31.5 47.5t12.5 65q0 48 -22.5 82.5t-59.5 53.5t-83 19q-56 0 -98.5 -27t-66 -74.5t-23.5 -107.5v-586h30v583q0 55 20 96
t54.5 64.5t79.5 23.5q38 0 68.5 -16.5t49.5 -45t19 -67.5q0 -33 -12.5 -58.5t-31.5 -46t-37.5 -38.5t-31 -36.5t-12.5 -39.5q0 -24 14 -38.5t36 -25t47 -22t47 -28t36.5 -43.5t14.5 -70q0 -48 -19.5 -87t-54.5 -62t-81 -23q-25 0 -52 6.5t-50.5 18t-39.5 27.5l-19 -22
q16 -18 43 -31.5t57 -21t59 -7.5z" />
    <glyph glyph-name="agrave" unicode="&#xe0;" horiz-adv-x="450" 
d="M68 135q0 41 22 68t57.5 41t76.5 14q49 0 83 -14t57 -33v21q-9 9 -27 21t-46 20.5t-69 8.5q-47 0 -89.5 -16.5t-69 -49.5t-26.5 -84q0 -49 21.5 -80.5t57.5 -46.5t76 -15q50 0 88 22t59 58.5t21 80.5l-8 15q0 -43 -20.5 -76.5t-55.5 -52.5t-79 -19q-34 0 -63.5 12
t-47.5 37.5t-18 67.5zM92 382q17 15 37.5 29t47.5 22.5t60 8.5q55 0 85 -31.5t30 -87.5v-323h31v323q0 45 -16.5 77.5t-49 51t-80.5 18.5q-57 0 -96.5 -21t-64.5 -43zM95 699l174 -155l18 12l-164 160z" />
    <glyph glyph-name="aacute" unicode="&#xe1;" horiz-adv-x="450" 
d="M68 135q0 41 22 68t57.5 41t76.5 14q49 0 83 -14t57 -33v21q-9 9 -27 21t-46 20.5t-69 8.5q-47 0 -89.5 -16.5t-69 -49.5t-26.5 -84q0 -49 21.5 -80.5t57.5 -46.5t76 -15q50 0 88 22t59 58.5t21 80.5l-8 15q0 -43 -20.5 -76.5t-55.5 -52.5t-79 -19q-34 0 -63.5 12
t-47.5 37.5t-18 67.5zM92 382q17 15 37.5 29t47.5 22.5t60 8.5q55 0 85 -31.5t30 -87.5v-323h31v323q0 45 -16.5 77.5t-49 51t-80.5 18.5q-57 0 -96.5 -21t-64.5 -43zM366 699l-28 17l-164 -160l17 -12z" />
    <glyph glyph-name="acircumflex" unicode="&#xe2;" horiz-adv-x="450" 
d="M68 135q0 41 22 68t57.5 41t76.5 14q49 0 83 -14t57 -33v21q-9 9 -27 21t-46 20.5t-69 8.5q-47 0 -89.5 -16.5t-69 -49.5t-26.5 -84q0 -49 21.5 -80.5t57.5 -46.5t76 -15q50 0 88 22t59 58.5t21 80.5l-8 15q0 -43 -20.5 -76.5t-55.5 -52.5t-79 -19q-34 0 -63.5 12
t-47.5 37.5t-18 67.5zM92 382q17 15 37.5 29t47.5 22.5t60 8.5q55 0 85 -31.5t30 -87.5v-323h31v323q0 45 -16.5 77.5t-49 51t-80.5 18.5q-57 0 -96.5 -21t-64.5 -43zM237 660l141 -123l19 17l-160 140l-160 -140l20 -17z" />
    <glyph glyph-name="atilde" unicode="&#xe3;" horiz-adv-x="450" 
d="M68 135q0 41 22 68t57.5 41t76.5 14q49 0 83 -14t57 -33v21q-9 9 -27 21t-46 20.5t-69 8.5q-47 0 -89.5 -16.5t-69 -49.5t-26.5 -84q0 -49 21.5 -80.5t57.5 -46.5t76 -15q50 0 88 22t59 58.5t21 80.5l-8 15q0 -43 -20.5 -76.5t-55.5 -52.5t-79 -19q-34 0 -63.5 12
t-47.5 37.5t-18 67.5zM92 382q17 15 37.5 29t47.5 22.5t60 8.5q55 0 85 -31.5t30 -87.5v-323h31v323q0 45 -16.5 77.5t-49 51t-80.5 18.5q-57 0 -96.5 -21t-64.5 -43zM94 577l21 -12q0 12 5 23.5t17 19.5t32 8q23 0 39.5 -11.5t35 -23.5t45.5 -12q18 0 33 7t26 20.5t19 31.5
l-19 15q-12 -24 -24 -36t-32 -12t-34 7t-26.5 16.5t-27 16.5t-36.5 7t-38.5 -9t-25.5 -23.5t-10 -32.5z" />
    <glyph glyph-name="adieresis" unicode="&#xe4;" horiz-adv-x="450" 
d="M68 135q0 41 22 68t57.5 41t76.5 14q49 0 83 -14t57 -33v21q-9 9 -27 21t-46 20.5t-69 8.5q-47 0 -89.5 -16.5t-69 -49.5t-26.5 -84q0 -49 21.5 -80.5t57.5 -46.5t76 -15q50 0 88 22t59 58.5t21 80.5l-8 15q0 -43 -20.5 -76.5t-55.5 -52.5t-79 -19q-34 0 -63.5 12
t-47.5 37.5t-18 67.5zM92 382q17 15 37.5 29t47.5 22.5t60 8.5q55 0 85 -31.5t30 -87.5v-323h31v323q0 45 -16.5 77.5t-49 51t-80.5 18.5q-57 0 -96.5 -21t-64.5 -43zM292 568q0 -10 7.5 -17t16.5 -7q10 0 17 7t7 17t-7 17t-17 7q-9 0 -16.5 -7t-7.5 -17zM121 568
q0 -10 7 -17t16 -7q11 0 17.5 7t6.5 17t-6.5 17t-17.5 7q-9 0 -16 -7t-7 -17z" />
    <glyph glyph-name="aring" unicode="&#xe5;" horiz-adv-x="450" 
d="M68 135q0 41 22 68t57.5 41t76.5 14q49 0 83 -14t57 -33v21q-9 9 -27 21t-46 20.5t-69 8.5q-47 0 -89.5 -16.5t-69 -49.5t-26.5 -84q0 -49 21.5 -80.5t57.5 -46.5t76 -15q50 0 88 22t59 58.5t21 80.5l-8 15q0 -43 -20.5 -76.5t-55.5 -52.5t-79 -19q-34 0 -63.5 12
t-47.5 37.5t-18 67.5zM92 382q17 15 37.5 29t47.5 22.5t60 8.5q55 0 85 -31.5t30 -87.5v-323h31v323q0 45 -16.5 77.5t-49 51t-80.5 18.5q-57 0 -96.5 -21t-64.5 -43zM135 630q0 -45 31.5 -72.5t70.5 -27.5t70.5 27.5t31.5 72.5t-31.5 72.5t-70.5 27.5t-70.5 -27.5
t-31.5 -72.5zM157 630q0 36 24.5 57.5t55.5 21.5t55.5 -21.5t24.5 -57.5t-24.5 -57.5t-55.5 -21.5t-55.5 21.5t-24.5 57.5z" />
    <glyph glyph-name="ae" unicode="&#xe6;" horiz-adv-x="825" 
d="M198 -10q73 0 119.5 44.5t55.5 123.5h-6q17 -82 67 -125t129 -43q69 0 125.5 30.5t91.5 86.5l-25 16q-32 -50 -81.5 -77t-107.5 -27q-56 0 -97 26t-63 73t-22 112l-10 -7h411q2 8 2.5 12.5t0.5 11.5q0 64 -27 114t-73.5 79.5t-104.5 29.5q-50 0 -94.5 -21.5t-75.5 -58.5
t-43 -86h6q1 83 -32.5 124.5t-102.5 41.5q-45 0 -88 -16.5t-77 -47.5l16 -24q21 20 45 33.5t50 20t52 6.5q55 0 84 -33t29 -95v-82l16 1q-30 25 -65 37t-78 12q-56 0 -98.5 -19t-66 -53t-23.5 -80q0 -61 45 -100.5t116 -39.5zM198 18q-58 0 -94 31.5t-36 83.5q0 57 43 91
t115 34q40 0 74.5 -11.5t56.5 -31.5l-5 12l5 -66l1 35q-7 -86 -48.5 -132t-111.5 -46zM383 237q0 58 25.5 104.5t69.5 73.5t99 27q51 0 91 -24.5t63.5 -66.5t23.5 -95v-10t-2 -7l12 11h-391z" />
    <glyph glyph-name="ccedilla" unicode="&#xe7;" horiz-adv-x="485" 
d="M68 230q0 61 27 109t73.5 75t103.5 27q37 0 68.5 -11t54.5 -26.5t33 -30.5v39q-18 21 -61 39.5t-95 18.5q-67 0 -120 -31t-84 -85t-31 -124q0 -69 31 -123.5t84 -85.5t120 -31q52 0 95 18.5t61 39.5v39q-10 -15 -33 -30.5t-54.5 -26.5t-68.5 -11q-57 0 -103.5 27
t-73.5 75t-27 109zM264 15l-64 -111q17 11 37 17t38 6q23 0 41 -13.5t18 -41.5q0 -35 -25.5 -53.5t-58.5 -18.5q-23 0 -39 7.5t-35 24.5l-15 -16q21 -21 41 -29.5t48 -8.5t52 11t39.5 32t15.5 51q0 25 -11.5 41t-28 24.5t-33.5 8.5q-18 0 -27.5 -4.5t-24.5 -12.5l58 86h-26z
" />
    <glyph glyph-name="egrave" unicode="&#xe8;" horiz-adv-x="506" 
d="M62 223h400q1 6 1.5 12.5t0.5 12.5q0 66 -28 115.5t-75 78t-104 28.5q-52 0 -94.5 -21.5t-71 -60t-41.5 -89.5q-4 -16 -6 -33t-2 -35q0 -69 28 -123.5t75 -86t106 -31.5q62 0 100.5 18t62.5 45t42 54l-25 16q-15 -24 -36.5 -48t-55.5 -40t-85 -16q-52 0 -93 27t-64.5 75
t-23.5 110v9q0 64 26.5 109t68.5 69t89 24q49 0 89 -25t63.5 -68t20.5 -99h-368v-27zM114 688l174 -155l18 12l-165 160z" />
    <glyph glyph-name="eacute" unicode="&#xe9;" horiz-adv-x="506" 
d="M62 223h400q1 6 1.5 12.5t0.5 12.5q0 66 -28 115.5t-75 78t-104 28.5q-52 0 -94.5 -21.5t-71 -60t-41.5 -89.5q-4 -16 -6 -33t-2 -35q0 -69 28 -123.5t75 -86t106 -31.5q62 0 100.5 18t62.5 45t42 54l-25 16q-15 -24 -36.5 -48t-55.5 -40t-85 -16q-52 0 -93 27t-64.5 75
t-23.5 110v9q0 64 26.5 109t68.5 69t89 24q49 0 89 -25t63.5 -68t20.5 -99h-368v-27zM407 688l-28 17l-164 -160l17 -12z" />
    <glyph glyph-name="ecircumflex" unicode="&#xea;" horiz-adv-x="506" 
d="M62 223h400q1 6 1.5 12.5t0.5 12.5q0 66 -28 115.5t-75 78t-104 28.5q-52 0 -94.5 -21.5t-71 -60t-41.5 -89.5q-4 -16 -6 -33t-2 -35q0 -69 28 -123.5t75 -86t106 -31.5q62 0 100.5 18t62.5 45t42 54l-25 16q-15 -24 -36.5 -48t-55.5 -40t-85 -16q-52 0 -93 27t-64.5 75
t-23.5 110v9q0 64 26.5 109t68.5 69t89 24q49 0 89 -25t63.5 -68t20.5 -99h-368v-27zM257 653l141 -123l19 17l-160 140l-160 -140l20 -17z" />
    <glyph glyph-name="edieresis" unicode="&#xeb;" horiz-adv-x="506" 
d="M62 223h400q1 6 1.5 12.5t0.5 12.5q0 66 -28 115.5t-75 78t-104 28.5q-52 0 -94.5 -21.5t-71 -60t-41.5 -89.5q-4 -16 -6 -33t-2 -35q0 -69 28 -123.5t75 -86t106 -31.5q62 0 100.5 18t62.5 45t42 54l-25 16q-15 -24 -36.5 -48t-55.5 -40t-85 -16q-52 0 -93 27t-64.5 75
t-23.5 110v9q0 64 26.5 109t68.5 69t89 24q49 0 89 -25t63.5 -68t20.5 -99h-368v-27zM333 554q0 -10 7.5 -17t16.5 -7q11 0 17.5 7t6.5 17t-6.5 17t-17.5 7q-9 0 -16.5 -7t-7.5 -17zM133 554q0 -10 7.5 -17t16.5 -7q11 0 17.5 7t6.5 17t-6.5 17t-17.5 7q-9 0 -16.5 -7
t-7.5 -17z" />
    <glyph glyph-name="igrave" unicode="&#xec;" horiz-adv-x="211" 
d="M90 460v-460h31v460h-31zM-51 691l174 -155l18 12l-165 160z" />
    <glyph glyph-name="iacute" unicode="&#xed;" horiz-adv-x="211" 
d="M90 460v-460h31v460h-31zM262 691l-28 17l-164 -160l17 -12z" />
    <glyph glyph-name="icircumflex" unicode="&#xee;" horiz-adv-x="211" 
d="M90 460v-460h31v460h-31zM105 656l141 -123l19 17l-160 140l-160 -140l20 -17z" />
    <glyph glyph-name="idieresis" unicode="&#xef;" horiz-adv-x="211" 
d="M90 460v-460h31v460h-31zM167 563q0 -10 7.5 -17t16.5 -7q10 0 17 7t7 17t-7 17t-17 7q-9 0 -16.5 -7t-7.5 -17zM-5 563q0 -10 7.5 -17t17.5 -7t16.5 7t6.5 17t-6.5 17t-16.5 7t-17.5 -7t-7.5 -17z" />
    <glyph glyph-name="eth" unicode="&#xf0;" horiz-adv-x="548" 
d="M274 -10q67 0 117.5 29.5t78.5 82t28 121.5q0 33 -8 64.5t-27 68t-51.5 84.5t-82 113.5t-119.5 153.5l-19 -20q49 -61 83 -104t59.5 -77.5t47.5 -68t45 -74.5l14 1q-76 79 -183 79q-58 0 -105 -29.5t-74.5 -79t-27.5 -111.5q0 -69 28 -121.5t79 -82t117 -29.5zM274 20
q-57 0 -100.5 26t-68 72t-24.5 105q0 54 25 98t67 70.5t93 26.5q58 0 103.5 -25.5t71.5 -69.5t26 -100q0 -59 -24.5 -105t-68.5 -72t-100 -26zM180 515l257 109l-8 21l-257 -109z" />
    <glyph glyph-name="ntilde" unicode="&#xf1;" horiz-adv-x="490" 
d="M113 460h-31v-460h31v460zM377 308v-308h31v311q0 74 -35 116.5t-106 42.5q-47 0 -85.5 -25t-60.5 -67.5t-22 -97.5h14q0 44 19 80.5t53 58.5t76 22q63 0 89.5 -36.5t26.5 -96.5zM108 556l22 -12q0 12 4.5 23.5t16.5 19.5t32 8q23 0 39.5 -11.5t35.5 -23.5t46 -12
q18 0 33 7t26 20.5t19 31.5l-20 15q-12 -24 -24 -36t-32 -12t-34 7t-26 16.5t-27 16.5t-37 7t-38.5 -9t-25.5 -23.5t-10 -32.5z" />
    <glyph glyph-name="ograve" unicode="&#xf2;" horiz-adv-x="553" 
d="M42 230q0 -69 31 -123.5t84 -85.5t119 -31q67 0 120 31t84 85.5t31 123.5q0 70 -31 124t-84 85t-120 31q-66 0 -119 -31t-84 -85t-31 -124zM73 230q0 61 27 109t73.5 75t103.5 27t103 -27t73 -75t27 -109t-27 -109t-73 -75t-103 -27t-103.5 27t-73.5 74.5t-27 109.5z
M133 691l176 -155l16 12l-164 160z" />
    <glyph glyph-name="oacute" unicode="&#xf3;" horiz-adv-x="553" 
d="M42 230q0 -69 31 -123.5t84 -85.5t119 -31q67 0 120 31t84 85.5t31 123.5q0 70 -31 124t-84 85t-120 31q-66 0 -119 -31t-84 -85t-31 -124zM73 230q0 61 27 109t73.5 75t103.5 27t103 -27t73 -75t27 -109t-27 -109t-73 -75t-103 -27t-103.5 27t-73.5 74.5t-27 109.5z
M420 691l-28 17l-164 -160l16 -12z" />
    <glyph glyph-name="ocircumflex" unicode="&#xf4;" horiz-adv-x="553" 
d="M42 230q0 -69 31 -123.5t84 -85.5t119 -31q67 0 120 31t84 85.5t31 123.5q0 70 -31 124t-84 85t-120 31q-66 0 -119 -31t-84 -85t-31 -124zM73 230q0 61 27 109t73.5 75t103.5 27t103 -27t73 -75t27 -109t-27 -109t-73 -75t-103 -27t-103.5 27t-73.5 74.5t-27 109.5z
M277 673l140 -123l20 17l-160 140l-160 -140l19 -17z" />
    <glyph glyph-name="otilde" unicode="&#xf5;" horiz-adv-x="553" 
d="M42 230q0 -69 31 -123.5t84 -85.5t120 -31q66 0 119 31t84 85.5t31 123.5q0 70 -31 124t-84 85t-119 31q-67 0 -120 -31t-84 -85t-31 -124zM73 230q0 61 27 109t73.5 75t103.5 27t103 -27t73 -75t27 -109t-27 -109t-73 -75t-103 -27t-103.5 27t-73.5 75t-27 109zM139 556
l23 -12q0 12 4.5 23.5t16.5 19.5t32 8q23 0 39.5 -11.5t35.5 -23.5t46 -12q18 0 32.5 7t26 20.5t19.5 31.5l-21 15q-12 -24 -24 -36t-32 -12t-34 7t-26 16.5t-27 16.5t-37 7t-38.5 -9t-25 -23.5t-10.5 -32.5z" />
    <glyph glyph-name="odieresis" unicode="&#xf6;" horiz-adv-x="553" 
d="M42 230q0 -69 31 -123.5t84 -85.5t119 -31q67 0 120 31t84 85.5t31 123.5q0 70 -31 124t-84 85t-120 31q-66 0 -119 -31t-84 -85t-31 -124zM73 230q0 61 27 109t73.5 75t103.5 27t103 -27t73 -75t27 -109t-27 -109t-73 -75t-103 -27t-103.5 27t-73.5 74.5t-27 109.5z
M353 577q0 -10 7 -17t17 -7t16.5 7t6.5 17t-6.5 17t-16.5 7t-17 -7t-7 -17zM153 577q0 -10 7 -17t17 -7t16.5 7t6.5 17t-6.5 17t-16.5 7t-17 -7t-7 -17z" />
    <glyph glyph-name="divide" unicode="&#xf7;" horiz-adv-x="623" 
d="M286 451q0 -10 7.5 -17t16.5 -7q10 0 17 7t7 17t-7 17t-17 7q-9 0 -16.5 -7t-7.5 -17zM286 42q0 -10 7.5 -16.5t16.5 -6.5q10 0 17 6.5t7 16.5q0 11 -7 17.5t-17 6.5q-9 0 -16.5 -7t-7.5 -17zM60 232h500v31h-500v-31z" />
    <glyph glyph-name="oslash" unicode="&#xf8;" horiz-adv-x="546" 
d="M42 230q0 -69 31 -123.5t84 -85.5t119 -31q67 0 120 31t84 85.5t31 123.5q0 70 -31 124t-84 85t-120 31q-66 0 -119 -31t-84 -85t-31 -124zM73 230q0 61 27 109t73.5 75t103.5 27t103 -27t73 -75t27 -109t-27 -109t-73 -75t-103 -27t-103.5 27t-73.5 74.5t-27 109.5z
M453 495l-390 -524l19 -10l390 524z" />
    <glyph glyph-name="ugrave" unicode="&#xf9;" horiz-adv-x="490" 
d="M377 0h31v460h-31v-460zM113 159v301h-31v-304q0 -79 34.5 -122.5t105.5 -43.5q48 0 86 25t60.5 67.5t22.5 97.5h-14q0 -43 -19.5 -80t-53 -59t-76.5 -22q-61 0 -88 37.5t-27 102.5zM100 698l175 -155l17 12l-164 160z" />
    <glyph glyph-name="uacute" unicode="&#xfa;" horiz-adv-x="490" 
d="M377 0h31v460h-31v-460zM113 159v301h-31v-304q0 -79 34.5 -122.5t105.5 -43.5q48 0 86 25t60.5 67.5t22.5 97.5h-14q0 -43 -19.5 -80t-53 -59t-76.5 -22q-61 0 -88 37.5t-27 102.5zM390 698l-28 17l-164 -160l17 -12z" />
    <glyph glyph-name="ucircumflex" unicode="&#xfb;" horiz-adv-x="490" 
d="M377 0h31v460h-31v-460zM113 159v301h-31v-304q0 -79 34.5 -122.5t105.5 -43.5q48 0 86 25t60.5 67.5t22.5 97.5h-14q0 -43 -19.5 -80t-53 -59t-76.5 -22q-61 0 -88 37.5t-27 102.5zM245 666l140 -123l20 17l-160 140l-160 -140l19 -17z" />
    <glyph glyph-name="udieresis" unicode="&#xfc;" horiz-adv-x="490" 
d="M377 0h31v460h-31v-460zM113 159v301h-31v-304q0 -79 34.5 -122.5t105.5 -43.5q48 0 86 25t60.5 67.5t22.5 97.5h-14q0 -43 -19.5 -80t-53 -59t-76.5 -22q-61 0 -88 37.5t-27 102.5zM307 574q0 -10 7.5 -17t16.5 -7q10 0 16.5 7t6.5 17t-6.5 17t-16.5 7q-9 0 -16.5 -7
t-7.5 -17zM135 574q0 -10 7.5 -17t16.5 -7q10 0 17 7t7 17t-7 17t-17 7q-9 0 -16.5 -7t-7.5 -17z" />
    <glyph glyph-name="yacute" unicode="&#xfd;" horiz-adv-x="429" 
d="M422 460h-34l-179 -415l18 -2l-184 417h-36l193 -427l-112 -253h34zM363 691l-28 17l-164 -160l17 -12z" />
    <glyph glyph-name="thorn" unicode="&#xfe;" 
d="M108 -220v1000h-31v-1000h31zM507 230q0 74 -28.5 127.5t-78 83t-110.5 29.5q-60 0 -104 -33t-68 -88t-24 -119q0 -63 24 -118.5t68 -88.5t104 -33q61 0 110.5 29.5t78 83.5t28.5 127zM477 230q0 -65 -26 -112.5t-69 -73t-97 -25.5q-48 0 -88.5 29.5t-64.5 77t-24 104.5
t24 104.5t64.5 77t88.5 29.5q54 0 97 -25.5t69 -72.5t26 -113z" />
    <glyph glyph-name="ydieresis" unicode="&#xff;" horiz-adv-x="429" 
d="M422 460h-34l-179 -415l18 -2l-184 417h-36l193 -427l-112 -253h34zM277 568q0 -10 7 -17t16 -7q11 0 18 7t7 17t-7 17t-18 7q-9 0 -16 -7t-7 -17zM105 568q0 -10 7 -17t16 -7q11 0 18 7t7 17t-7 17t-18 7q-9 0 -16 -7t-7 -17z" />
    <glyph glyph-name="Amacron" unicode="&#x100;" horiz-adv-x="618" 
d="M133 254h352l-9 30h-334zM309 645l152 -374l3 -8l105 -263h37l-297 721l-297 -721h36l107 265l3 8zM134 795h350v29h-350v-29z" />
    <glyph glyph-name="amacron" unicode="&#x101;" horiz-adv-x="450" 
d="M68 135q0 41 22 68t57.5 41t76.5 14q49 0 83 -14t57 -33v21q-9 9 -27 21t-46 20.5t-69 8.5q-47 0 -89.5 -16.5t-69 -49.5t-26.5 -84q0 -49 21.5 -80.5t57.5 -46.5t76 -15q50 0 88 22t59 58.5t21 80.5l-8 15q0 -43 -20.5 -76.5t-55.5 -52.5t-79 -19q-34 0 -63.5 12
t-47.5 37.5t-18 67.5zM92 382q17 15 37.5 29t47.5 22.5t60 8.5q55 0 85 -31.5t30 -87.5v-323h31v323q0 45 -16.5 77.5t-49 51t-80.5 18.5q-57 0 -96.5 -21t-64.5 -43zM62 550h350v29h-350v-29z" />
    <glyph glyph-name="Abreve" unicode="&#x102;" horiz-adv-x="618" 
d="M133 254h352l-9 30h-334zM309 645l152 -374l3 -8l105 -263h37l-297 721l-297 -721h36l107 265l3 8zM151 928q0 -34 17.5 -66.5t53 -53t87.5 -20.5q53 0 88 20.5t52.5 53t17.5 66.5h-28q0 -27 -15 -53t-43.5 -43.5t-71.5 -17.5t-72 17.5t-43.5 43.5t-14.5 53h-28z" />
    <glyph glyph-name="abreve" unicode="&#x103;" horiz-adv-x="450" 
d="M68 135q0 41 22 68t57.5 41t76.5 14q49 0 83 -14t57 -33v21q-9 9 -27 21t-46 20.5t-69 8.5q-47 0 -89.5 -16.5t-69 -49.5t-26.5 -84q0 -49 21.5 -80.5t57.5 -46.5t76 -15q50 0 88 22t59 58.5t21 80.5l-8 15q0 -43 -20.5 -76.5t-55.5 -52.5t-79 -19q-34 0 -63.5 12
t-47.5 37.5t-18 67.5zM92 382q17 15 37.5 29t47.5 22.5t60 8.5q55 0 85 -31.5t30 -87.5v-323h31v323q0 45 -16.5 77.5t-49 51t-80.5 18.5q-57 0 -96.5 -21t-64.5 -43zM72 677q0 -34 17.5 -66.5t53 -53t87.5 -20.5q53 0 88 20.5t52.5 53t17.5 66.5h-28q0 -27 -14.5 -53
t-43.5 -43.5t-72 -17.5q-42 0 -71 17.5t-44 43.5t-15 53h-28z" />
    <glyph glyph-name="Aogonek" unicode="&#x104;" horiz-adv-x="618" 
d="M134 254h351l-9 30h-333zM309 645l152 -374l3 -8l105 -263h37l-297 721l-297 -721h36l107 265l3 8zM631 -160q-11 -13 -31.5 -22.5t-47.5 -9.5q-33 0 -56.5 16t-23.5 48q0 26 20.5 49.5t51 43.5t62.5 35l-17 14q-35 -18 -69 -39.5t-56 -48.5t-22 -60q0 -26 12.5 -45.5
t37 -30t59.5 -10.5q32 0 58 12.5t37 27.5z" />
    <glyph glyph-name="aogonek" unicode="&#x105;" horiz-adv-x="450" 
d="M68 135q0 41 22 68t57.5 41t76.5 14q49 0 83 -14t57 -33v21q-9 9 -27 21t-46 20.5t-69 8.5q-49 0 -91 -17t-68 -49.5t-26 -81.5q0 -50 22 -82t58 -47t75 -15q50 0 88 22t59 58.5t21 80.5l-8 15q0 -43 -20.5 -76.5t-55.5 -52.5t-79 -19q-32 0 -62 12t-48.5 37.5
t-18.5 67.5zM92 382q17 15 37.5 29t47.5 22.5t60 8.5q55 0 85 -31.5t30 -87.5v-323h31v323q0 45 -16.5 77.5t-49 51t-80.5 18.5q-57 0 -96.5 -21t-64.5 -43zM408 -160q-11 -13 -31.5 -22.5t-47.5 -9.5q-32 0 -56 16t-24 48q0 26 20.5 49.5t51 43.5t62.5 35l-17 14
q-35 -18 -69 -39.5t-56 -48.5t-22 -60q0 -26 12.5 -45.5t37 -30t59.5 -10.5q32 0 58 12.5t37 27.5z" />
    <glyph glyph-name="Cacute" unicode="&#x106;" horiz-adv-x="685" 
d="M82 350q0 96 39.5 169t107.5 114.5t154 41.5q48 0 88.5 -10t75 -30t61.5 -49v43q-44 39 -96 59.5t-129 20.5q-73 0 -134.5 -26.5t-106.5 -75t-70 -114t-25 -143.5t25 -143.5t70 -114t106.5 -75t134.5 -26.5q77 0 129 20.5t96 59.5v44q-28 -29 -61 -49.5t-73.5 -30.5
t-90.5 -10q-86 0 -154 42t-107.5 115.5t-39.5 167.5zM517 924l-27 17l-165 -160l16 -12z" />
    <glyph glyph-name="cacute" unicode="&#x107;" horiz-adv-x="485" 
d="M68 230q0 61 27 109t73.5 75t103.5 27q37 0 68.5 -11t54.5 -26.5t33 -30.5v39q-18 21 -61 39.5t-95 18.5q-67 0 -120 -31t-84 -85t-31 -124q0 -69 31 -123.5t84 -85.5t120 -31q52 0 95 18.5t61 39.5v39q-10 -15 -33 -30.5t-54.5 -26.5t-68.5 -11q-57 0 -103.5 27
t-73.5 75t-27 109zM412 692l-28 17l-164 -160l18 -12z" />
    <glyph glyph-name="Ccircumflex" unicode="&#x108;" horiz-adv-x="685" 
d="M82 350q0 96 39.5 169t107.5 114.5t154 41.5q48 0 88.5 -10t75 -30t61.5 -49v43q-44 39 -96 59.5t-129 20.5q-73 0 -134.5 -26.5t-106.5 -75t-70 -114t-25 -143.5t25 -143.5t70 -114t106.5 -75t134.5 -26.5q77 0 129 20.5t96 59.5v44q-28 -29 -61 -49.5t-73.5 -30.5
t-90.5 -10q-86 0 -154 42t-107.5 115.5t-39.5 167.5zM383 892l140 -123l20 16l-160 140l-160 -140l20 -16z" />
    <glyph glyph-name="ccircumflex" unicode="&#x109;" horiz-adv-x="485" 
d="M68 230q0 61 27 109t73.5 75t103.5 27q37 0 68.5 -11t54.5 -26.5t33 -30.5v39q-18 21 -61 39.5t-95 18.5q-67 0 -120 -31t-84 -85t-31 -124q0 -69 31 -123.5t84 -85.5t120 -31q52 0 95 18.5t61 39.5v39q-10 -15 -33 -30.5t-54.5 -26.5t-68.5 -11q-57 0 -103.5 27
t-73.5 75t-27 109zM272 653l140 -123l20 17l-160 140l-160 -140l19 -17z" />
    <glyph glyph-name="Cdotaccent" unicode="&#x10a;" horiz-adv-x="685" 
d="M82 350q0 96 39.5 169t107.5 114.5t154 41.5q48 0 88.5 -10t75 -30t61.5 -49v43q-44 39 -96 59.5t-129 20.5q-73 0 -134.5 -26.5t-106.5 -75t-70 -114t-25 -143.5t25 -143.5t70 -114t106.5 -75t134.5 -26.5q77 0 129 20.5t96 59.5v44q-28 -29 -61 -49.5t-73.5 -30.5
t-90.5 -10q-86 0 -154 42t-107.5 115.5t-39.5 167.5zM359 800q0 -10 7.5 -17t16.5 -7q10 0 17 7t7 17t-7 16.5t-17 6.5q-9 0 -16.5 -6.5t-7.5 -16.5z" />
    <glyph glyph-name="cdotaccent" unicode="&#x10b;" horiz-adv-x="485" 
d="M68 230q0 61 27 109t73.5 75t103.5 27q37 0 68.5 -11t54.5 -26.5t33 -30.5v39q-18 21 -61 39.5t-95 18.5q-67 0 -120 -31t-84 -85t-31 -124q0 -69 31 -123.5t84 -85.5t120 -31q52 0 95 18.5t61 39.5v39q-10 -15 -33 -30.5t-54.5 -26.5t-68.5 -11q-57 0 -103.5 27
t-73.5 75t-27 109zM248 561q0 -10 7 -17t17 -7t16.5 7t6.5 17t-6.5 17t-16.5 7t-17 -7t-7 -17z" />
    <glyph glyph-name="Ccaron" unicode="&#x10c;" horiz-adv-x="685" 
d="M82 350q0 96 39.5 169t107.5 114.5t154 41.5q48 0 88.5 -10t75 -30t61.5 -49v43q-44 39 -96 59.5t-129 20.5q-73 0 -134.5 -26.5t-106.5 -75t-70 -114t-25 -143.5t25 -143.5t70 -114t106.5 -75t134.5 -26.5q77 0 129 20.5t96 59.5v44q-28 -29 -61 -49.5t-73.5 -30.5
t-90.5 -10q-86 0 -154 42t-107.5 115.5t-39.5 167.5zM383 809l-140 124l-20 -17l160 -140l160 140l-20 17z" />
    <glyph glyph-name="ccaron" unicode="&#x10d;" horiz-adv-x="485" 
d="M68 230q0 61 27 109t73.5 75t103.5 27q37 0 68.5 -11t54.5 -26.5t33 -30.5v39q-18 21 -61 39.5t-95 18.5q-67 0 -120 -31t-84 -85t-31 -124q0 -69 31 -123.5t84 -85.5t120 -31q52 0 95 18.5t61 39.5v39q-10 -15 -33 -30.5t-54.5 -26.5t-68.5 -11q-57 0 -103.5 27
t-73.5 75t-27 109zM272 578l-140 124l-20 -18l160 -140l160 140l-21 18z" />
    <glyph glyph-name="Dcaron" unicode="&#x10e;" horiz-adv-x="648" 
d="M87 700v-700h33v700h-33zM262 0q102 0 178.5 44t118.5 122.5t42 183.5t-42 183.5t-118.5 122.5t-178.5 44h-158v-33h158q70 0 127 -22t96.5 -64t61 -100.5t21.5 -130.5t-21.5 -130.5t-61 -100.5t-96.5 -64t-127 -22h-158v-33h158zM322 823l-140 124l-20 -17l160 -140
l160 140l-21 17z" />
    <glyph glyph-name="dcaron" unicode="&#x10f;" horiz-adv-x="570" 
d="M442 780v-780h30v780h-30zM42 230q0 -73 29 -127t78.5 -83.5t109.5 -29.5q61 0 105 33t68 88.5t24 118.5q0 64 -24 119t-68 88t-105 33q-60 0 -109.5 -29.5t-78.5 -83t-29 -127.5zM73 230q0 66 25.5 113t69 72.5t97.5 25.5q49 0 89 -29.5t64 -77t24 -104.5t-24 -104.5
t-64 -77t-89 -29.5q-54 0 -97.5 25.5t-69 73t-25.5 112.5zM644 769l-100 -255l21 -8l110 250z" />
    <glyph glyph-name="Dcroat" unicode="&#x110;" horiz-adv-x="680" 
d="M5 335h300v29h-300v-29zM87 700v-700h33v700h-33zM262 0q102 0 178.5 44t118.5 122.5t42 183.5t-42 183.5t-118.5 122.5t-178.5 44h-158v-33h158q69 0 126 -22t97 -64t61.5 -100.5t21.5 -130.5t-21.5 -130.5t-61.5 -100.5t-97 -64t-126 -22h-158v-33h158z" />
    <glyph glyph-name="dcroat" unicode="&#x111;" 
d="M295 636h300v29h-300v-29zM442 780v-780h30v780h-30zM42 230q0 -74 29 -128t78.5 -83t109.5 -29q58 0 102.5 32t69.5 86.5t25 121.5q0 68 -25 122t-69.5 86t-102.5 32q-60 0 -109.5 -29t-78.5 -82.5t-29 -128.5zM73 230q0 66 25.5 113t69.5 72.5t97 25.5q38 0 70 -17.5
t56 -48t37.5 -68t13.5 -77.5t-13.5 -77.5t-37.5 -68t-56 -48t-70 -17.5q-53 0 -97 25.5t-69.5 73t-25.5 112.5z" />
    <glyph glyph-name="Emacron" unicode="&#x112;" horiz-adv-x="522" 
d="M102 0h343v31h-343v-31zM102 669h343v31h-343v-31zM102 371h323v31h-323v-31zM87 700v-700h33v700h-33zM105 816h350v29h-350v-29z" />
    <glyph glyph-name="emacron" unicode="&#x113;" horiz-adv-x="506" 
d="M62 223h400q1 6 1.5 12.5t0.5 12.5q0 66 -28 115.5t-75 78t-104 28.5q-52 0 -94.5 -21.5t-71 -60t-41.5 -89.5q-4 -16 -6 -33t-2 -35q0 -69 28 -123.5t75 -86t106 -31.5q62 0 100.5 18t62.5 45t42 54l-25 16q-15 -24 -36.5 -48t-55.5 -40t-85 -16q-52 0 -93 27t-64.5 75
t-23.5 110v9q0 64 26.5 109t68.5 69t89 24q49 0 89 -25t63.5 -68t20.5 -99h-368v-27zM82 530h350v29h-350v-29z" />
    <glyph glyph-name="Ebreve" unicode="&#x114;" horiz-adv-x="522" 
d="M102 0h343v31h-343v-31zM102 669h343v31h-343v-31zM102 371h323v31h-323v-31zM87 700v-700h33v700h-33zM115 909q0 -34 17.5 -66.5t53 -53t87.5 -20.5q53 0 88 20.5t52.5 53t17.5 66.5h-28q0 -28 -15 -54t-43.5 -43t-71.5 -17t-72 17t-43.5 43t-14.5 54h-28z" />
    <glyph glyph-name="ebreve" unicode="&#x115;" horiz-adv-x="506" 
d="M62 223h400q1 6 1.5 12.5t0.5 12.5q0 66 -28 115.5t-75 78t-104 28.5q-52 0 -94.5 -21.5t-71 -60t-41.5 -89.5q-4 -16 -6 -33t-2 -35q0 -69 28 -123.5t75 -86t106 -31.5q62 0 100.5 18t62.5 45t42 54l-25 16q-15 -24 -36.5 -48t-55.5 -40t-85 -16q-52 0 -93 27t-64.5 75
t-23.5 110v9q0 64 26.5 109t68.5 69t89 24q49 0 89 -25t63.5 -68t20.5 -99h-368v-27zM99 670q0 -34 17.5 -66.5t53 -53t87.5 -20.5q53 0 88 20.5t52.5 53t17.5 66.5h-28q0 -27 -14.5 -53t-43.5 -43.5t-72 -17.5q-42 0 -71 17.5t-44 43.5t-15 53h-28z" />
    <glyph glyph-name="Edotaccent" unicode="&#x116;" horiz-adv-x="522" 
d="M102 0h343v31h-343v-31zM102 669h343v31h-343v-31zM102 371h323v31h-323v-31zM87 700v-700h33v700h-33zM242 792q0 -9 7 -16t17 -7t17 7t7 16q0 11 -7 17.5t-17 6.5q-9 0 -16.5 -7t-7.5 -17z" />
    <glyph glyph-name="edotaccent" unicode="&#x117;" horiz-adv-x="506" 
d="M62 223h400q1 6 1.5 12.5t0.5 12.5q0 66 -28 115.5t-75 78t-104 28.5q-52 0 -94.5 -21.5t-71 -60t-41.5 -89.5q-4 -16 -6 -33t-2 -35q0 -69 28 -123.5t75 -86t106 -31.5q62 0 100.5 18t62.5 45t42 54l-25 16q-15 -24 -36.5 -48t-55.5 -40t-85 -16q-52 0 -93 27t-64.5 75
t-23.5 110v9q0 64 26.5 109t68.5 69t89 24q49 0 89 -25t63.5 -68t20.5 -99h-368v-27zM233 554q0 -10 7.5 -17t16.5 -7q11 0 17.5 7t6.5 17t-6.5 17t-17.5 7q-9 0 -16.5 -7t-7.5 -17z" />
    <glyph glyph-name="Eogonek" unicode="&#x118;" horiz-adv-x="522" 
d="M102 0h343v31h-343v-31zM102 669h343v31h-343v-31zM102 371h323v31h-323v-31zM87 700v-700h33v700h-33zM435 -160q-11 -13 -31.5 -22.5t-47.5 -9.5q-33 0 -56.5 16t-23.5 48q0 26 20.5 49.5t51 43.5t61.5 35l-17 14q-35 -18 -68.5 -39.5t-55.5 -48.5t-22 -60
q0 -26 12.5 -45.5t37 -30t59.5 -10.5q32 0 58 12.5t37 27.5z" />
    <glyph glyph-name="eogonek" unicode="&#x119;" horiz-adv-x="506" 
d="M62 223h400q1 6 1.5 12.5t0.5 12.5q0 66 -28 115.5t-75 78t-104 28.5q-52 0 -94.5 -21.5t-71 -60t-41.5 -89.5q-4 -16 -6 -33t-2 -35q0 -69 28 -123.5t75 -86t106 -31.5q46 0 78.5 11t55 28.5t39.5 38t32 39.5l-25 16q-15 -24 -36.5 -48t-55.5 -40t-85 -16q-52 0 -93 27
t-64.5 75t-23.5 110v9q0 64 26.5 109t68.5 69t89 24q49 0 89 -25t63.5 -68t20.5 -99h-368v-27zM486 -109q-11 -12 -32 -22t-48 -10q-33 0 -56 16t-23 45q0 27 19 53.5t49 58.5t61 75l-25 -3q-20 -29 -43 -53.5t-44 -46.5t-34.5 -44.5t-13.5 -47.5t13.5 -43.5t37 -27.5
t55.5 -9t59.5 12.5t38.5 27.5z" />
    <glyph glyph-name="Ecaron" unicode="&#x11a;" horiz-adv-x="522" 
d="M102 0h343v31h-343v-31zM102 669h343v31h-343v-31zM102 371h323v31h-323v-31zM87 700v-700h33v700h-33zM266 802l-140 124l-20 -17l160 -140l160 140l-20 17z" />
    <glyph glyph-name="ecaron" unicode="&#x11b;" horiz-adv-x="506" 
d="M62 223h400q1 6 1.5 12.5t0.5 12.5q0 66 -28 115.5t-75 78t-104 28.5q-52 0 -94.5 -21.5t-71 -60t-41.5 -89.5q-4 -16 -6 -33t-2 -35q0 -69 28 -123.5t75 -86t106 -31.5q62 0 100.5 18t62.5 45t42 54l-25 16q-15 -24 -36.5 -48t-55.5 -40t-85 -16q-52 0 -93 27t-64.5 75
t-23.5 110v9q0 64 26.5 109t68.5 69t89 24q49 0 89 -25t63.5 -68t20.5 -99h-368v-27zM257 563l-139 124l-21 -17l160 -140l160 140l-20 17z" />
    <glyph glyph-name="Gcircumflex" unicode="&#x11c;" horiz-adv-x="768" 
d="M416 314h265q-3 -59 -24.5 -111t-59.5 -92.5t-90 -63.5t-116 -23q-89 0 -159.5 42t-110.5 116t-40 168q0 96 40.5 169t111 115t158.5 42q89 0 155.5 -39.5t102.5 -99.5l24 20q-30 46 -71 79.5t-93.5 53t-117.5 19.5q-73 0 -136 -26.5t-109.5 -75t-72.5 -114t-26 -143.5
t26 -143.5t72.5 -114t109.5 -75t136 -26.5q76 0 136 28.5t102 78t64.5 113t22.5 133.5h-300v-30zM391 892l141 -123l19 16l-160 140l-160 -140l20 -16z" />
    <glyph glyph-name="gcircumflex" unicode="&#x11d;" 
d="M55 -30q0 -59 25.5 -104.5t71.5 -70.5t106 -25q58 0 106.5 27t78 80.5t29.5 132.5v450h-30v-450q0 -71 -26 -118.5t-68 -70t-90 -22.5q-51 0 -90 22t-60.5 60t-21.5 89h-31zM42 230q0 -73 29 -127t78.5 -83.5t109.5 -29.5q61 0 105 33t68 88.5t24 118.5q0 64 -24 119
t-68 88t-105 33q-60 0 -109.5 -29.5t-78.5 -83t-29 -127.5zM73 230q0 66 25.5 113t69 72.5t97.5 25.5q36 0 68.5 -17.5t56.5 -47t38 -66t14 -76.5q0 -58 -24 -107t-64 -78.5t-89 -29.5q-54 0 -97.5 25.5t-69 73t-25.5 112.5zM259 653l141 -123l19 17l-160 140l-160 -140
l20 -17z" />
    <glyph glyph-name="Gbreve" unicode="&#x11e;" horiz-adv-x="768" 
d="M416 314h265q-3 -59 -24.5 -111t-59.5 -92.5t-90 -63.5t-116 -23q-89 0 -159.5 42t-110.5 116t-40 168q0 96 40.5 169t111 115t158.5 42q89 0 155.5 -39.5t102.5 -99.5l24 20q-30 46 -71 79.5t-93.5 53t-117.5 19.5q-73 0 -136 -26.5t-110 -75t-72.5 -114t-25.5 -143.5
t25.5 -143.5t72.5 -114t110 -75t136 -26.5q76 0 136 28.5t102 78t64.5 113t22.5 133.5h-300v-30zM233 909q0 -34 17.5 -66.5t53 -53t87.5 -20.5q53 0 88 20.5t52.5 53t17.5 66.5h-27q0 -28 -15 -54t-44 -43t-72 -17q-42 0 -71 17t-44 43t-15 54h-28z" />
    <glyph glyph-name="gbreve" unicode="&#x11f;" 
d="M55 -30q0 -59 25.5 -104.5t71.5 -70.5t106 -25q58 0 106.5 27t78 80.5t29.5 132.5v450h-30v-450q0 -71 -26 -118.5t-68 -70t-90 -22.5q-51 0 -90 22t-60.5 60t-21.5 89h-31zM42 230q0 -73 29 -127t78.5 -83.5t109.5 -29.5q61 0 105 33t68 88.5t24 118.5q0 64 -24 119
t-68 88t-105 33q-60 0 -109.5 -29.5t-78.5 -83t-29 -127.5zM73 230q0 66 25.5 113t69 72.5t97.5 25.5q36 0 68.5 -17.5t56.5 -47t38 -66t14 -76.5q0 -58 -24 -107t-64 -78.5t-89 -29.5q-54 0 -97.5 25.5t-69 73t-25.5 112.5zM101 670q0 -34 17.5 -66.5t53 -53t87.5 -20.5
q53 0 88 20.5t52.5 53t17.5 66.5h-27q0 -27 -15 -53t-44 -43.5t-72 -17.5q-42 0 -71 17.5t-44 43.5t-15 53h-28z" />
    <glyph glyph-name="Gdotaccent" unicode="&#x120;" horiz-adv-x="768" 
d="M416 314h265q-3 -59 -24.5 -111t-59.5 -92.5t-90 -63.5t-116 -23q-89 0 -159.5 42t-110.5 116t-40 168q0 96 40.5 169t111 115t158.5 42q89 0 155.5 -39.5t102.5 -99.5l24 20q-30 46 -71 79.5t-93.5 53t-117.5 19.5q-73 0 -136 -26.5t-109.5 -75t-72.5 -114t-26 -143.5
t26 -143.5t72.5 -114t109.5 -75t136 -26.5q76 0 136 28.5t102 78t64.5 113t22.5 133.5h-300v-30zM368 792q0 -9 7 -16t16 -7q11 0 17.5 7t6.5 16q0 11 -6.5 17.5t-17.5 6.5q-9 0 -16 -6.5t-7 -17.5z" />
    <glyph glyph-name="gdotaccent" unicode="&#x121;" 
d="M55 -30q0 -59 25.5 -104.5t71.5 -70.5t106 -25q58 0 106.5 27t78 80.5t29.5 132.5v450h-30v-450q0 -71 -26 -118.5t-68 -70t-90 -22.5q-51 0 -90 22t-60.5 60t-21.5 89h-31zM42 230q0 -73 29 -127t78.5 -83.5t109.5 -29.5q61 0 105 33t68 88.5t24 118.5q0 64 -24 119
t-68 88t-105 33q-60 0 -109.5 -29.5t-78.5 -83t-29 -127.5zM73 230q0 66 25.5 113t69 72.5t97.5 25.5q36 0 68.5 -17.5t56.5 -47t38 -66t14 -76.5q0 -58 -24 -107t-64 -78.5t-89 -29.5q-54 0 -97.5 25.5t-69 73t-25.5 112.5zM241 566q0 -10 7.5 -17t16.5 -7q11 0 17.5 7
t6.5 17t-6.5 17t-17.5 7q-9 0 -16.5 -7t-7.5 -17z" />
    <glyph glyph-name="uni0122" unicode="&#x122;" horiz-adv-x="768" 
d="M416 314h265q-3 -59 -24.5 -111t-59.5 -92.5t-90 -63.5t-116 -23q-89 0 -159.5 42t-110.5 116t-40 168q0 96 40.5 169t111 115t158.5 42q89 0 155.5 -39.5t102.5 -99.5l24 20q-30 46 -71 79.5t-93.5 53t-117.5 19.5q-73 0 -136 -26.5t-109.5 -75t-72.5 -114t-26 -143.5
t26 -143.5t72.5 -114t109.5 -75t136 -26.5q76 0 136 28.5t102 78t64.5 113t22.5 133.5h-300v-30zM426 -69l-100 -254l21 -8l110 250z" />
    <glyph glyph-name="uni0123" unicode="&#x123;" horiz-adv-x="570" 
d="M55 -30q0 -59 25.5 -104.5t71.5 -70.5t106 -25q58 0 106.5 27t78 80.5t29.5 132.5v450h-30v-450q0 -71 -26 -118.5t-68 -70t-90 -22.5q-51 0 -90 22t-60.5 60t-21.5 89h-31zM42 230q0 -73 29 -127t78.5 -83.5t109.5 -29.5q61 0 105 33t68 88.5t24 118.5q0 64 -24 119
t-68 88t-105 33q-60 0 -109.5 -29.5t-78.5 -83t-29 -127.5zM73 230q0 66 25.5 113t69 72.5t97.5 25.5q36 0 68.5 -17.5t56.5 -47t38 -66t14 -76.5q0 -58 -24 -107t-64 -78.5t-89 -29.5q-54 0 -97.5 25.5t-69 73t-25.5 112.5zM265 560l138 236l-20 11l-147 -230z" />
    <glyph glyph-name="Hcircumflex" unicode="&#x124;" horiz-adv-x="667" 
d="M103 366h466v31h-466v-31zM547 700v-700h33v700h-33zM87 700v-700h33v700h-33zM334 892l140 -123l20 16l-160 140l-160 -140l19 -16z" />
    <glyph glyph-name="hcircumflex" unicode="&#x125;" horiz-adv-x="490" 
d="M113 780h-31v-780h31v780zM377 308v-308h31v311q0 50 -15.5 85t-46.5 54.5t-79 19.5q-47 0 -85.5 -25t-60.5 -67.5t-22 -97.5h14q0 44 19 80.5t53 58.5t76 22q63 0 89.5 -36.5t26.5 -96.5zM105 963l140 -123l20 17l-160 140l-160 -140l19 -17z" />
    <glyph glyph-name="Hbar" unicode="&#x126;" horiz-adv-x="667" 
d="M103 366h466v31h-466v-31zM547 700v-700h33v700h-33zM87 700v-700h33v700h-33zM5 586h657v29h-657v-29z" />
    <glyph glyph-name="hbar" unicode="&#x127;" horiz-adv-x="525" 
d="M113 780h-31v-780h31v780zM377 308v-308h31v311q0 50 -15.5 85t-46.5 54.5t-79 19.5q-47 0 -84.5 -25t-59.5 -67.5t-22 -97.5h12q0 44 19 80.5t53 58.5t76 22q63 0 89.5 -36.5t26.5 -96.5zM5 671h312v29h-312v-29z" />
    <glyph glyph-name="Itilde" unicode="&#x128;" horiz-adv-x="199" 
d="M84 700v-700h32v700h-32zM-30 824l22 -12q0 12 4.5 23.5t16.5 19.5t32 8q23 0 39.5 -11.5t35.5 -23.5t46 -12q18 0 33 7t26 20.5t19 31.5l-20 15q-12 -24 -24 -36t-32 -12t-34 7t-26 16.5t-27 16.5t-37 7t-38.5 -9t-25.5 -23.5t-10 -32.5z" />
    <glyph glyph-name="itilde" unicode="&#x129;" horiz-adv-x="211" 
d="M90 460v-460h31v460h-31zM-23 584l22 -12q0 12 4.5 23.5t16.5 19.5t32 8q23 0 39.5 -11.5t35.5 -23.5t46 -12q18 0 33 7t26 20.5t19 31.5l-20 15q-12 -24 -24 -36t-32 -12t-34 7t-26 16.5t-27 16.5t-37 7t-38.5 -9t-25.5 -23.5t-10 -32.5z" />
    <glyph glyph-name="Imacron" unicode="&#x12a;" horiz-adv-x="199" 
d="M84 700v-700h32v700h-32zM-52 816h350v29h-350v-29z" />
    <glyph glyph-name="imacron" unicode="&#x12b;" horiz-adv-x="211" 
d="M90 460v-460h31v460h-31zM-45 576h350v29h-350v-29z" />
    <glyph glyph-name="Ibreve" unicode="&#x12c;" horiz-adv-x="199" 
d="M84 700v-700h32v700h-32zM-60 910q0 -34 17.5 -66.5t53 -53t87.5 -20.5q53 0 88 20.5t52.5 53t17.5 66.5h-28q0 -27 -14.5 -53t-43.5 -43.5t-72 -17.5t-71.5 17.5t-43.5 43.5t-15 53h-28z" />
    <glyph glyph-name="ibreve" unicode="&#x12d;" horiz-adv-x="211" 
d="M90 460v-460h31v460h-31zM-53 670q0 -34 17.5 -66.5t53 -53t87.5 -20.5q53 0 88 20.5t52.5 53t17.5 66.5h-28q0 -27 -14.5 -53t-43.5 -43.5t-72 -17.5t-71.5 17.5t-43.5 43.5t-15 53h-28z" />
    <glyph glyph-name="Iogonek" unicode="&#x12e;" horiz-adv-x="199" 
d="M84 700v-700h32v700h-32zM141 -160q-11 -13 -31.5 -22.5t-47.5 -9.5q-33 0 -56.5 16t-23.5 48q0 26 20.5 49.5t51 43.5t62.5 35l-17 14q-35 -18 -69 -39.5t-56 -48.5t-22 -60q0 -26 12.5 -45.5t37 -30t59.5 -10.5q32 0 58 12.5t37 27.5z" />
    <glyph glyph-name="iogonek" unicode="&#x12f;" horiz-adv-x="211" 
d="M82 682q0 -9 6.5 -16t16.5 -7q11 0 17 7t6 16q0 10 -6 16.5t-17 6.5q-10 0 -16.5 -6.5t-6.5 -16.5zM90 460v-460h31v460h-31zM146 -160q-11 -13 -31.5 -22.5t-47.5 -9.5q-33 0 -56.5 16t-23.5 48q0 26 20.5 49.5t51 43.5t62.5 35l-17 14q-35 -18 -69 -39.5t-56 -48.5
t-22 -60q0 -26 12.5 -45.5t37 -30t59.5 -10.5q32 0 58 12.5t37 27.5z" />
    <glyph glyph-name="Idotaccent" unicode="&#x130;" horiz-adv-x="199" 
d="M84 700v-700h32v700h-32zM75 797q0 -10 7.5 -16.5t17.5 -6.5t16.5 6.5t6.5 16.5q0 11 -6.5 17.5t-16.5 6.5t-17.5 -7t-7.5 -17z" />
    <glyph glyph-name="dotlessi" unicode="&#x131;" horiz-adv-x="211" 
d="M90 460v-460h31v460h-31z" />
    <glyph glyph-name="IJ" unicode="&#x132;" horiz-adv-x="490" 
d="M141 -142l-18 -24q8 -10 25.5 -23t42 -22t50.5 -9q35 0 60 9.5t41 29.5t23.5 50t7.5 71v760h-32v-750q0 -76 -22.5 -107.5t-76.5 -31.5q-32 0 -58.5 14.5t-42.5 32.5zM84 700v-700h32v700h-32z" />
    <glyph glyph-name="ij" unicode="&#x133;" horiz-adv-x="510" 
d="M332 682q0 -9 6.5 -16t16.5 -7q11 0 17 7t6 16q0 10 -6 16.5t-17 6.5q-10 0 -16.5 -6.5t-6.5 -16.5zM187 -150l-18 -24q8 -10 20 -20.5t28.5 -18t37.5 -7.5q42 0 67.5 19.5t37 52.5t11.5 72v536h-31v-533q0 -29 -7.5 -55.5t-25.5 -43.5t-50 -17q-24 0 -41 11.5t-29 27.5z
M82 682q0 -9 6.5 -16t16.5 -7q11 0 17 7t6 16q0 10 -6 16.5t-17 6.5q-10 0 -16.5 -6.5t-6.5 -16.5zM90 460v-460h31v460h-31z" />
    <glyph glyph-name="Jcircumflex" unicode="&#x134;" horiz-adv-x="210" 
d="M-109 -142l-18 -24q8 -10 25.5 -23t42 -22t50.5 -9q35 0 60 9.5t41 29.5t23.5 50t7.5 71v760h-32v-750q0 -76 -22.5 -107.5t-76.5 -31.5q-32 0 -58.5 14.5t-42.5 32.5zM107 892l140 -123l20 16l-160 140l-160 -140l19 -16z" />
    <glyph glyph-name="jcircumflex" unicode="&#x135;" horiz-adv-x="201" 
d="M-73 -150l-18 -24q8 -10 20 -20.5t28.5 -18t37.5 -7.5q42 0 67.5 19.5t37 52.5t11.5 72v536h-31v-533q0 -29 -7.5 -55.5t-25.5 -43.5t-50 -17q-24 0 -41 11.5t-29 27.5zM95 653l141 -123l19 17l-160 140l-160 -140l20 -17z" />
    <glyph glyph-name="uni0136" unicode="&#x136;" horiz-adv-x="487" 
d="M84 700v-700h32v700h-32zM417 700l-310 -329l325 -371h42l-326 372l311 328h-42zM313 -60l-100 -255l22 -7l110 250z" />
    <glyph glyph-name="uni0137" unicode="&#x137;" horiz-adv-x="392" 
d="M77 780v-780h31v780h-31zM326 460l-229 -190l249 -270h39l-248 270l229 190h-40zM265 -60l-100 -255l22 -7l110 250z" />
    <glyph glyph-name="kgreenlandic" unicode="&#x138;" horiz-adv-x="392" 
d="M77 460v-460h31v460h-31zM326 460l-229 -190l249 -270h39l-248 270l229 190h-40z" />
    <glyph glyph-name="Lacute" unicode="&#x139;" horiz-adv-x="436" 
d="M87 700v-700h332v31h-300v669h-32zM415 924l-27 17l-164 -160l16 -12z" />
    <glyph glyph-name="lacute" unicode="&#x13a;" horiz-adv-x="195" 
d="M82 780v-780h31v780h-31zM260 995l-28 17l-164 -160l16 -12z" />
    <glyph glyph-name="uni013B" unicode="&#x13b;" horiz-adv-x="436" 
d="M87 700v-700h332v31h-300v669h-32zM259 -60l-100 -255l21 -7l110 250z" />
    <glyph glyph-name="uni013C" unicode="&#x13c;" horiz-adv-x="195" 
d="M82 780v-780h31v780h-31zM118 -60l-100 -255l21 -7l110 250z" />
    <glyph glyph-name="Lcaron" unicode="&#x13d;" horiz-adv-x="436" 
d="M87 700v-700h332v31h-300v669h-32zM340 709l-100 -255l21 -8l110 250z" />
    <glyph glyph-name="lcaron" unicode="&#x13e;" horiz-adv-x="230" 
d="M82 780v-780h31v780h-31zM312 769l-100 -255l21 -8l110 250z" />
    <glyph glyph-name="Ldot" unicode="&#x13f;" horiz-adv-x="436" 
d="M87 700v-700h332v31h-300v669h-32zM265 414q0 -10 7 -17t17 -7t17 7t7 17q0 11 -7 17.5t-17 6.5q-9 0 -16.5 -7t-7.5 -17z" />
    <glyph glyph-name="ldot" unicode="&#x140;" horiz-adv-x="370" 
d="M82 780v-780h31v780h-31zM226 402q0 -10 7 -17t17 -7t16.5 7t6.5 16q0 11 -6.5 17.5t-16.5 6.5t-17 -6.5t-7 -16.5z" />
    <glyph glyph-name="Lslash" unicode="&#x141;" horiz-adv-x="397" 
d="M-5 373l270 170l-10 22l-270 -170zM80 700v-700h307v31h-274v669h-33z" />
    <glyph glyph-name="lslash" unicode="&#x142;" horiz-adv-x="181" 
d="M-4 373l200 150l-10 22l-201 -150zM75 780v-780h31v780h-31z" />
    <glyph glyph-name="Nacute" unicode="&#x143;" horiz-adv-x="697" 
d="M592 700v-635l-533 656v-721h33v632l532 -653v721h-32zM501 910l-28 17l-164 -160l16 -12z" />
    <glyph glyph-name="nacute" unicode="&#x144;" horiz-adv-x="490" 
d="M113 460h-31v-460h31v460zM377 308v-308h31v311q0 74 -35 116.5t-106 42.5q-47 0 -84.5 -25t-59.5 -67.5t-22 -97.5h12q0 44 19 80.5t53 58.5t76 22q63 0 89.5 -36.5t26.5 -96.5zM389 692l-28 17l-164 -160l17 -12z" />
    <glyph glyph-name="uni0145" unicode="&#x145;" horiz-adv-x="697" 
d="M359 -42l-100 -255l21 -7l110 250zM592 700v-635l-533 656v-721h33v632l532 -653v721h-32z" />
    <glyph glyph-name="uni0146" unicode="&#x146;" horiz-adv-x="490" 
d="M113 460h-31v-460h31v460zM377 308v-308h31v311q0 74 -35 116.5t-106 42.5q-47 0 -85.5 -25t-60.5 -67.5t-22 -97.5h14q0 44 19 80.5t53 58.5t76 22q63 0 89.5 -36.5t26.5 -96.5zM258 -46l-100 -255l21 -7l110 250z" />
    <glyph glyph-name="Ncaron" unicode="&#x147;" horiz-adv-x="697" 
d="M358 807l-140 124l-20 -17l160 -140l160 140l-21 17zM592 700v-635l-533 656v-721h33v632l532 -653v721h-32z" />
    <glyph glyph-name="ncaron" unicode="&#x148;" horiz-adv-x="490" 
d="M113 460h-31v-460h31v460zM377 308v-308h31v311q0 74 -35 116.5t-106 42.5q-47 0 -85.5 -25t-60.5 -67.5t-22 -97.5h14q0 44 19 80.5t53 58.5t76 22q63 0 89.5 -36.5t26.5 -96.5zM245 563l-140 124l-20 -17l160 -140l160 140l-20 17z" />
    <glyph glyph-name="napostrophe" unicode="&#x149;" horiz-adv-x="621" 
d="M208 460h-30v-460h30v460zM473 308v-308h30v311q0 74 -34.5 116.5t-105.5 42.5q-47 0 -85.5 -25t-61 -67.5t-22.5 -97.5h14q0 44 19.5 80.5t53.5 58.5t76 22q63 0 89.5 -36.5t26.5 -96.5zM160 700l-83 -230h23l97 230h-37z" />
    <glyph glyph-name="Eng" unicode="&#x14a;" horiz-adv-x="740" 
d="M537 -220q42 0 67.5 19.5t37 53t11.5 71.5v776h-33v-635l-533 656v-721h33v632l502 -619v-86q0 -29 -7 -55.5t-25 -43.5t-51 -17q-25 0 -42 12.5t-28 26.5l-18 -24q13 -17 34 -31.5t52 -14.5z" />
    <glyph glyph-name="eng" unicode="&#x14b;" horiz-adv-x="490" 
d="M292 -220q56 0 86 37.5t30 106.5v387q0 78 -36.5 118.5t-104.5 40.5q-54 0 -96 -34t-58 -90v114h-31v-460h31v280q0 45 19.5 81.5t53.5 58t75 21.5q58 0 87 -33.5t29 -99.5v-381q0 -56 -21.5 -86t-61.5 -30t-70 39l-18 -24q17 -22 39 -34t47 -12z" />
    <glyph glyph-name="Omacron" unicode="&#x14c;" horiz-adv-x="779" 
d="M81 350q0 95 39.5 168t109.5 115.5t159 42.5q91 0 160.5 -42.5t108.5 -115.5t39 -168q0 -94 -39 -167.5t-108.5 -116t-160.5 -42.5q-89 0 -159 42.5t-109.5 116t-39.5 167.5zM47 350q0 -77 25.5 -143t71.5 -114t108.5 -75t136.5 -27q75 0 137 27t108.5 75t72 114
t25.5 143q0 78 -25.5 143.5t-72 113.5t-108.5 75t-137 27q-74 0 -136.5 -27t-108.5 -75t-71.5 -113.5t-25.5 -143.5zM214 783h350v29h-350v-29z" />
    <glyph glyph-name="omacron" unicode="&#x14d;" horiz-adv-x="553" 
d="M42 230q0 -69 31 -123.5t84 -85.5t119 -31q67 0 120 31t84 85.5t31 123.5q0 70 -31 124t-84 85t-120 31q-66 0 -119 -31t-84 -85t-31 -124zM73 230q0 61 27 109t73.5 75t103.5 27t103 -27t73 -75t27 -109t-27 -109t-73 -75t-103 -27t-103.5 27t-73.5 74.5t-27 109.5z
M102 544h350v29h-350v-29z" />
    <glyph glyph-name="Obreve" unicode="&#x14e;" horiz-adv-x="779" 
d="M81 350q0 95 39.5 168t109.5 115.5t159 42.5q91 0 160.5 -42.5t108.5 -115.5t39 -168q0 -94 -39 -167.5t-108.5 -116t-160.5 -42.5q-89 0 -159 42.5t-109.5 116t-39.5 167.5zM47 350q0 -77 25.5 -143t71.5 -114t108.5 -75t136.5 -27q75 0 137 27t108.5 75t72 114
t25.5 143q0 78 -25.5 143.5t-72 113.5t-108.5 75t-137 27q-74 0 -136.5 -27t-108.5 -75t-71.5 -113.5t-25.5 -143.5zM231 909q0 -34 17.5 -66.5t53 -53t87.5 -20.5q53 0 88 20.5t52.5 53t17.5 66.5h-28q0 -28 -14.5 -54t-43.5 -43t-72 -17q-42 0 -71 17t-44 43t-15 54h-28z
" />
    <glyph glyph-name="obreve" unicode="&#x14f;" horiz-adv-x="553" 
d="M42 230q0 -69 31 -123.5t84 -85.5t119 -31q67 0 120 31t84 85.5t31 123.5q0 70 -31 124t-84 85t-120 31q-66 0 -119 -31t-84 -85t-31 -124zM73 230q0 61 27 109t73.5 75t103.5 27t103 -27t73 -75t27 -109t-27 -109t-73 -75t-103 -27t-103.5 27t-73.5 74.5t-27 109.5z
M119 670q0 -34 17.5 -66.5t53 -53t87.5 -20.5q53 0 88 20.5t52.5 53t17.5 66.5h-28q0 -27 -15 -53t-44 -43.5t-71 -17.5q-43 0 -72 17.5t-44 43.5t-15 53h-27z" />
    <glyph glyph-name="Ohungarumlaut" unicode="&#x150;" horiz-adv-x="779" 
d="M332 769l117 201l-31 10l-105 -204zM451 769l117 201l-32 10l-104 -204zM81 350q0 95 39.5 168t109.5 115.5t159 42.5q91 0 160.5 -42.5t108.5 -115.5t39 -168q0 -94 -39 -167.5t-108.5 -116t-160.5 -42.5q-89 0 -159 42.5t-109.5 116t-39.5 167.5zM47 350
q0 -77 25.5 -143t71.5 -114t108.5 -75t136.5 -27q75 0 137 27t108.5 75t72 114t25.5 143q0 78 -25.5 143.5t-72 113.5t-108.5 75t-137 27q-74 0 -136.5 -27t-108.5 -75t-71.5 -113.5t-25.5 -143.5z" />
    <glyph glyph-name="ohungarumlaut" unicode="&#x151;" horiz-adv-x="553" 
d="M219 530l117 201l-31 10l-105 -204zM338 530l117 201l-32 10l-104 -204zM42 230q0 -69 31 -123.5t84 -85.5t119 -31q67 0 120 31t84 85.5t31 123.5q0 70 -31 124t-84 85t-120 31q-66 0 -119 -31t-84 -85t-31 -124zM73 230q0 61 27 109t73.5 75t103.5 27t103 -27t73 -75
t27 -109t-27 -109t-73 -75t-103 -27t-103.5 27t-73.5 74.5t-27 109.5z" />
    <glyph glyph-name="OE" unicode="&#x152;" horiz-adv-x="961" 
d="M530 372h333v30h-333v-30zM515 688v-676h33v676h-33zM884 31h-344h-24h-126q-68 0 -126 23t-101 65.5t-67 101.5t-24 129t23.5 129t66.5 101.5t101.5 65.5t126.5 23h129h17h347v31h-493q-76 0 -140.5 -25t-111 -71.5t-72.5 -111t-26 -142.5t26 -142.5t73 -111t111 -71.5
t140 -25h494v31z" />
    <glyph glyph-name="oe" unicode="&#x153;" horiz-adv-x="918" 
d="M844 250l-1 -21l32 -6q1 6 1 12v12q0 66 -30 116t-78 78.5t-103 28.5t-100.5 -24t-75 -67t-39.5 -100q-2 -12 -3 -24t-1 -25q0 -65 26.5 -120t75.5 -87.5t114 -32.5q50 0 88 14.5t66.5 40.5t51.5 61l-24 17q-28 -45 -72.5 -74.5t-109.5 -29.5q-55 0 -98.5 26.5t-68 74.5
t-24.5 111v9q0 54 24 100t66.5 74t100.5 28q56 0 96.5 -27t63 -71t22.5 -94zM463 223h412l-6 27h-406v-27zM42 230q0 -74 29 -128t77.5 -83t107.5 -29q56 0 102 29t74 83t28 128q0 75 -28 128.5t-74 82.5t-102 29q-59 0 -107.5 -29t-77.5 -82.5t-29 -128.5zM73 230
q0 66 25 113t67.5 72.5t95.5 25.5q46 0 86.5 -26t66 -73.5t25.5 -111.5t-25.5 -111.5t-66 -73.5t-86.5 -26q-53 0 -95.5 25.5t-67.5 73t-25 112.5z" />
    <glyph glyph-name="Racute" unicode="&#x154;" horiz-adv-x="495" 
d="M201 325l226 -325h40l-230 325h-36zM87 700v-700h33v700h-33zM102 670h122q60 0 106 -18.5t72 -56t26 -93.5t-26 -93.5t-72 -56.5t-106 -19h-122v-29h122q68 0 121 22.5t84.5 67t31.5 108.5q0 65 -31.5 109t-84.5 66.5t-121 22.5h-122v-30zM375 924l-27 17l-164 -160
l16 -12z" />
    <glyph glyph-name="racute" unicode="&#x155;" horiz-adv-x="306" 
d="M113 460h-31v-460h31v460zM276 420l17 25q-14 12 -32 18.5t-37 6.5q-39 0 -67.5 -25t-43 -67.5t-14.5 -97.5h14q0 44 10.5 80.5t34 58.5t60.5 22q16 0 30 -5.5t28 -15.5zM322 685l-27 17l-165 -160l16 -12z" />
    <glyph glyph-name="uni0156" unicode="&#x156;" horiz-adv-x="495" 
d="M201 325l226 -325h40l-230 325h-36zM87 700v-700h33v700h-33zM102 670h122q60 0 106 -18.5t72 -56t26 -93.5t-26 -93.5t-72 -56.5t-106 -19h-122v-29h122q68 0 121 22.5t84.5 67t31.5 108.5q0 65 -31.5 109t-84.5 66.5t-121 22.5h-122v-30zM276 -60l-99 -255l21 -7
l110 250z" />
    <glyph glyph-name="uni0157" unicode="&#x157;" horiz-adv-x="306" 
d="M113 460h-31v-460h31v460zM276 420l17 25q-14 12 -32 18.5t-37 6.5q-39 0 -67.5 -25t-43 -67.5t-14.5 -97.5h14q0 44 10.5 80.5t34 58.5t60.5 22q16 0 30 -5.5t28 -15.5zM103 -60l-100 -255l22 -7l110 250z" />
    <glyph glyph-name="Rcaron" unicode="&#x158;" horiz-adv-x="495" 
d="M201 325l226 -325h40l-230 325h-36zM87 700v-700h33v700h-33zM102 670h122q60 0 106 -18.5t72 -56t26 -93.5t-26 -93.5t-72 -56.5t-106 -19h-122v-29h122q68 0 121 22.5t84.5 67t31.5 108.5q0 65 -31.5 109t-84.5 66.5t-121 22.5h-122v-30zM236 802l-140 124l-20 -17
l160 -140l160 140l-20 17z" />
    <glyph glyph-name="rcaron" unicode="&#x159;" horiz-adv-x="306" 
d="M113 460h-31v-460h31v460zM276 420l17 25q-14 12 -32 18.5t-37 6.5q-39 0 -67.5 -25t-43 -67.5t-14.5 -97.5h14q0 44 10.5 80.5t34 58.5t60.5 22q16 0 30 -5.5t28 -15.5zM188 563l-140 124l-20 -17l160 -140l160 140l-21 17z" />
    <glyph glyph-name="Sacute" unicode="&#x15a;" horiz-adv-x="506" 
d="M68 206l-28 -16q17 -51 46.5 -96.5t74 -74t104.5 -28.5q70 0 113 25t63 68t20 95q0 43 -15.5 75.5t-40.5 55.5t-56 39.5t-60 26.5q-42 16 -83 37.5t-67.5 53.5t-26.5 77q0 39 20 69t53.5 47t75.5 17q49 0 82 -21.5t53.5 -53t31.5 -64.5l27 15q-10 36 -34.5 72t-64 60
t-96.5 24q-50 0 -91 -20.5t-65.5 -57t-24.5 -85.5q0 -42 17.5 -73.5t45.5 -54.5t59.5 -39t60.5 -26q39 -14 77 -36.5t63 -56t25 -83.5q0 -45 -16 -80t-51.5 -54.5t-92.5 -19.5q-42 0 -73.5 15.5t-55.5 42t-41 59t-29 66.5zM423 924l-28 17l-164 -160l17 -12z" />
    <glyph glyph-name="sacute" unicode="&#x15b;" horiz-adv-x="403" 
d="M62 151l-26 -13q7 -37 26.5 -71t54 -55.5t83.5 -21.5q63 0 103.5 33.5t40.5 97.5q0 35 -18.5 59.5t-47.5 40.5t-62 27q-32 10 -60 21.5t-45 31.5t-17 54q0 42 31 63t74 21q31 0 54 -11.5t38.5 -30t24.5 -40.5l26 15q-9 26 -27.5 47.5t-47.5 35.5t-68 14
q-37 0 -67.5 -13.5t-49.5 -38t-19 -61.5q0 -41 18.5 -65.5t48 -38.5t64.5 -26q32 -10 59 -23.5t43.5 -33.5t16.5 -50q0 -47 -31 -73.5t-80 -26.5q-43 0 -71.5 19t-45 49.5t-23.5 63.5zM361 685l-28 17l-164 -160l18 -12z" />
    <glyph glyph-name="Scircumflex" unicode="&#x15c;" horiz-adv-x="506" 
d="M68 206l-28 -16q17 -51 46.5 -96.5t74 -74t104.5 -28.5q70 0 113 25t63 68t20 95q0 43 -15.5 75.5t-40.5 55.5t-56 39.5t-60 26.5q-42 16 -83 37.5t-67.5 53.5t-26.5 77q0 39 20 69t53.5 47t75.5 17q49 0 82 -21.5t53.5 -53t31.5 -64.5l27 15q-10 36 -34.5 72t-64 60
t-96.5 24q-50 0 -91 -20.5t-65.5 -57t-24.5 -85.5q0 -42 17.5 -73.5t45.5 -54.5t59.5 -39t60.5 -26q39 -14 77 -36.5t63 -56t25 -83.5q0 -45 -16 -80t-51.5 -54.5t-92.5 -19.5q-42 0 -73.5 15.5t-55.5 42t-41 59t-29 66.5zM260 892l141 -123l19 16l-160 140l-160 -140
l20 -16z" />
    <glyph glyph-name="scircumflex" unicode="&#x15d;" horiz-adv-x="403" 
d="M62 151l-26 -13q7 -37 26.5 -71t54 -55.5t83.5 -21.5q63 0 103.5 33.5t40.5 97.5q0 35 -18.5 59.5t-47.5 40.5t-62 27q-32 10 -60 21.5t-45 31.5t-17 54q0 42 31 63t74 21q31 0 54 -11.5t38.5 -30t24.5 -40.5l26 15q-9 26 -27.5 47.5t-47.5 35.5t-68 14
q-37 0 -67.5 -13.5t-49.5 -38t-19 -61.5q0 -41 18.5 -65.5t48 -38.5t64.5 -26q32 -10 59 -23.5t43.5 -33.5t16.5 -50q0 -47 -31 -73.5t-80 -26.5q-43 0 -71.5 19t-45 49.5t-23.5 63.5zM199 653l140 -123l20 17l-160 140l-160 -140l19 -17z" />
    <glyph glyph-name="Scedilla" unicode="&#x15e;" horiz-adv-x="506" 
d="M68 206l-28 -16q17 -51 46.5 -96.5t74 -74t104.5 -28.5q69 0 112 25t63.5 68t20.5 95q0 43 -15.5 75.5t-40.5 55.5t-56 39.5t-60 26.5q-42 16 -83 37.5t-67.5 53.5t-26.5 77q0 39 19 69t52 47t75 17q49 0 82.5 -21.5t55 -53t32.5 -64.5l27 15q-12 37 -36 73t-63 59.5
t-96 23.5q-51 0 -92.5 -20.5t-65 -57.5t-23.5 -87q0 -42 17.5 -73.5t45.5 -54t59.5 -38t60.5 -25.5q39 -14 77 -36.5t63 -56t25 -83.5q0 -45 -16 -80t-51.5 -54.5t-92.5 -19.5q-42 0 -73.5 15.5t-55.5 42t-41 59t-29 66.5zM264 17l-64 -112q17 12 37 18t37 6q23 0 41 -13.5
t18 -42.5q0 -35 -25.5 -53t-57.5 -18q-23 0 -39 7.5t-35 23.5l-15 -16q21 -21 41 -29.5t48 -8.5t52 11t39.5 32t15.5 51q0 25 -11.5 41t-28 24.5t-33.5 8.5q-18 0 -27.5 -4t-24.5 -13l58 87h-26z" />
    <glyph glyph-name="scedilla" unicode="&#x15f;" horiz-adv-x="403" 
d="M61 152l-25 -14q10 -37 30 -71t54 -55.5t83 -21.5q61 0 101 34t40 97q0 37 -18.5 61.5t-47.5 40.5t-62 26q-32 10 -60 21.5t-45.5 31.5t-17.5 54q0 43 31.5 63.5t74.5 20.5q46 0 74.5 -25t42.5 -57l26 14q-15 38 -50 67.5t-93 29.5q-37 0 -67.5 -12.5t-49.5 -37.5
t-19 -64q0 -43 18.5 -67t48 -37.5t64.5 -25.5q32 -10 59 -23t43.5 -33t16.5 -51q0 -46 -31 -72.5t-79 -26.5q-40 0 -68.5 19.5t-46 50t-27.5 63.5zM201 15l-63 -111q17 12 36.5 18t37.5 6q23 0 41 -14t18 -42q0 -35 -25.5 -53t-57.5 -18q-24 0 -40 7.5t-35 23.5l-14 -16
q21 -21 41 -29.5t48 -8.5t52 11t39.5 32t15.5 51q0 25 -11.5 41t-28 24.5t-33.5 8.5q-19 0 -28.5 -4.5t-23.5 -12.5l58 86h-27z" />
    <glyph glyph-name="Scaron" unicode="&#x160;" horiz-adv-x="506" 
d="M68 206l-28 -16q17 -51 46.5 -96.5t74 -74t104.5 -28.5q70 0 113 25t63 68t20 95q0 43 -15.5 75.5t-40.5 55.5t-56 39.5t-60 26.5q-42 16 -83 37.5t-67.5 53.5t-26.5 77q0 39 20 69t53.5 47t75.5 17q49 0 82 -21.5t53.5 -53t31.5 -64.5l27 15q-10 36 -34.5 72t-64 60
t-96.5 24q-50 0 -91 -20.5t-65.5 -57t-24.5 -85.5q0 -42 17.5 -73.5t45.5 -54.5t59.5 -39t60.5 -26q39 -14 77 -36.5t63 -56t25 -83.5q0 -45 -16 -80t-51.5 -54.5t-92.5 -19.5q-42 0 -73.5 15.5t-55.5 42t-41 59t-29 66.5zM260 809l-139 124l-21 -17l160 -140l160 140
l-20 17z" />
    <glyph glyph-name="scaron" unicode="&#x161;" horiz-adv-x="403" 
d="M62 151l-26 -13q7 -37 26.5 -71t54 -55.5t83.5 -21.5q63 0 103.5 33.5t40.5 97.5q0 35 -18.5 59.5t-47.5 40.5t-62 27q-32 10 -60 21.5t-45 31.5t-17 54q0 42 31 63t74 21q31 0 54 -11.5t38.5 -30t24.5 -40.5l26 15q-9 26 -27.5 47.5t-47.5 35.5t-68 14
q-37 0 -67.5 -13.5t-49.5 -38t-19 -61.5q0 -41 18.5 -65.5t48 -38.5t64.5 -26q32 -10 59 -23.5t43.5 -33.5t16.5 -50q0 -47 -31 -73.5t-80 -26.5q-43 0 -71.5 19t-45 49.5t-23.5 63.5zM199 563l-140 124l-20 -17l160 -140l160 140l-21 17z" />
    <glyph glyph-name="uni0162" unicode="&#x162;" horiz-adv-x="441" 
d="M208 3l-64 -112q17 12 36.5 18t37.5 6q23 0 41 -13.5t18 -42.5q0 -35 -25.5 -53t-57.5 -18q-23 0 -39 7.5t-35 23.5l-15 -16q21 -21 41 -29.5t48 -8.5t52 11t39.5 32t15.5 51q0 25 -11.5 41t-28 24.5t-33.5 8.5q-18 0 -27.5 -4t-24.5 -13l58 87h-26zM17 669h187v-669h33
v669h187v31h-407v-31z" />
    <glyph glyph-name="uni0163" unicode="&#x163;" horiz-adv-x="205" 
d="M89 8l-64 -112q17 12 36.5 18t37.5 6q23 0 41 -13.5t18 -42.5q0 -35 -25.5 -53t-57.5 -18q-23 0 -39 7.5t-35 23.5l-15 -16q21 -21 41 -29.5t48 -8.5t52 11t39.5 32t15.5 51q0 25 -11.5 41t-28 24.5t-33.5 8.5q-18 0 -27.5 -4t-24.5 -13l58 87h-26zM12 460v-29h181v29
h-181zM87 620v-620h31v620h-31z" />
    <glyph glyph-name="Tcaron" unicode="&#x164;" horiz-adv-x="441" 
d="M17 669h187v-669h33v669h187v31h-407v-31zM221 802l-140 124l-20 -17l160 -140l160 140l-20 17z" />
    <glyph glyph-name="tcaron" unicode="&#x165;" horiz-adv-x="301" 
d="M12 460v-29h181v29h-181zM87 620v-620h31v620h-31zM280 785l-100 -254l21 -8l110 250z" />
    <glyph glyph-name="Tbar" unicode="&#x166;" horiz-adv-x="441" 
d="M61 426h315v29h-315v-29zM17 669h187v-669h33v669h187v31h-407v-31z" />
    <glyph glyph-name="tbar" unicode="&#x167;" horiz-adv-x="240" 
d="M20 251h200v29h-200v-29zM12 460v-29h181v29h-181zM87 620v-620h31v620h-31z" />
    <glyph glyph-name="Utilde" unicode="&#x168;" horiz-adv-x="591" 
d="M82 700v-477q0 -52 13.5 -95t41 -73.5t67 -47.5t91.5 -17t92 17t67 47.5t41 73.5t14 95v477h-33v-477q0 -93 -47.5 -147.5t-133.5 -54.5q-85 0 -132.5 54.5t-47.5 147.5v477h-33zM159 780l22 -11q0 11 4.5 22.5t16.5 20t32 8.5q23 0 39.5 -11.5t35.5 -23.5t46 -12
q18 0 32.5 7t26 20t19.5 31l-20 15q-12 -24 -24 -36t-32 -12t-34 7t-26.5 16.5t-27 16.5t-36.5 7t-38.5 -9t-25.5 -23.5t-10 -32.5z" />
    <glyph glyph-name="utilde" unicode="&#x169;" horiz-adv-x="490" 
d="M377 0h31v460h-31v-460zM113 159v301h-31v-304q0 -79 34.5 -122.5t105.5 -43.5q48 0 85.5 25t59 67.5t21.5 97.5h-11q0 -43 -19.5 -80t-53 -59t-76.5 -22q-61 0 -88 37.5t-27 102.5zM108 542l22 -12q0 12 4.5 23.5t16.5 19.5t32 8q23 0 39.5 -11.5t35.5 -23.5t46 -12
q18 0 33 7t26 20.5t19 31.5l-20 15q-12 -24 -24 -36t-32 -12t-34 7t-26 16.5t-27 16.5t-37 7t-38.5 -9.5t-25.5 -24t-10 -31.5z" />
    <glyph glyph-name="Umacron" unicode="&#x16a;" horiz-adv-x="591" 
d="M82 700v-477q0 -52 13.5 -95t41 -73.5t67 -47.5t91.5 -17t92 17t67 47.5t41 73.5t14 95v477h-33v-477q0 -93 -47.5 -147.5t-133.5 -54.5q-85 0 -132.5 54.5t-47.5 147.5v477h-33zM120 769h350v29h-350v-29z" />
    <glyph glyph-name="umacron" unicode="&#x16b;" horiz-adv-x="490" 
d="M377 0h31v460h-31v-460zM113 159v301h-31v-304q0 -79 34.5 -122.5t105.5 -43.5q48 0 85.5 25t59 67.5t21.5 97.5h-11q0 -43 -19.5 -80t-53 -59t-76.5 -22q-61 0 -88 37.5t-27 102.5zM70 530h350v29h-350v-29z" />
    <glyph glyph-name="Ubreve" unicode="&#x16c;" horiz-adv-x="591" 
d="M82 700v-477q0 -52 13.5 -95t41 -73.5t67 -47.5t91.5 -17t92 17t67 47.5t41 73.5t14 95v477h-33v-477q0 -93 -47.5 -147.5t-133.5 -54.5q-85 0 -132.5 54.5t-47.5 147.5v477h-33zM137 909q0 -34 17.5 -66.5t53 -53t87.5 -20.5q53 0 88 20.5t52.5 53t17.5 66.5h-28
q0 -28 -14.5 -54t-43.5 -43t-72 -17q-42 0 -71 17t-44 43t-15 54h-28z" />
    <glyph glyph-name="ubreve" unicode="&#x16d;" horiz-adv-x="490" 
d="M377 0h31v460h-31v-460zM113 159v301h-31v-304q0 -79 34.5 -122.5t105.5 -43.5q48 0 85.5 25t59 67.5t21.5 97.5h-11q0 -43 -19.5 -80t-53 -59t-76.5 -22q-61 0 -88 37.5t-27 102.5zM87 670q0 -34 17.5 -66.5t53 -53t87.5 -20.5q53 0 88 20.5t52.5 53t17.5 66.5h-28
q0 -27 -14.5 -53t-43.5 -43.5t-72 -17.5q-42 0 -71 17.5t-44 43.5t-15 53h-28z" />
    <glyph glyph-name="Uring" unicode="&#x16e;" horiz-adv-x="591" 
d="M82 700v-477q0 -52 13.5 -95t41 -73.5t67 -47.5t91.5 -17t92 17t67 47.5t41 73.5t14 95v477h-33v-477q0 -93 -47.5 -147.5t-133.5 -54.5q-85 0 -132.5 54.5t-47.5 147.5v477h-33zM193 869q0 -45 31.5 -72.5t70.5 -27.5t70.5 27.5t31.5 72.5t-31.5 72.5t-70.5 27.5
t-70.5 -27.5t-31.5 -72.5zM215 869q0 35 24.5 57t55.5 22t55.5 -22t24.5 -57q0 -36 -24.5 -58t-55.5 -22t-55.5 22t-24.5 58z" />
    <glyph glyph-name="uring" unicode="&#x16f;" horiz-adv-x="490" 
d="M377 0h31v460h-31v-460zM113 159v301h-31v-304q0 -79 34.5 -122.5t105.5 -43.5q48 0 85.5 25t59 67.5t21.5 97.5h-11q0 -43 -19.5 -80t-53 -59t-76.5 -22q-61 0 -88 37.5t-27 102.5zM143 630q0 -45 31.5 -72.5t70.5 -27.5t70.5 27.5t31.5 72.5t-31.5 72.5t-70.5 27.5
t-70.5 -27.5t-31.5 -72.5zM165 630q0 36 24.5 57.5t55.5 21.5t55.5 -21.5t24.5 -57.5t-24.5 -57.5t-55.5 -21.5t-55.5 21.5t-24.5 57.5z" />
    <glyph glyph-name="Uhungarumlaut" unicode="&#x170;" horiz-adv-x="591" 
d="M238 769l117 201l-31 10l-105 -204zM357 769l117 201l-32 10l-104 -204zM82 700v-477q0 -52 13.5 -95t41 -73.5t67 -47.5t91.5 -17t92 17t67 47.5t41 73.5t14 95v477h-33v-477q0 -93 -47.5 -147.5t-133.5 -54.5q-85 0 -132.5 54.5t-47.5 147.5v477h-33z" />
    <glyph glyph-name="uhungarumlaut" unicode="&#x171;" horiz-adv-x="490" 
d="M188 530l117 201l-31 10l-105 -204zM307 530l117 201l-32 10l-104 -204zM113 159v301h-31v-304q0 -76 34.5 -121t105.5 -45q56 0 97.5 34t57.5 90v-114h31v460h-31v-280q0 -43 -19.5 -79.5t-53 -58.5t-76.5 -22q-61 0 -88 37.5t-27 101.5z" />
    <glyph glyph-name="Uogonek" unicode="&#x172;" horiz-adv-x="591" 
d="M343 -168q-10 -13 -31 -22.5t-48 -9.5q-32 0 -55.5 16t-23.5 48q0 26 20 49.5t50.5 43.5t62.5 35l-17 14q-35 -18 -69 -39.5t-56 -48.5t-22 -60q0 -26 13 -45.5t37 -30t59 -10.5q32 0 58 12.5t37 27.5zM82 700v-477q0 -52 13.5 -95t41 -73.5t67 -47.5t91.5 -17t92 17
t67 47.5t41 73.5t14 95v477h-33v-477q0 -93 -47.5 -147.5t-133.5 -54.5q-85 0 -132.5 54.5t-47.5 147.5v477h-33z" />
    <glyph glyph-name="uogonek" unicode="&#x173;" horiz-adv-x="490" 
d="M433 -160q-10 -13 -31 -22.5t-48 -9.5q-32 0 -55.5 16t-23.5 48q0 26 20 49.5t50.5 43.5t62.5 35l-17 14q-35 -18 -69 -39.5t-56 -48.5t-22 -60q0 -26 13 -45.5t37 -30t59 -10.5q32 0 58 12.5t37 27.5zM113 159v301h-31v-304q0 -76 34.5 -121t105.5 -45q56 0 97.5 34
t57.5 90v-114h31v460h-31v-280q0 -43 -19.5 -79.5t-53 -58.5t-76.5 -22q-61 0 -88 37.5t-27 101.5z" />
    <glyph glyph-name="Wcircumflex" unicode="&#x174;" horiz-adv-x="962" 
d="M696 70l-215 651l-216 -651l-212 630h-36l247 -721l217 649l217 -649l247 721h-36zM481 904l140 -123l20 17l-160 140l-160 -140l19 -17z" />
    <glyph glyph-name="wcircumflex" unicode="&#x175;" horiz-adv-x="638" 
d="M12 460l163 -481l139 421l149 -421l163 481h-34l-131 -401l-147 422l-138 -421l-130 400h-34zM314 664l140 -123l20 17l-160 140l-160 -140l19 -17z" />
    <glyph glyph-name="Ycircumflex" unicode="&#x176;" horiz-adv-x="523" 
d="M474 700l-217 -391l-208 391h-37l230 -424v-276h32v277l237 423h-37zM262 892l140 -123l20 16l-160 140l-160 -140l20 -16z" />
    <glyph glyph-name="ycircumflex" unicode="&#x177;" horiz-adv-x="429" 
d="M422 460h-34l-179 -415l18 -2l-184 417h-36l193 -427l-112 -253h34zM215 653l140 -123l20 17l-160 140l-160 -140l20 -17z" />
    <glyph glyph-name="Ydieresis" unicode="&#x178;" horiz-adv-x="523" 
d="M144 792q0 -9 7.5 -16t17.5 -7t17 7t7 16q0 11 -7 17.5t-17 6.5t-17.5 -7t-7.5 -17zM330 792q0 -9 7.5 -16t17.5 -7t17 7t7 16q0 11 -7 17.5t-17 6.5t-17.5 -7t-7.5 -17zM474 700l-217 -391l-208 391h-37l230 -424v-276h32v277l237 423h-37z" />
    <glyph glyph-name="Zacute" unicode="&#x179;" horiz-adv-x="538" 
d="M39 669h425l-445 -669h490v31h-433l445 669h-482v-31zM430 924l-28 17l-164 -160l16 -12z" />
    <glyph glyph-name="zacute" unicode="&#x17a;" horiz-adv-x="439" 
d="M356 431l-337 -431h395v29h-338l337 431h-372v-29h315zM377 691l-27 17l-164 -160l16 -12z" />
    <glyph glyph-name="Zdotaccent" unicode="&#x17b;" horiz-adv-x="538" 
d="M39 669h425l-445 -669h490v31h-433l445 669h-482v-31zM256 792q0 -9 7.5 -16t16.5 -7q10 0 17 7t7 16q0 11 -7 17.5t-17 6.5q-9 0 -16.5 -7t-7.5 -17z" />
    <glyph glyph-name="zdotaccent" unicode="&#x17c;" horiz-adv-x="439" 
d="M356 431l-337 -431h395v29h-338l337 431h-372v-29h315zM203 584q0 -10 7.5 -17t17.5 -7t16.5 7t6.5 17t-7 17t-16 7q-10 0 -17.5 -7t-7.5 -17z" />
    <glyph glyph-name="Zcaron" unicode="&#x17d;" horiz-adv-x="538" 
d="M39 669h425l-445 -669h490v31h-433l445 669h-482v-31zM280 802l-140 124l-20 -17l160 -140l160 140l-20 17z" />
    <glyph glyph-name="zcaron" unicode="&#x17e;" horiz-adv-x="439" 
d="M227 563l-139 124l-21 -17l160 -140l160 140l-20 17zM357 431l-338 -431h395v29h-339l338 431h-372v-29h316z" />
    <glyph glyph-name="florin" unicode="&#x192;" horiz-adv-x="600" 
d="M181 -200q32 0 56 17.5t38.5 50t17.5 76.5l27 487h80l2 29h-81l11 181q3 55 25 86t57 31q17 0 31.5 -9t35.5 -30l17 23q-23 24 -43.5 34.5t-43.5 11.5q-46 0 -76.5 -39.5t-34.5 -105.5l-10 -183h-82l-3 -29h83l-27 -485q-3 -54 -25 -85t-57 -31q-16 0 -31 8.5t-36 30.5
l-17 -23q24 -25 44 -35.5t42 -10.5z" />
    <glyph glyph-name="uni0212" unicode="&#x212;" horiz-adv-x="495" 
d="M201 325l226 -325h40l-230 325h-36zM87 700v-700h33v700h-33zM102 670h122q60 0 106 -18.5t72 -56t26 -93.5t-26 -93.5t-72 -56.5t-106 -19h-122v-29h122q68 0 121 22.5t84.5 67t31.5 108.5q0 65 -31.5 109t-84.5 66.5t-121 22.5h-122v-30zM105 769q0 35 17.5 67t53 52.5
t87.5 20.5q53 0 88 -20.5t52.5 -52.5t17.5 -67h-28q0 27 -14.5 53t-43.5 43t-72 17t-72 -17t-43.5 -43t-14.5 -53h-28z" />
    <glyph glyph-name="uni0213" unicode="&#x213;" horiz-adv-x="306" 
d="M113 460h-31v-460h31v460zM276 420l17 25q-14 12 -32 18.5t-37 6.5q-39 0 -67.5 -25t-43 -67.5t-14.5 -97.5h14q0 44 10.5 80.5t34 58.5t60.5 22q16 0 30 -5.5t28 -15.5zM30 544q0 35 17.5 67t53 52.5t87.5 20.5q53 0 88 -20.5t52.5 -52.5t17.5 -67h-28q0 27 -15 53
t-43.5 43.5t-71.5 17.5t-72 -17.5t-43.5 -43.5t-14.5 -53h-28z" />
    <glyph glyph-name="uni0218" unicode="&#x218;" horiz-adv-x="506" 
d="M68 206l-28 -16q17 -51 46.5 -96.5t74 -74t104.5 -28.5q70 0 113 25t63 68t20 95q0 43 -15.5 75.5t-40.5 55.5t-56 39.5t-60 26.5q-42 16 -83 37.5t-67.5 53.5t-26.5 77q0 39 20 69t53.5 47t75.5 17q49 0 82 -21.5t53.5 -53t31.5 -64.5l27 15q-10 36 -34.5 72t-64 60
t-96.5 24q-50 0 -91 -20.5t-65.5 -57t-24.5 -85.5q0 -42 17.5 -73.5t45.5 -54.5t59.5 -39t60.5 -26q39 -14 77 -36.5t63 -56t25 -83.5q0 -45 -16 -80t-51.5 -54.5t-92.5 -19.5q-42 0 -73.5 15.5t-55.5 42t-41 59t-29 66.5zM300 -69l-100 -254l21 -8l110 250z" />
    <glyph glyph-name="uni0219" unicode="&#x219;" horiz-adv-x="403" 
d="M62 151l-26 -13q7 -37 26.5 -71t54 -55.5t83.5 -21.5q63 0 103.5 33.5t40.5 97.5q0 35 -18.5 59.5t-47.5 40.5t-62 27q-32 10 -60 21.5t-45 31.5t-17 54q0 42 31 63t74 21q31 0 54 -11.5t38.5 -30t24.5 -40.5l26 15q-9 26 -27.5 47.5t-47.5 35.5t-68 14
q-37 0 -67.5 -13.5t-49.5 -38t-19 -61.5q0 -41 18.5 -65.5t48 -38.5t64.5 -26q32 -10 59 -23.5t43.5 -33.5t16.5 -50q0 -47 -31 -73.5t-80 -26.5q-43 0 -71.5 19t-45 49.5t-23.5 63.5zM234 -70l-100 -255l22 -7l110 250z" />
    <glyph glyph-name="uni021A" unicode="&#x21a;" horiz-adv-x="441" 
d="M17 669h187v-669h33v669h187v31h-407v-31zM255 -60l-100 -255l22 -7l110 250z" />
    <glyph glyph-name="uni021B" unicode="&#x21b;" horiz-adv-x="205" 
d="M12 460v-29h181v29h-181zM87 620v-620h31v620h-31zM137 -60l-100 -255l21 -7l110 250z" />
    <glyph glyph-name="uni0237" unicode="&#x237;" horiz-adv-x="201" 
d="M-73 -150l-18 -24q8 -10 20 -20.5t28.5 -18t37.5 -7.5q42 0 67.5 19.5t37 52.5t11.5 72v536h-31v-533q0 -29 -7.5 -55.5t-25.5 -43.5t-50 -17q-24 0 -41 11.5t-29 27.5z" />
    <glyph glyph-name="circumflex" unicode="&#x2c6;" horiz-adv-x="480" 
d="M240 697l140 -124l20 17l-160 140l-160 -140l20 -17z" />
    <glyph glyph-name="caron" unicode="&#x2c7;" horiz-adv-x="480" 
d="M240 603l-140 124l-20 -17l160 -140l160 140l-20 17z" />
    <glyph glyph-name="breve" unicode="&#x2d8;" horiz-adv-x="546" 
d="M115 850q0 -34 17.5 -66.5t53 -53t87.5 -20.5q53 0 88 20.5t52.5 53t17.5 66.5h-28q0 -27 -14.5 -53t-43.5 -43.5t-72 -17.5t-72 17.5t-43.5 43.5t-14.5 53h-28z" />
    <glyph glyph-name="dotaccent" unicode="&#x2d9;" horiz-adv-x="259" 
d="M106 762q0 -10 7 -16.5t17 -6.5t16.5 6.5t6.5 16.5q0 11 -6.5 17.5t-16.5 6.5t-17 -7t-7 -17z" />
    <glyph glyph-name="ring" unicode="&#x2da;" horiz-adv-x="278" 
d="M37 785q0 -45 31.5 -72.5t70.5 -27.5t70.5 27.5t31.5 72.5t-31.5 72.5t-70.5 27.5t-70.5 -27.5t-31.5 -72.5zM59 785q0 36 24.5 57.5t55.5 21.5t55.5 -21.5t24.5 -57.5t-24.5 -57.5t-55.5 -21.5t-55.5 21.5t-24.5 57.5z" />
    <glyph glyph-name="ogonek" unicode="&#x2db;" horiz-adv-x="253" 
d="M205 -160q-10 -13 -31 -22.5t-48 -9.5q-32 0 -55.5 16t-23.5 48q0 26 20 49.5t50.5 43.5t62.5 35l-17 14q-35 -18 -69 -39.5t-56 -48.5t-22 -60q0 -26 13 -45.5t37 -30t59 -10.5q32 0 58 12.5t37 27.5z" />
    <glyph glyph-name="tilde" unicode="&#x2dc;" horiz-adv-x="530" 
d="M130 642l22 -12q0 12 4.5 23.5t16.5 19.5t32 8q23 0 39.5 -11.5t35.5 -23.5t46 -12q18 0 32.5 7t26 20.5t19.5 31.5l-20 15q-12 -24 -24 -36t-32 -12t-34 7t-26.5 16.5t-27 16.5t-36.5 7t-38.5 -9t-25.5 -23.5t-10 -32.5z" />
    <glyph glyph-name="hungarumlaut" unicode="&#x2dd;" horiz-adv-x="0" 
d="M19 524l117 201l-31 10l-105 -204zM138 524l117 201l-32 10l-104 -204z" />
    <glyph glyph-name="gravecomb" unicode="&#x300;" horiz-adv-x="0" 
d="M175 538l17 12l-164 160l-28 -17z" />
    <glyph glyph-name="acutecomb" unicode="&#x301;" horiz-adv-x="0" 
d="M32 538l175 155l-28 17l-164 -160z" />
    <glyph glyph-name="uni0302" unicode="&#x302;" horiz-adv-x="0" 
d="M17 572l147 129h-13l147 -129l17 20l-158 137l-157 -137z" />
    <glyph glyph-name="tildecomb" unicode="&#x303;" horiz-adv-x="0" 
d="M22 630q0 13 6 25t18 19t29 7q24 0 41 -11.5t35 -23.5t45 -12q19 0 33.5 7t25.5 20.5t19 31.5l-20 15q-12 -24 -23.5 -36t-32.5 -12q-19 0 -33 7t-26.5 16.5t-27.5 16.5t-37 7t-38 -9t-25.5 -23.5t-10.5 -32.5z" />
    <glyph glyph-name="uni0304" unicode="&#x304;" horiz-adv-x="0" 
d="M0 646h350v29h-350v-29z" />
    <glyph glyph-name="uni0306" unicode="&#x306;" horiz-adv-x="0" 
d="M158 572q46 0 81.5 16t56 44.5t20.5 65.5h-28q0 -28 -17 -50.5t-46.5 -35.5t-66.5 -13t-66.5 13t-46.5 35.5t-17 50.5h-28q0 -37 20.5 -65.5t56 -44.5t81.5 -16z" />
    <glyph glyph-name="uni0307" unicode="&#x307;" horiz-adv-x="0" 
d="M24 629q10 0 17 7.5t7 16.5q0 11 -7 17.5t-17 6.5q-9 0 -16.5 -7t-7.5 -17q0 -9 7 -16.5t17 -7.5z" />
    <glyph glyph-name="uni0308" unicode="&#x308;" horiz-adv-x="0" 
d="M24 614q11 0 17.5 7t6.5 17q0 11 -6.5 17.5t-17.5 6.5q-10 0 -17 -6.5t-7 -17.5q0 -10 7 -17t17 -7zM224 614q11 0 17.5 7t6.5 17q0 11 -6.5 17.5t-17.5 6.5q-10 0 -17 -6.5t-7 -17.5q0 -10 7 -17t17 -7z" />
    <glyph glyph-name="uni030A" unicode="&#x30a;" horiz-adv-x="0" 
d="M105 527q29 0 52.5 14t38 37t14.5 52t-14.5 52t-38 37t-52.5 14q-43 0 -74 -30t-31 -73t31 -73t74 -30zM105 549q-34 0 -58 24t-24 57q0 34 24.5 57.5t57.5 23.5q34 0 57.5 -23.5t23.5 -57.5q0 -33 -24 -57t-57 -24z" />
    <glyph glyph-name="uni030B" unicode="&#x30b;" horiz-adv-x="0" 
d="M19 524l117 201l-31 10l-105 -204zM138 524l117 201l-32 10l-104 -204z" />
    <glyph glyph-name="uni030C" unicode="&#x30c;" horiz-adv-x="0" 
d="M157 572l158 138l-17 19l-147 -129h13l-147 129l-17 -19z" />
    <glyph glyph-name="uni0312" unicode="&#x312;" horiz-adv-x="0" 
d="M31 513l100 255l-21 8l-110 -250z" />
    <glyph glyph-name="uni0326" unicode="&#x326;" horiz-adv-x="0" 
d="M15 -213l92 182l-22 13l-85 -187z" />
    <glyph glyph-name="uni0327" unicode="&#x327;" horiz-adv-x="0" 
d="M89 -220q47 0 77.5 27t30.5 67q0 31 -20.5 53t-53.5 22q-19 0 -36.5 -6t-26.5 -19l14 3l54 91h-25l-62 -107q14 9 34.5 14t37.5 5q28 0 43.5 -15t15.5 -41q0 -32 -23 -51.5t-60 -19.5q-23 0 -40.5 7.5t-36.5 23.5l-12 -19q20 -18 41.5 -26.5t47.5 -8.5z" />
    <glyph glyph-name="uni0328" unicode="&#x328;" horiz-adv-x="0" 
d="M109 -220q32 0 58 12.5t37 27.5l-15 20q-10 -13 -31 -22.5t-48 -9.5q-32 0 -55.5 16t-23.5 48q0 26 20 49.5t50.5 43.5t62.5 35l-17 14q-35 -18 -69 -39.5t-56 -48.5t-22 -60q0 -26 13 -45.5t37 -30t59 -10.5z" />
    <glyph glyph-name="uni0394" unicode="&#x394;" horiz-adv-x="600" 
d="M31 0l268 748l267 -748h-535zM77 29h444l-222 632z" />
    <glyph glyph-name="uni03A9" unicode="&#x3a9;" horiz-adv-x="600" 
d="M66 0v26h144q-41 33 -73 80.5t-50 101.5t-18 105q0 71 30.5 126t82.5 87t118 32t118 -32t82 -87t30 -126q0 -51 -18 -105t-50 -101.5t-73 -80.5h145v-26h-195v24q45 25 80.5 72t56.5 103.5t21 112.5q0 63 -25 111t-69.5 75t-102.5 27t-103 -27t-70.5 -75t-25.5 -111
q0 -55 21.5 -112t58 -103.5t80.5 -72.5v-24h-195z" />
    <glyph glyph-name="uni03BC" unicode="&#x3bc;" horiz-adv-x="490" 
d="M113 460h-31v-780h31v375q14 -31 40.5 -48t68.5 -17q55 0 97 33.5t58 87.5v-111h31v460h-31v-280q0 -43 -19.5 -80t-53 -59t-76.5 -22q-61 0 -88 37.5t-27 102.5v301z" />
    <glyph glyph-name="pi" unicode="&#x3c0;" horiz-adv-x="491" 
d="M90 444v-444h31v444h-31zM30 460v-29h421v29h-421zM340 444v-323q0 -54 8 -82t26 -38t50 -10v31q-23 0 -34 8t-15 30.5t-4 66.5v317h-31z" />
    <glyph glyph-name="uni0400" unicode="&#x400;" 
d="M102 0h343v31h-343v-31zM102 669h343v31h-343v-31zM102 371h323v31h-323v-31zM87 700v-700h33v700h-33zM118 943l175 -155l16 12l-164 160z" />
    <glyph glyph-name="uni0401" unicode="&#x401;" 
d="M102 0h343v31h-343v-31zM102 669h343v31h-343v-31zM102 371h323v31h-323v-31zM87 700v-700h33v700h-33zM339 845q0 -9 7.5 -16t16.5 -7q10 0 17 7t7 16q0 11 -7 17.5t-17 6.5q-9 0 -16.5 -7t-7.5 -17zM139 845q0 -9 7.5 -16t16.5 -7q10 0 17 7t7 16q0 11 -7 17.5t-17 6.5
q-9 0 -16.5 -7t-7.5 -17z" />
    <glyph glyph-name="uni0403" unicode="&#x403;" horiz-adv-x="435" 
d="M80 700v-700h32v669h313v31h-345zM400 943l-28 17l-164 -160l17 -12z" />
    <glyph glyph-name="uni040C" unicode="&#x40c;" horiz-adv-x="565" 
d="M84 700v-700h32v700h-32zM417 700l-310 -329l325 -371h42l-326 372l311 328h-42zM460 943l-28 17l-164 -160l17 -12z" />
    <glyph glyph-name="uni040D" unicode="&#x40d;" horiz-adv-x="740" 
d="M651 684l2 51l-564 -719l-2 -51zM119 700h-32v-735l32 48v687zM653 735l-32 -46v-689h32v735zM209 918l175 -155l17 12l-164 160z" />
    <glyph glyph-name="uni040E" unicode="&#x40e;" horiz-adv-x="505" 
d="M505 700h-35l-218 -469l18 -1l-232 470h-38l242 -481l-101 -219h35zM95 909q0 -34 17.5 -66.5t53 -53t87.5 -20.5q53 0 88 20.5t52.5 53t17.5 66.5h-28q0 -28 -14.5 -54t-43.5 -43t-72 -17t-71.5 17t-43.5 43t-15 54h-28z" />
    <glyph glyph-name="uni0410" unicode="&#x410;" horiz-adv-x="660" 
d="M134 254h351l-9 30h-333zM309 645l152 -374l3 -8l105 -263h37l-297 721l-297 -721h36l107 265l3 8z" />
    <glyph glyph-name="uni0411" unicode="&#x411;" horiz-adv-x="520" 
d="M99 389h143q59 0 105.5 -21.5t73.5 -61.5t27 -96q0 -55 -27 -95.5t-73.5 -62t-105.5 -21.5h-143v-31h143q68 0 121.5 25.5t85 73t31.5 111.5q0 65 -31.5 112t-85 72.5t-121.5 25.5h-143v-31zM80 700v-700h32v669h315v31h-347z" />
    <glyph glyph-name="uni0412" unicode="&#x412;" horiz-adv-x="558" 
d="M112 381h113q56 0 99.5 16.5t69 51t25.5 87.5t-24.5 89t-69 55.5t-107.5 19.5h-131v-700h141q68 0 119 21.5t80 66t29 113.5q0 48 -20 84t-53 59.5t-72 35t-76 11.5h-123v-19h116q36 0 71 -11.5t63 -33t45 -53t17 -71.5q0 -59 -24.5 -97.5t-68.5 -57t-103 -18.5h-109v640
h99q79 0 123.5 -35.5t44.5 -100.5q0 -47 -23 -76.5t-61.5 -43t-83.5 -13.5h-106v-20z" />
    <glyph glyph-name="uni0413" unicode="&#x413;" horiz-adv-x="435" 
d="M80 700v-700h32v669h313v31h-345z" />
    <glyph glyph-name="uni0414" unicode="&#x414;" horiz-adv-x="795" 
d="M395 657l250 -641h35l-285 719l-285 -719h35zM721 0v-110h29v141h-710v-141h29v110h652z" />
    <glyph glyph-name="uni0415" unicode="&#x415;" 
d="M102 0h343v31h-343v-31zM102 669h343v31h-343v-31zM102 371h323v31h-323v-31zM87 700v-700h33v700h-33z" />
    <glyph glyph-name="uni0416" unicode="&#x416;" horiz-adv-x="715" 
d="M61 700h-41l293 -329l-308 -371h41l307 370zM346 700v-700h32v700h-32zM653 700l-281 -330l296 -370h42l-301 371l286 329h-42z" />
    <glyph glyph-name="uni0417" unicode="&#x417;" horiz-adv-x="606" 
d="M283 356q58 0 105.5 12t81.5 35t52.5 53.5t18.5 67.5q0 50 -27 92t-77 68t-120 26q-67 0 -118.5 -23.5t-80 -64.5t-28.5 -96h31q0 45 24.5 79.5t68.5 54.5t103 20t102 -21t66 -56.5t23 -79.5q0 -43 -28.5 -76t-79.5 -51.5t-117 -18.5v-21zM313 -10q78 0 133.5 24t85 68
t29.5 103q0 70 -37 110t-100 57t-141 17v-21q66 0 122 -15t89.5 -49.5t33.5 -95.5q0 -75 -55.5 -121t-159.5 -46q-71 0 -119.5 21t-74.5 58.5t-27 84.5h-32q0 -41 16.5 -76.5t48.5 -62t79 -41.5t109 -15z" />
    <glyph glyph-name="uni0418" unicode="&#x418;" horiz-adv-x="740" 
d="M651 684l2 51l-564 -719l-2 -51zM119 700h-32v-735l32 48v687zM653 735l-32 -46v-689h32v735z" />
    <glyph glyph-name="uni0419" unicode="&#x419;" horiz-adv-x="740" 
d="M651 684l2 51l-564 -719l-2 -51zM119 700h-32v-735l32 48v687zM653 735l-32 -46v-689h32v735zM227 901q0 -34 17.5 -66.5t53 -53t87.5 -20.5q53 0 88 20.5t52.5 53t17.5 66.5h-28q0 -27 -14.5 -53t-43.5 -43t-72 -17q-42 0 -71 17t-44 43t-15 53h-28z" />
    <glyph glyph-name="uni041A" unicode="&#x41a;" horiz-adv-x="565" 
d="M84 700v-700h32v700h-32zM417 700l-310 -329l325 -371h42l-326 372l311 328h-42z" />
    <glyph glyph-name="uni041B" unicode="&#x41b;" horiz-adv-x="626" 
d="M546 700h-443v-454q0 -40 -6 -78.5t-18 -70t-29 -50.5t-40 -19v-28q39 0 66.5 33t42.5 88t15 119v429h380v-669h32v700z" />
    <glyph glyph-name="uni041C" unicode="&#x41c;" horiz-adv-x="810" 
d="M152 616l260 -523l260 523l65 -616h33l-78 721l-280 -562l-280 562l-78 -721h33z" />
    <glyph glyph-name="uni041D" unicode="&#x41d;" horiz-adv-x="715" 
d="M103 366h466v31h-466v-31zM547 700v-700h33v700h-33zM87 700v-700h33v700h-33z" />
    <glyph glyph-name="uni041E" unicode="&#x41e;" horiz-adv-x="790" 
d="M81 350q0 95 39.5 168t109.5 115.5t159 42.5q91 0 160.5 -42.5t108.5 -115.5t39 -168q0 -94 -39 -167.5t-108.5 -116t-160.5 -42.5q-89 0 -159 42.5t-109.5 116t-39.5 167.5zM47 350q0 -77 25.5 -143t71.5 -114t108.5 -75t136.5 -27q75 0 137 27t108.5 75t72 114
t25.5 143q0 78 -25.5 143.5t-72 113.5t-108.5 75t-137 27q-74 0 -136.5 -27t-108.5 -75t-71.5 -113.5t-25.5 -143.5z" />
    <glyph glyph-name="uni041F" unicode="&#x41f;" horiz-adv-x="662" 
d="M550 669v-669h32v700h-502v-700h32v669h438z" />
    <glyph glyph-name="uni0420" unicode="&#x420;" horiz-adv-x="548" 
d="M87 700v-700h33v700h-33zM106 669h125q84 0 136.5 -45t52.5 -129t-52.5 -129.5t-136.5 -45.5h-125v-30h125q65 0 115 24.5t78.5 70.5t28.5 110q0 65 -28.5 110.5t-78.5 70t-115 24.5h-125v-31z" />
    <glyph glyph-name="uni0421" unicode="&#x421;" horiz-adv-x="685" 
d="M82 350q0 96 39.5 169t107.5 114.5t154 41.5q48 0 88.5 -10t75 -30t61.5 -49v43q-44 39 -96 59.5t-129 20.5q-73 0 -134.5 -26.5t-106.5 -75t-70 -114t-25 -143.5t25 -143.5t70 -114t106.5 -75t134.5 -26.5q77 0 129 20.5t96 59.5v44q-28 -29 -61 -49.5t-73.5 -30.5
t-90.5 -10q-86 0 -154 42t-107.5 115.5t-39.5 167.5z" />
    <glyph glyph-name="uni0422" unicode="&#x422;" horiz-adv-x="465" 
d="M17 669h187v-669h33v669h187v31h-407v-31z" />
    <glyph glyph-name="uni0423" unicode="&#x423;" horiz-adv-x="505" 
d="M505 700h-35l-218 -469l18 -1l-232 470h-38l242 -481l-101 -219h35z" />
    <glyph glyph-name="uni0424" unicode="&#x424;" horiz-adv-x="746" 
d="M357 700v-700h32v700h-32zM674 350q0 -75 -37.5 -128.5t-102.5 -82t-148 -28.5h-26q-83 0 -148 28.5t-102.5 82t-37.5 128.5q0 76 37.5 128.5t102.5 80.5t148 28h26q83 0 148 -28t102.5 -80.5t37.5 -128.5zM706 350q0 85 -41.5 145t-114 92.5t-164.5 32.5h-26
q-92 0 -164.5 -32.5t-114 -92.5t-41.5 -145q0 -84 41.5 -144.5t114 -93t164.5 -32.5h26q92 0 164.5 32.5t114 93t41.5 144.5z" />
    <glyph glyph-name="uni0425" unicode="&#x425;" horiz-adv-x="555" 
d="M445 700l-184 -304l-180 304h-39l202 -333l-227 -367h39l204 338l200 -338h39l-221 367l206 333h-39z" />
    <glyph glyph-name="uni0426" unicode="&#x426;" horiz-adv-x="707" 
d="M112 31v669h-32v-700h558v-110h29v141h-85v669h-32v-669h-438z" />
    <glyph glyph-name="uni0427" unicode="&#x427;" horiz-adv-x="562" 
d="M290 280h182v29h-182v-29zM450 700v-700h32v700h-32zM111 700h-31v-182q0 -67 23.5 -121t70.5 -85.5t116 -31.5v29q-59 0 -98.5 27.5t-60 75t-20.5 106.5v182z" />
    <glyph glyph-name="uni0428" unicode="&#x428;" horiz-adv-x="931" 
d="M820 31h-338v669h-32v-669h-338v669h-32v-700h772v700h-32v-669z" />
    <glyph glyph-name="uni0429" unicode="&#x429;" horiz-adv-x="977" 
d="M820 31h-338v669h-32v-669h-338v669h-32v-700h828v-110h29v141h-85v669h-32v-669z" />
    <glyph glyph-name="uni042A" unicode="&#x42a;" horiz-adv-x="628" 
d="M207 389h143q59 0 105.5 -21.5t73.5 -61.5t27 -96q0 -55 -27 -95.5t-73.5 -62t-105.5 -21.5h-143v-31h143q68 0 121.5 25.5t85 73t31.5 111.5q0 65 -31.5 112t-85 72.5t-121.5 25.5h-143v-31zM190 669v-669h32v700h-212v-31h180z" />
    <glyph glyph-name="uni042B" unicode="&#x42b;" horiz-adv-x="708" 
d="M593 700v-700h32v700h-32zM76 700v-700h32v700h-32zM94 389h143q59 0 105.5 -21.5t73.5 -61.5t27 -96q0 -55 -27 -95.5t-73.5 -62t-105.5 -21.5h-143v-31h143q68 0 121.5 25.5t85 73t31.5 111.5q0 65 -31.5 112t-85 72.5t-121.5 25.5h-143v-31z" />
    <glyph glyph-name="uni042C" unicode="&#x42c;" horiz-adv-x="515" 
d="M76 700v-700h32v700h-32zM94 389h143q59 0 105.5 -21.5t73.5 -61.5t27 -96q0 -55 -27 -95.5t-73.5 -62t-105.5 -21.5h-143v-31h143q68 0 121.5 25.5t85 73t31.5 111.5q0 65 -31.5 112t-85 72.5t-121.5 25.5h-143v-31z" />
    <glyph glyph-name="uni042D" unicode="&#x42d;" horiz-adv-x="685" 
d="M153 335h450v30h-450v-30zM603 350q0 -94 -39 -167.5t-107 -115.5t-155 -42q-49 0 -90 10t-74 30.5t-61 49.5v-44q44 -39 96.5 -59.5t128.5 -20.5q73 0 134.5 26.5t106.5 75t70 114t25 143.5t-25 143.5t-70 114t-106.5 75t-134.5 26.5q-76 0 -128.5 -20.5t-96.5 -59.5
v-43q27 29 61.5 49t75 30t88.5 10q86 0 154.5 -41.5t107.5 -114.5t39 -169z" />
    <glyph glyph-name="uni042E" unicode="&#x42e;" horiz-adv-x="1026" 
d="M99 365h220v30h-220v-30zM80 700v-700h32v700h-32zM328 351q0 95 39.5 168.5t109.5 115.5t159 42q91 0 160.5 -42t109 -115.5t39.5 -168.5q0 -93 -39.5 -167t-109 -117t-160.5 -43q-89 0 -159 43t-109.5 117t-39.5 167zM294 351q0 -77 25.5 -143t71.5 -114.5t109 -75.5
t136 -27q75 0 137 27t108.5 75.5t72 114.5t25.5 143q0 78 -25.5 143.5t-72 113.5t-108.5 75t-137 27q-73 0 -136 -27t-109 -75t-71.5 -113.5t-25.5 -143.5z" />
    <glyph glyph-name="uni042F" unicode="&#x42f;" horiz-adv-x="495" 
d="M294 325h-36l-230 -325h40zM408 700h-33v-700h33v700zM393 670v30h-122q-67 0 -120.5 -22.5t-85 -66.5t-31.5 -109q0 -64 31.5 -108.5t85 -67t120.5 -22.5h122v29h-122q-60 0 -106 19t-72 56.5t-26 93.5t26 93.5t72.5 56t105.5 18.5h122z" />
    <glyph glyph-name="uni0430" unicode="&#x430;" horiz-adv-x="485" 
d="M68 135q0 41 22 68t57.5 41t76.5 14q49 0 83 -14t57 -33v21q-9 9 -27 21t-46 20.5t-69 8.5q-49 0 -91 -17t-68 -49.5t-26 -81.5q0 -50 22 -82t58 -47t75 -15q50 0 88 22t59 58.5t21 80.5l-8 15q0 -43 -20.5 -76.5t-55.5 -52.5t-79 -19q-32 0 -62 12t-48.5 37.5
t-18.5 67.5zM92 382q17 15 37.5 29t47.5 22.5t60 8.5q55 0 85 -31.5t30 -87.5v-323h31v323q0 45 -16.5 77.5t-49 51t-80.5 18.5q-57 0 -96.5 -21t-64.5 -43z" />
    <glyph glyph-name="uni0431" unicode="&#x431;" horiz-adv-x="546" 
d="M273 441q58 0 105 -26.5t74.5 -74.5t27.5 -110t-28.5 -109.5t-75.5 -74.5t-103 -27t-101 27t-72.5 74.5t-27.5 109.5l-37 60q0 -99 31.5 -166t85.5 -100.5t121 -33.5q68 0 121.5 31t85 85.5t31.5 123.5q0 70 -31.5 124t-85 85t-121.5 31v-29zM54 230h18q0 51 18.5 90
t48 66t65 41t69.5 14v29q-42 0 -81 -16.5t-70 -47.5t-49.5 -75.5t-18.5 -100.5zM35 290l28 -58v66q0 87 17 152.5t58.5 110.5t112.5 69q50 17 84.5 40t54.5 51t24 59h-30q-7 -36 -40 -68.5t-101 -55.5q-80 -27 -125.5 -77.5t-64 -122.5t-18.5 -166z" />
    <glyph glyph-name="uni0432" unicode="&#x432;" horiz-adv-x="423" 
d="M92 234v-17h133q23 0 47 -3t44.5 -12t33.5 -27t13 -47q0 -40 -28.5 -70t-95.5 -30h-147v-28h153q79 0 113.5 36.5t34.5 88.5q0 45 -22 68t-60 32t-86 9h-133zM92 226h123q43 0 78.5 11t57.5 35t22 63q0 45 -22 72.5t-57.5 40t-78.5 12.5h-123v-28h123q55 0 91.5 -24.5
t36.5 -73.5q0 -27 -13 -44.5t-33 -27.5t-42 -14t-40 -4h-123v-18zM75 460v-460h31v460h-31z" />
    <glyph glyph-name="uni0433" unicode="&#x433;" horiz-adv-x="309" 
d="M80 460v-460h31v431h193v29h-224z" />
    <glyph glyph-name="uni0434" unicode="&#x434;" horiz-adv-x="655" 
d="M325 427l191 -411h34l-225 479l-225 -479h34zM579 0v-90h31v119h-570v-119h32v90h507z" />
    <glyph glyph-name="uni0435" unicode="&#x435;" horiz-adv-x="515" 
d="M62 223h400q1 6 1.5 12.5t0.5 12.5q0 66 -28 115.5t-75 78t-104 28.5q-52 0 -94.5 -21.5t-71 -60t-41.5 -89.5q-4 -16 -6 -33t-2 -35q0 -69 28 -123.5t75 -86t106 -31.5q62 0 100.5 18t62.5 45t42 54l-25 16q-15 -24 -36.5 -48t-55.5 -40t-85 -16q-52 0 -93 27t-64.5 75
t-23.5 110v9q0 64 26.5 109t68.5 69t89 24q49 0 89 -25t63.5 -68t20.5 -99h-368v-27z" />
    <glyph glyph-name="uni0436" unicode="&#x436;" horiz-adv-x="519" 
d="M453 460l-186 -190l206 -270h39l-210 266l190 194h-39zM274 460h-29v-460h29v460zM66 460h-39l190 -194l-210 -266h39l206 270z" />
    <glyph glyph-name="uni0437" unicode="&#x437;" horiz-adv-x="475" 
d="M249 239q79 0 120 31.5t41 80.5q0 36 -20.5 62.5t-55 41.5t-78.5 15q-46 0 -84.5 -18.5t-61.5 -49.5t-23 -69h31q0 27 17 52t48 41t73 16q52 0 87 -25t35 -68q0 -41 -34 -65.5t-95 -24.5v-20zM253 -10q46 0 86.5 16t65.5 47t25 76q0 60 -47 91t-134 31v-20
q41 0 75.5 -10.5t54.5 -33t20 -59.5q0 -36 -21 -61t-54 -37t-71 -12q-71 0 -111.5 37t-48.5 90h-31q8 -67 58.5 -111t132.5 -44z" />
    <glyph glyph-name="uni0438" unicode="&#x438;" horiz-adv-x="496" 
d="M411 441l5 54l-331 -476l-5 -54zM111 460h-31v-495l31 46v449zM416 495l-31 -46v-449h31v495z" />
    <glyph glyph-name="uni0439" unicode="&#x439;" horiz-adv-x="496" 
d="M411 441l5 54l-331 -476l-5 -54zM111 460h-31v-495l31 46v449zM416 495l-31 -46v-449h31v495zM89 695q0 -34 17.5 -66.5t53 -53t87.5 -20.5q53 0 88 20.5t52.5 53t17.5 66.5h-28q0 -27 -15 -53t-43.5 -43.5t-71.5 -17.5t-72 17.5t-43.5 43.5t-14.5 53h-28z" />
    <glyph glyph-name="uni043A" unicode="&#x43a;" horiz-adv-x="440" 
d="M77 460v-460h31v460h-31zM326 460l-229 -190l249 -270h39l-248 270l229 190h-40z" />
    <glyph glyph-name="uni043B" unicode="&#x43b;" horiz-adv-x="509" 
d="M429 460h-346v-300q0 -65 -21.5 -98.5t-51.5 -33.5v-28q31 0 54.5 17.5t36.5 53t13 89.5v271h284v-431h31v460z" />
    <glyph glyph-name="uni043C" unicode="&#x43c;" horiz-adv-x="607" 
d="M567 0h35l-120 495l-15 -67zM293 27l9 -58l182 450l-2 76zM302 -31l9 58l-186 468l-2 -76zM5 0h36l99 428l-15 67z" />
    <glyph glyph-name="uni043D" unicode="&#x43d;" horiz-adv-x="516" 
d="M94 230h333v29h-333v-29zM410 460v-460h31v460h-31zM75 460v-460h31v460h-31z" />
    <glyph glyph-name="uni043E" unicode="&#x43e;" horiz-adv-x="546" 
d="M42 230q0 -69 31 -123.5t84 -85.5t119 -31q67 0 120 31t84 85.5t31 123.5q0 70 -31 124t-84 85t-120 31q-66 0 -119 -31t-84 -85t-31 -124zM73 230q0 61 27 109t73.5 75t103.5 27t103 -27t73 -75t27 -109t-27 -109t-73 -75t-103 -27t-103.5 27t-73.5 74.5t-27 109.5z" />
    <glyph glyph-name="uni043F" unicode="&#x43f;" horiz-adv-x="476" 
d="M401 460h-326v-460h31v431h264v-431h31v460z" />
    <glyph glyph-name="uni0440" unicode="&#x440;" horiz-adv-x="570" 
d="M108 -220v680h-31v-680h31zM507 230q0 74 -28.5 127.5t-78 83t-110.5 29.5q-60 0 -104 -33t-68 -88t-24 -119q0 -63 24 -118.5t68 -88.5t104 -33q61 0 110.5 29.5t78 83.5t28.5 127zM477 230q0 -65 -26 -112.5t-69 -73t-97 -25.5q-48 0 -88.5 29.5t-64.5 77t-24 104.5
t24 104.5t64.5 77t88.5 29.5q54 0 97 -25.5t69 -72.5t26 -113z" />
    <glyph glyph-name="uni0441" unicode="&#x441;" horiz-adv-x="478" 
d="M68 230q0 61 27 109t73.5 75t103.5 27q37 0 68.5 -11t54.5 -26.5t33 -30.5v39q-18 21 -61 39.5t-95 18.5q-67 0 -120 -31t-84 -85t-31 -124q0 -69 31 -123.5t84 -85.5t120 -31q52 0 95 18.5t61 39.5v39q-10 -15 -33 -30.5t-54.5 -26.5t-68.5 -11q-57 0 -103.5 27
t-73.5 75t-27 109z" />
    <glyph glyph-name="uni0442" unicode="&#x442;" horiz-adv-x="280" 
d="M5 460v-29h270v29h-270zM125 451v-451h30v451h-30z" />
    <glyph glyph-name="uni0443" unicode="&#x443;" horiz-adv-x="440" 
d="M422 460h-34l-179 -415l18 -2l-184 417h-36l193 -427l-112 -253h34z" />
    <glyph glyph-name="uni0444" unicode="&#x444;" horiz-adv-x="586" 
d="M278 560v-660h30v660h-30zM35 230q0 -69 32 -123.5t90.5 -85.5t135.5 -31q78 0 136 31t90 85.5t32 123.5q0 70 -32 124t-90 85t-136 31q-77 0 -135.5 -31t-90.5 -85t-32 -124zM66 230q0 59 27 107t78 76t122 28t122 -28t78 -76t27 -107t-27 -106.5t-78 -76t-122 -28.5
t-122 28.5t-78 76t-27 106.5z" />
    <glyph glyph-name="uni0445" unicode="&#x445;" horiz-adv-x="420" 
d="M338 460l-142 -199l-142 199h-37l161 -223l-171 -237h37l152 213l152 -213h37l-172 237l161 223h-36z" />
    <glyph glyph-name="uni0446" unicode="&#x446;" horiz-adv-x="516" 
d="M401 29v431h-31v-431h-264v431h-31v-460h378v-90h28v119h-80z" />
    <glyph glyph-name="uni0447" unicode="&#x447;" horiz-adv-x="436" 
d="M230 140h122v29h-122v-29zM330 460v-460h31v460h-31zM81 460h-31v-132q0 -67 16 -108.5t55.5 -60.5t108.5 -19v29q-56 0 -88.5 15t-46.5 50t-14 94v132z" />
    <glyph glyph-name="uni0448" unicode="&#x448;" horiz-adv-x="731" 
d="M381 29v431h-31v-431h-244v431h-31v-460h581v460h-31v-431h-244z" />
    <glyph glyph-name="uni0449" unicode="&#x449;" horiz-adv-x="771" 
d="M381 29v431h-31v-431h-244v431h-31v-460h633v-90h28v119h-80v431h-31v-431h-244z" />
    <glyph glyph-name="uni044A" unicode="&#x44a;" horiz-adv-x="532" 
d="M189 258h125q60 0 99 -28.5t39 -86.5q0 -41 -18 -66t-49 -37t-71 -12h-125v-28h125q48 0 86 15t60 47t22 81q0 74 -48.5 108.5t-119.5 34.5h-125v-28zM170 431v-431h31v460h-196v-29h165z" />
    <glyph glyph-name="uni044B" unicode="&#x44b;" horiz-adv-x="578" 
d="M472 460v-460h31v460h-31zM75 460v-460h31v460h-31zM90 258h126q59 0 98 -28.5t39 -86.5q0 -41 -18 -66t-49 -37t-70 -12h-126v-28h126q48 0 86 15t60 47t22 81q0 74 -48.5 108.5t-119.5 34.5h-126v-28z" />
    <glyph glyph-name="uni044C" unicode="&#x44c;" horiz-adv-x="434" 
d="M75 460v-460h31v460h-31zM90 258h126q59 0 98 -28.5t39 -86.5q0 -41 -18 -66t-49 -37t-70 -12h-126v-28h126q48 0 86 15t60 47t22 81q0 74 -48.5 108.5t-119.5 34.5h-126v-28z" />
    <glyph glyph-name="uni044D" unicode="&#x44d;" horiz-adv-x="485" 
d="M137 244v-28h282l21 28h-303zM417 230q0 -61 -27 -109t-73 -75t-103 -27q-37 0 -69 11t-54.5 26.5t-33.5 30.5v-39q19 -21 61.5 -39.5t95.5 -18.5q66 0 119 31t84 85.5t31 123.5q0 70 -31 124t-84 85t-119 31q-53 0 -95.5 -18.5t-61.5 -39.5v-39q11 15 33.5 30.5
t54.5 26.5t69 11q57 0 103 -27t73 -75t27 -109z" />
    <glyph glyph-name="uni044E" unicode="&#x44e;" horiz-adv-x="753" 
d="M94 226h170v29h-170v-29zM75 460v-460h31v460h-31zM242 230q0 -69 31 -123.5t84 -85.5t119 -31q67 0 120 31t84 85.5t31 123.5q0 70 -31 124t-84 85t-120 31q-66 0 -119 -31t-84 -85t-31 -124zM273 230q0 61 27 109t73.5 75t103.5 27t103 -27t73 -75t27 -109t-27 -109
t-73 -75t-103 -27t-103.5 27t-73.5 74.5t-27 109.5z" />
    <glyph glyph-name="uni044F" unicode="&#x44f;" horiz-adv-x="434" 
d="M88 0l153 207h-35l-153 -207h35zM384 0v460h-31v-460h31zM365 212h-122q-40 0 -71 11t-48.5 35.5t-17.5 63.5q0 40 17.5 64t48.5 35t71 11h122v28h-122q-47 0 -85.5 -14t-60.5 -44t-22 -80q0 -49 22 -79.5t60.5 -44.5t85.5 -14h122v28z" />
    <glyph glyph-name="uni0450" unicode="&#x450;" horiz-adv-x="515" 
d="M62 223h400q1 6 1.5 12.5t0.5 12.5q0 66 -28 115.5t-75 78t-104 28.5q-52 0 -94.5 -21.5t-71 -60t-41.5 -89.5q-4 -16 -6 -33t-2 -35q0 -69 28 -123.5t75 -86t106 -31.5q62 0 100.5 18t62.5 45t42 54l-25 16q-15 -24 -36.5 -48t-55.5 -40t-85 -16q-52 0 -93 27t-64.5 75
t-23.5 110v9q0 64 26.5 109t68.5 69t89 24q49 0 89 -25t63.5 -68t20.5 -99h-368v-27zM131 703l175 -155l16 12l-164 160z" />
    <glyph glyph-name="uni0451" unicode="&#x451;" horiz-adv-x="515" 
d="M62 223h400q1 6 1.5 12.5t0.5 12.5q0 66 -28 115.5t-75 78t-104 28.5q-52 0 -94.5 -21.5t-71 -60t-41.5 -89.5q-4 -16 -6 -33t-2 -35q0 -69 28 -123.5t75 -86t106 -31.5q62 0 100.5 18t62.5 45t42 54l-25 16q-15 -24 -36.5 -48t-55.5 -40t-85 -16q-52 0 -93 27t-64.5 75
t-23.5 110v9q0 64 26.5 109t68.5 69t89 24q49 0 89 -25t63.5 -68t20.5 -99h-368v-27zM322 605q0 -9 7.5 -16t16.5 -7q10 0 17 7t7 16q0 11 -7 17.5t-17 6.5q-9 0 -16.5 -6.5t-7.5 -17.5zM122 605q0 -9 7.5 -16t16.5 -7q10 0 17 7t7 16q0 11 -7 17.5t-17 6.5q-9 0 -16.5 -6.5
t-7.5 -17.5z" />
    <glyph glyph-name="uni0453" unicode="&#x453;" horiz-adv-x="309" 
d="M80 460v-460h31v431h193v29h-224zM326 685l-27 17l-164 -160l16 -12z" />
    <glyph glyph-name="uni045C" unicode="&#x45c;" horiz-adv-x="440" 
d="M77 460v-460h31v460h-31zM326 460l-229 -190l249 -270h39l-248 270l229 190h-40zM392 703l-28 17l-164 -160l17 -12z" />
    <glyph glyph-name="uni045D" unicode="&#x45d;" horiz-adv-x="496" 
d="M411 441l5 54l-331 -476l-5 -54zM111 460h-31v-495l31 46v449zM416 495l-31 -46v-449h31v495zM90 710l175 -155l17 12l-164 160z" />
    <glyph glyph-name="uni045E" unicode="&#x45e;" horiz-adv-x="440" 
d="M422 460h-34l-179 -415l18 -2l-184 417h-36l193 -427l-112 -253h34zM62 670q0 -34 17.5 -66.5t53 -53t87.5 -20.5q53 0 88 20.5t52.5 53t17.5 66.5h-28q0 -27 -14.5 -53t-43.5 -43.5t-72 -17.5t-72 17.5t-43.5 43.5t-14.5 53h-28z" />
    <glyph glyph-name="Wgrave" unicode="&#x1e80;" horiz-adv-x="962" 
d="M479 781l17 12l-164 160l-28 -17zM697 73l-216 648l-215 -648l-213 627h-36l247 -721l217 649l217 -649l247 721h-36z" />
    <glyph glyph-name="wgrave" unicode="&#x1e81;" horiz-adv-x="638" 
d="M312 541l17 12l-164 160l-28 -17zM12 460l163 -481l139 421l149 -421l163 481h-34l-131 -401l-147 422l-138 -421l-130 400h-34z" />
    <glyph glyph-name="Wacute" unicode="&#x1e82;" horiz-adv-x="962" 
d="M483 781l175 155l-28 17l-164 -160zM697 73l-216 648l-215 -648l-213 627h-36l247 -721l217 649l217 -649l247 721h-36z" />
    <glyph glyph-name="wacute" unicode="&#x1e83;" horiz-adv-x="638" 
d="M316 541l175 155l-28 17l-164 -160zM12 460l163 -481l139 421l149 -421l163 481h-34l-131 -401l-147 422l-138 -421l-130 400h-34z" />
    <glyph glyph-name="Wdieresis" unicode="&#x1e84;" horiz-adv-x="962" 
d="M557 804q0 -9 7.5 -16t16.5 -7q10 0 17 7t7 16q0 11 -7 17.5t-17 6.5q-9 0 -16.5 -7t-7.5 -17zM357 804q0 -9 7.5 -16t16.5 -7q10 0 17 7t7 16q0 11 -7 17.5t-17 6.5q-9 0 -16.5 -7t-7.5 -17zM697 73l-216 648l-215 -648l-213 627h-36l247 -721l217 649l217 -649l247 721
h-36z" />
    <glyph glyph-name="wdieresis" unicode="&#x1e85;" horiz-adv-x="638" 
d="M390 564q0 -9 7.5 -16t16.5 -7q10 0 17 7t7 16q0 11 -7 17.5t-17 6.5q-9 0 -16.5 -7t-7.5 -17zM190 564q0 -9 7.5 -16t16.5 -7q10 0 17 7t7 16q0 11 -7 17.5t-17 6.5q-9 0 -16.5 -7t-7.5 -17zM12 460l163 -481l139 421l149 -421l163 481h-34l-131 -401l-147 422
l-138 -421l-130 400h-34z" />
    <glyph glyph-name="uni1E86" unicode="&#x1e86;" horiz-adv-x="962" 
d="M457 804q0 -10 7 -16.5t17 -6.5t16.5 6.5t6.5 16.5q0 11 -6.5 17.5t-16.5 6.5t-17 -7t-7 -17zM697 73l-216 648l-215 -648l-213 627h-36l247 -721l217 649l217 -649l247 721h-36z" />
    <glyph glyph-name="uni1E87" unicode="&#x1e87;" horiz-adv-x="638" 
d="M290 564q0 -10 7 -16.5t17 -6.5t16.5 6.5t6.5 16.5q0 11 -6.5 17.5t-16.5 6.5t-17 -7t-7 -17zM12 460l163 -481l139 421l149 -421l163 481h-34l-131 -401l-147 422l-138 -421l-130 400h-34z" />
    <glyph glyph-name="uni1E88" unicode="&#x1e88;" horiz-adv-x="962" 
d="M457 -105q0 -10 7 -16.5t17 -6.5t16.5 6.5t6.5 16.5q0 11 -6.5 17.5t-16.5 6.5t-17 -7t-7 -17zM697 73l-216 648l-215 -648l-213 627h-36l247 -721l217 649l217 -649l247 721h-36z" />
    <glyph glyph-name="uni1E89" unicode="&#x1e89;" horiz-adv-x="638" 
d="M295 -105q0 -10 7 -16.5t17 -6.5t16.5 6.5t6.5 16.5q0 11 -6.5 17.5t-16.5 6.5t-17 -7t-7 -17zM12 460l163 -481l139 421l149 -421l163 481h-34l-131 -401l-147 422l-138 -421l-130 400h-34z" />
    <glyph glyph-name="uni1E9E" unicode="&#x1e9e;" horiz-adv-x="681" 
d="M422 -11q-59 0 -107.5 18t-85.5 48l17 26q41 -31 86 -45t92 -14q56 0 98.5 18.5t66 52t23.5 76.5t-20.5 67.5t-51 39t-61 25.5t-51 24.5t-20.5 38.5q0 20 14 34t35 26.5t42.5 27t35.5 35.5t14 53q0 35 -19.5 66t-61 50.5t-107.5 19.5q-69 0 -125.5 -26t-89.5 -81
t-33 -140l1 -430h-34v436q0 72 23 123.5t63 85t91 49t108 15.5q70 0 118.5 -21.5t74.5 -58t26 -82.5q0 -38 -14 -62.5t-35 -41.5t-41.5 -29t-34.5 -23t-14 -25q0 -17 20.5 -27t50.5 -20.5t60 -27t50.5 -45t20.5 -74.5q0 -54 -28.5 -94.5t-79 -64t-117.5 -23.5z" />
    <glyph glyph-name="Ygrave" unicode="&#x1ef2;" horiz-adv-x="523" 
d="M260 769l17 12l-164 160l-28 -17zM474 700l-217 -391l-208 391h-37l230 -424v-276h32v277l237 423h-37z" />
    <glyph glyph-name="ygrave" unicode="&#x1ef3;" horiz-adv-x="429" 
d="M213 530l17 12l-164 160l-28 -17zM422 460h-34l-179 -415l18 -2l-184 417h-36l193 -427l-112 -253h34z" />
    <glyph glyph-name="uni2010" unicode="&#x2010;" horiz-adv-x="210" 
d="M5 246h200v29h-200v-29z" />
    <glyph glyph-name="figuredash" unicode="&#x2012;" horiz-adv-x="590" 
d="M70 246h450v29h-450v-29z" />
    <glyph glyph-name="endash" unicode="&#x2013;" horiz-adv-x="740" 
d="M70 246h600v29h-600v-29z" />
    <glyph glyph-name="emdash" unicode="&#x2014;" horiz-adv-x="890" 
d="M70 246h750v29h-750v-29z" />
    <glyph glyph-name="quoteleft" unicode="&#x2018;" horiz-adv-x="240" 
d="M99 470l84 230h-24l-96 -230h36z" />
    <glyph glyph-name="quoteright" unicode="&#x2019;" horiz-adv-x="254" 
d="M155 700l-84 -230h23l97 230h-36z" />
    <glyph glyph-name="quotesinglbase" unicode="&#x201a;" horiz-adv-x="254" 
d="M143 80l-83 -230h23l97 230h-37z" />
    <glyph glyph-name="quotedblleft" unicode="&#x201c;" horiz-adv-x="411" 
d="M113 470l84 230h-23l-97 -230h36zM271 470l83 230h-23l-96 -230h36z" />
    <glyph glyph-name="quotedblright" unicode="&#x201d;" horiz-adv-x="411" 
d="M140 700l-83 -230h23l97 230h-37zM298 700l-83 -230h23l96 230h-36z" />
    <glyph glyph-name="quotedblbase" unicode="&#x201e;" horiz-adv-x="411" 
d="M140 80l-83 -230h23l97 230h-37zM298 80l-83 -230h23l96 230h-36z" />
    <glyph glyph-name="dagger" unicode="&#x2020;" horiz-adv-x="521" 
d="M90 540v-29h341v29h-341zM245 700v-850h31v850h-31z" />
    <glyph glyph-name="daggerdbl" unicode="&#x2021;" horiz-adv-x="521" 
d="M90 120v-29h341v29h-341zM90 540v-29h341v29h-341zM245 700v-850h31v850h-31z" />
    <glyph glyph-name="bullet" unicode="&#x2022;" horiz-adv-x="300" 
d="M112 387q0 -10 7 -16.5t17 -6.5t17 6.5t7 16.5q0 11 -7 17.5t-17 6.5q-9 0 -16.5 -7t-7.5 -17z" />
    <glyph glyph-name="ellipsis" unicode="&#x2026;" horiz-adv-x="838" 
d="M113 12q0 -10 7 -16.5t17 -6.5t16.5 6.5t6.5 16.5q0 11 -6.5 17.5t-16.5 6.5t-17 -7t-7 -17zM395 12q0 -10 7 -16.5t17 -6.5t17 6.5t7 16.5q0 11 -7 17.5t-17 6.5q-9 0 -16.5 -7t-7.5 -17zM677 12q0 -10 7.5 -16.5t16.5 -6.5q11 0 17.5 6.5t6.5 16.5q0 11 -7 17.5
t-17 6.5q-9 0 -16.5 -7t-7.5 -17z" />
    <glyph glyph-name="perthousand" unicode="&#x2030;" horiz-adv-x="1089" 
d="M752 143q0 -43 18.5 -77.5t52.5 -55t80 -20.5t80 20.5t52.5 55t18.5 77.5t-18.5 77.5t-52.5 55t-80 20.5t-80 -20.5t-52.5 -55t-18.5 -77.5zM780 143q0 34 15 63t42.5 46.5t65.5 17.5t65.5 -17.5t42.5 -46.5t15 -63t-15 -63t-42.5 -47t-65.5 -18t-65.5 18t-42.5 47
t-15 63zM35 557q0 -43 19 -77.5t52.5 -55t79.5 -20.5t80 20.5t52.5 55t18.5 77.5t-18.5 77.5t-52.5 55t-80 20.5t-79.5 -20.5t-52.5 -55t-19 -77.5zM63 557q0 35 15 63.5t42.5 46t65.5 17.5q39 0 66 -17.5t42 -46t15 -63.5q0 -34 -15 -63t-42 -46.5t-66 -17.5
q-38 0 -65.5 17.5t-42.5 46.5t-15 63zM379 143q0 -43 18.5 -77.5t52.5 -55t80 -20.5t80 20.5t52.5 55t18.5 77.5t-18.5 77.5t-52.5 55t-80 20.5t-80 -20.5t-52.5 -55t-18.5 -77.5zM407 143q0 34 15 63t42.5 46.5t65.5 17.5t65.5 -17.5t42.5 -46.5t15 -63t-15 -63t-42.5 -47
t-65.5 -18t-65.5 18t-42.5 47t-15 63zM570 700l-455 -700h31l455 700h-31z" />
    <glyph glyph-name="uni2031" unicode="&#x2031;" horiz-adv-x="1462" 
d="M1125 143q0 -43 18.5 -77.5t52.5 -55t80 -20.5q45 0 79.5 20.5t53 55t18.5 77.5t-18.5 77.5t-53 55t-79.5 20.5q-46 0 -80 -20.5t-52.5 -55t-18.5 -77.5zM1153 143q0 34 15 63t42.5 46.5t65.5 17.5t65 -17.5t42.5 -46.5t15.5 -63t-15.5 -63t-42.5 -47t-65 -18t-65.5 18
t-42.5 47t-15 63zM752 143q0 -43 18.5 -77.5t52.5 -55t80 -20.5t80 20.5t52.5 55t18.5 77.5t-18.5 77.5t-52.5 55t-80 20.5t-80 -20.5t-52.5 -55t-18.5 -77.5zM780 143q0 34 15 63t42.5 46.5t65.5 17.5t65.5 -17.5t42.5 -46.5t15 -63t-15 -63t-42.5 -47t-65.5 -18t-65.5 18
t-42.5 47t-15 63zM35 557q0 -43 19 -77.5t52.5 -55t79.5 -20.5t80 20.5t52.5 55t18.5 77.5t-18.5 77.5t-52.5 55t-80 20.5t-79.5 -20.5t-52.5 -55t-19 -77.5zM63 557q0 35 15 63.5t42.5 46t65.5 17.5q39 0 66 -17.5t42 -46t15 -63.5q0 -34 -15 -63t-42 -46.5t-66 -17.5
q-38 0 -65.5 17.5t-42.5 46.5t-15 63zM379 143q0 -43 18.5 -77.5t52.5 -55t80 -20.5t80 20.5t52.5 55t18.5 77.5t-18.5 77.5t-52.5 55t-80 20.5t-80 -20.5t-52.5 -55t-18.5 -77.5zM407 143q0 34 15 63t42.5 46.5t65.5 17.5t65.5 -17.5t42.5 -46.5t15 -63t-15 -63t-42.5 -47
t-65.5 -18t-65.5 18t-42.5 47t-15 63zM570 700l-455 -700h31l455 700h-31z" />
    <glyph glyph-name="guilsinglleft" unicode="&#x2039;" horiz-adv-x="332" 
d="M73 256l189 216l-19 18l-203 -235l203 -235l19 18z" />
    <glyph glyph-name="guilsinglright" unicode="&#x203a;" horiz-adv-x="350" 
d="M277 254l-189 -216l19 -18l203 235l-203 235l-19 -18z" />
    <glyph glyph-name="uni203D" unicode="&#x203d;" horiz-adv-x="557" 
d="M441 514q0 -45 -25.5 -83.5t-70.5 -62t-101 -23.5l20 -22q34 0 64.5 10t57 27.5t45.5 41.5t30 52t11 60q0 42 -14 77.5t-41 62.5t-64.5 41.5t-84.5 14.5q-52 0 -89.5 -14.5t-64.5 -41t-50 -61.5l25 -16q20 32 45 55t57 36t74 13q56 0 95.5 -21.5t60 -59t20.5 -86.5z
M235 510l8 -340h21l8 340h-37zM230 12q0 -10 7 -16.5t17 -6.5t16.5 6.5t6.5 16.5q0 11 -6.5 17.5t-16.5 6.5t-17 -6.5t-7 -17.5z" />
    <glyph glyph-name="fraction" unicode="&#x2044;" horiz-adv-x="705" 
d="M617 700l-557 -700h28l557 700h-28z" />
    <glyph glyph-name="uni2070" unicode="&#x2070;" horiz-adv-x="338" 
d="M53 490q0 54 14.5 99t41 72t64.5 27t64 -27t40.5 -72t14.5 -99t-14.5 -99t-40.5 -72t-64 -27t-64.5 27t-41 72t-14.5 99zM34 490q0 -60 16.5 -109.5t48 -78t74.5 -28.5t74 28.5t48 78t17 109.5q0 61 -17 110t-48 77.5t-74 28.5t-74.5 -28.5t-48 -77.5t-16.5 -110z" />
    <glyph glyph-name="uni2074" unicode="&#x2074;" horiz-adv-x="375" 
d="M34 364h303v17h-74h-4h-209zM54 364l197 289v-278v-4v-91h20v420h-7l-230 -336h20z" />
    <glyph glyph-name="uni2075" unicode="&#x2075;" horiz-adv-x="345" 
d="M304 416q0 40 -16 70t-43.5 47t-61.5 17q-36 0 -64.5 -15t-44.5 -36l-15 -25q25 29 53.5 43.5t64.5 14.5q45 0 76 -32t31 -84q0 -61 -33.5 -93.5t-84.5 -32.5q-44 0 -72 22.5t-44 58.5l-16 -11q18 -39 49 -63.5t83 -24.5q38 0 69.5 16t50 48.5t18.5 79.5zM128 681h184v17
h-198l-55 -224l25 29z" />
    <glyph glyph-name="uni2076" unicode="&#x2076;" horiz-adv-x="336" 
d="M57 412q0 31 15 57.5t42 42.5t64 16q31 0 56 -15t40 -41.5t15 -59.5q0 -53 -32 -87.5t-84 -34.5q-51 0 -83.5 34.5t-32.5 87.5zM207 698l-136 -194q-12 -16 -22 -41t-10 -51q0 -41 17 -72.5t47 -49.5t70 -18q41 0 71 18t47 49.5t17 72.5q0 37 -17 66.5t-45 47.5t-62 18
q-30 0 -54 -10.5t-41 -31.5l1 -1l142 197h-25z" />
    <glyph glyph-name="uni2077" unicode="&#x2077;" horiz-adv-x="353" 
d="M34 682h256l-207 -402h20l216 420h-285v-18z" />
    <glyph glyph-name="uni2078" unicode="&#x2078;" horiz-adv-x="308" 
d="M46 603q0 -30 15.5 -54t40 -37t52.5 -13q29 0 53 13t39 37t15 54q0 28 -14 51.5t-38 37.5t-55 14t-55.5 -14t-38.5 -37.5t-14 -51.5zM65 601q0 37 25 62.5t64 25.5t64 -25.5t25 -62.5q0 -26 -13.5 -46t-34.5 -32t-41 -12t-40.5 12t-34.5 32t-14 46zM34 392
q0 -32 14.5 -59t41.5 -43t64 -16q38 0 64.5 16t41 43t14.5 59q0 25 -9.5 46.5t-26.5 36.5t-38.5 23t-45.5 8q-23 0 -45 -8t-39 -23t-26.5 -36.5t-9.5 -46.5zM52 394q0 29 15.5 51.5t38.5 35.5t48 13t48.5 -13t38.5 -35.5t15 -51.5q0 -46 -28 -74.5t-74 -28.5t-74 28.5
t-28 74.5z" />
    <glyph glyph-name="uni2079" unicode="&#x2079;" horiz-adv-x="336" 
d="M284 568q0 -31 -14 -57.5t-41.5 -42.5t-64.5 -16q-30 0 -55.5 15t-41 41.5t-15.5 59.5q0 53 32.5 87.5t83.5 34.5q52 0 84 -34.5t32 -87.5zM135 282l136 194q12 17 22 42t10 50q0 41 -17 72.5t-47 49.5t-71 18q-40 0 -70.5 -18t-47 -49.5t-16.5 -72.5q0 -36 17 -66
t45 -48t62 -18q30 0 54 10.5t41 31.5l-1 1l-141 -197h24z" />
    <glyph glyph-name="uni2080" unicode="&#x2080;" horiz-adv-x="345" 
d="M53 210q0 54 14.5 99t41 72t64.5 27t64 -27t40.5 -72t14.5 -99t-14.5 -99t-40.5 -72t-64 -27t-64.5 27t-41 72t-14.5 99zM34 210q0 -60 16.5 -109.5t48 -78t74.5 -28.5t74 28.5t48 78t17 109.5q0 61 -17 110t-48 77.5t-74 28.5t-74.5 -28.5t-48 -77.5t-16.5 -110z" />
    <glyph glyph-name="uni2081" unicode="&#x2081;" horiz-adv-x="296" 
d="M94 377l99 24v-400h19v424l-118 -28v-20z" />
    <glyph glyph-name="uni2082" unicode="&#x2082;" horiz-adv-x="336" 
d="M29 2h279v18h-238l168 175q23 24 40 52t17 63q0 26 -12 53.5t-38 46.5t-67 19q-39 0 -68.5 -19t-45.5 -53t-16 -79h19q0 59 30.5 96t80.5 37q35 0 56.5 -16t31 -38.5t9.5 -44.5q0 -34 -15.5 -58.5t-37.5 -47.5z" />
    <glyph glyph-name="uni2083" unicode="&#x2083;" horiz-adv-x="316" 
d="M140 214q35 0 65 13t49 36.5t19 54.5q0 41 -29 74.5t-83 33.5q-52 0 -83 -30.5t-31 -79.5h18q0 41 26.5 66.5t69.5 25.5q45 0 69 -27t24 -63q0 -28 -17.5 -48.5t-43.5 -31.5t-53 -11v-13zM158 -6q56 0 91.5 31.5t35.5 81.5q0 40 -22 65.5t-55 38t-68 12.5v-13
q27 0 56 -11t49.5 -33.5t20.5 -56.5q0 -43 -29.5 -70t-78.5 -27q-51 0 -80.5 28t-29.5 71h-19q0 -32 15 -59t44.5 -42.5t69.5 -15.5z" />
    <glyph glyph-name="uni2084" unicode="&#x2084;" horiz-adv-x="375" 
d="M34 84h303v17h-74h-4h-209zM54 84l197 289v-278v-4v-91h20v420h-7l-230 -336h20z" />
    <glyph glyph-name="uni2085" unicode="&#x2085;" horiz-adv-x="345" 
d="M304 136q0 40 -16 70t-43.5 47t-61.5 17q-36 0 -64.5 -15t-44.5 -36l-15 -25q25 29 53.5 43.5t64.5 14.5q45 0 76 -32t31 -84q0 -61 -33.5 -93.5t-84.5 -32.5q-44 0 -72 22.5t-44 58.5l-16 -11q18 -39 49 -63.5t83 -24.5q38 0 69.5 16t50 48.5t18.5 79.5zM128 401h184v17
h-198l-55 -224l25 29z" />
    <glyph glyph-name="uni2086" unicode="&#x2086;" horiz-adv-x="336" 
d="M57 132q0 31 14.5 57.5t41.5 42.5t65 16q31 0 56 -15t40 -41.5t15 -59.5q0 -53 -32 -87.5t-84 -34.5q-51 0 -83.5 34.5t-32.5 87.5zM207 418l-137 -194q-12 -16 -21.5 -41t-9.5 -51q0 -41 16.5 -72.5t47 -49.5t70.5 -18q41 0 71 18t47 49.5t17 72.5q0 37 -17 66.5
t-45 47.5t-62 18q-30 0 -54.5 -10.5t-41.5 -31.5l1 -1l142 197h-24z" />
    <glyph glyph-name="uni2087" unicode="&#x2087;" horiz-adv-x="353" 
d="M34 402h256l-207 -402h20l216 420h-285v-18z" />
    <glyph glyph-name="uni2088" unicode="&#x2088;" horiz-adv-x="308" 
d="M46 323q0 -30 15.5 -54t40 -37t52.5 -13q29 0 53 13t39 37t15 54q0 28 -14 51.5t-38 37.5t-55 14t-55.5 -14t-38.5 -37.5t-14 -51.5zM65 321q0 37 25 62.5t64 25.5t64 -25.5t25 -62.5q0 -26 -13.5 -46t-34.5 -32t-41 -12t-40.5 12t-34.5 32t-14 46zM34 112
q0 -32 14.5 -59t41.5 -43t64 -16q38 0 64.5 16t41 43t14.5 59q0 25 -9.5 46.5t-26.5 36.5t-38.5 23t-45.5 8q-23 0 -45 -8t-39 -23t-26.5 -36.5t-9.5 -46.5zM52 114q0 29 15.5 51.5t38.5 35.5t48 13t48.5 -13t38.5 -35.5t15 -51.5q0 -46 -28 -74.5t-74 -28.5t-74 28.5
t-28 74.5z" />
    <glyph glyph-name="uni2089" unicode="&#x2089;" horiz-adv-x="336" 
d="M279 288q0 -31 -14 -57.5t-41.5 -42.5t-64.5 -16q-30 0 -55.5 15t-41 41.5t-15.5 59.5q0 53 32.5 87.5t83.5 34.5q52 0 84 -34.5t32 -87.5zM130 2l136 194q12 17 22 42t10 50q0 41 -17 72.5t-47 49.5t-71 18q-40 0 -70.5 -18t-47 -49.5t-16.5 -72.5q0 -37 17 -66.5
t45 -47.5t62 -18q30 0 54 10.5t41 31.5l-1 1l-141 -197h24z" />
    <glyph glyph-name="Euro" unicode="&#x20ac;" horiz-adv-x="665" 
d="M57 434h501v21h-501v-21zM57 314h475v21h-475v-21zM159 350q0 97 30.5 171t87.5 116t135 42q87 0 150 -50v40q-34 20 -71.5 30.5t-78.5 10.5q-65 0 -117.5 -26.5t-90.5 -75t-57.5 -114.5t-19.5 -144q0 -105 35 -186t99 -127.5t151 -46.5q41 0 78.5 11t71.5 30v40
q-63 -50 -150 -50q-75 0 -132.5 42t-89 116.5t-31.5 170.5z" />
    <glyph glyph-name="ruble" unicode="&#x20bd;" horiz-adv-x="716" 
d="M150 700v-700h32v700h-32zM167 669h153q61 0 109.5 -17t76.5 -54t28 -96q0 -58 -28 -95.5t-76.5 -54.5t-109.5 -17h-153v-31h153q68 0 123.5 20t88.5 64t33 114q0 72 -33 115t-88.5 63t-123.5 20h-153v-31zM220 151h200v29h-200v-29zM30 304h200v29h-200v-29zM30 151h200
v29h-200v-29z" />
    <glyph glyph-name="trademark" unicode="&#x2122;" horiz-adv-x="665" 
d="M36 684h94v-334h16v334h94v16h-204v-16zM583 663l34 -313h16l-39 361zM314 711l-39 -361h17l33 313zM594 711l-140 -282l-140 282l2 -39l138 -276l137 276z" />
    <glyph glyph-name="uni2150" unicode="&#x2150;" horiz-adv-x="842" 
d="M605 700l-557 -700h28l557 700h-28zM24 650l99 24v-400h19v424l-118 -28v-20zM522 402h256l-207 -402h20l216 420h-285v-18z" />
    <glyph glyph-name="uni2151" unicode="&#x2151;" horiz-adv-x="784" 
d="M605 700l-557 -700h28l557 700h-28zM24 650l99 24v-400h19v424l-118 -28v-20zM722 288q0 -31 -14 -57.5t-41.5 -42.5t-64.5 -16q-30 0 -55.5 15t-41 41.5t-15.5 59.5q0 53 32.5 87.5t83.5 34.5q52 0 84 -34.5t32 -87.5zM573 2l136 194q12 17 22 42t10 50q0 41 -17 72.5
t-47 49.5t-71 18q-40 0 -70.5 -18t-47 -49.5t-16.5 -72.5q0 -37 17 -66.5t45 -47.5t62 -18q30 0 54 10.5t41 31.5l-1 1l-141 -197h24z" />
    <glyph glyph-name="uni2152" unicode="&#x2152;" horiz-adv-x="1080" 
d="M605 700l-557 -700h28l557 700h-28zM24 650l99 24v-400h19v424l-118 -28v-20zM449 377l99 24v-400h20v424l-119 -28v-20zM761 210q0 54 14.5 99t41.5 72t64 27q38 0 64 -27t40.5 -72t14.5 -99t-14.5 -99t-40.5 -72t-64 -27q-37 0 -64 27t-41.5 72t-14.5 99zM742 210
q0 -60 16.5 -109.5t48 -78t74.5 -28.5t74 28.5t48 78t17 109.5q0 61 -17 110t-48 77.5t-74 28.5t-74.5 -28.5t-48 -77.5t-16.5 -110z" />
    <glyph glyph-name="onethird" unicode="&#x2153;" horiz-adv-x="755" 
d="M605 700l-557 -700h28l557 700h-28zM24 650l99 24v-400h19v424l-118 -28v-20zM578 214q35 0 65 13t49 36.5t19 54.5q0 41 -29 74.5t-83 33.5q-52 0 -83 -30.5t-31 -79.5h18q0 41 26.5 66.5t69.5 25.5q45 0 69 -27t24 -63q0 -28 -17.5 -48.5t-43.5 -31.5t-53 -11v-13z
M596 -6q56 0 91.5 31.5t35.5 81.5q0 40 -22 65.5t-55 38t-68 12.5v-13q27 0 56 -11t49.5 -33.5t20.5 -56.5q0 -43 -29.5 -70t-78.5 -27q-51 0 -80.5 28t-29.5 71h-19q0 -32 15 -59t44.5 -42.5t69.5 -15.5z" />
    <glyph glyph-name="twothirds" unicode="&#x2154;" horiz-adv-x="882" 
d="M732 700l-557 -700h28l557 700h-28zM32 282h279v18h-237l167 175q24 24 41 52t17 63q0 26 -12 53.5t-38 46.5t-68 19q-39 0 -68 -19t-45 -53t-16 -79h19q0 59 30 96t80 37q35 0 56.5 -16t31.5 -38.5t10 -44.5q0 -34 -15.5 -58.5t-37.5 -47.5zM705 214q35 0 65 13t49 36.5
t19 54.5q0 41 -29 74.5t-83 33.5q-52 0 -83 -30.5t-31 -79.5h18q0 41 26.5 66.5t69.5 25.5q45 0 69 -27t24 -63q0 -28 -17.5 -48.5t-43.5 -31.5t-53 -11v-13zM723 -6q56 0 91.5 31.5t35.5 81.5q0 40 -22 65.5t-55 38t-68 12.5v-13q27 0 56 -11t49.5 -33.5t20.5 -56.5
q0 -43 -29.5 -70t-78.5 -27q-51 0 -80.5 28t-29.5 71h-19q0 -32 15 -59t44.5 -42.5t69.5 -15.5z" />
    <glyph glyph-name="uni2155" unicode="&#x2155;" horiz-adv-x="744" 
d="M605 700l-557 -700h28l557 700h-28zM24 650l99 24v-400h19v424l-118 -28v-20zM692 136q0 40 -16 70t-43.5 47t-61.5 17q-36 0 -64.5 -15t-44.5 -36l-15 -25q25 29 53.5 43.5t64.5 14.5q45 0 76 -32t31 -84q0 -61 -33.5 -93.5t-84.5 -32.5q-44 0 -72 22.5t-44 58.5
l-16 -11q18 -39 49 -63.5t83 -24.5q38 0 69.5 16t50 48.5t18.5 79.5zM516 401h184v17h-198l-55 -224l25 29z" />
    <glyph glyph-name="uni2156" unicode="&#x2156;" horiz-adv-x="871" 
d="M732 700l-557 -700h28l557 700h-28zM32 282h279v18h-237l167 175q24 24 41 52t17 63q0 26 -12 53.5t-38 46.5t-68 19q-39 0 -68 -19t-45 -53t-16 -79h19q0 59 30 96t80 37q35 0 56.5 -16t31.5 -38.5t10 -44.5q0 -34 -15.5 -58.5t-37.5 -47.5zM819 136q0 40 -16 70
t-43.5 47t-61.5 17q-36 0 -64.5 -15t-44.5 -36l-15 -25q25 29 53.5 43.5t64.5 14.5q45 0 76 -32t31 -84q0 -61 -33.5 -93.5t-84.5 -32.5q-44 0 -72 22.5t-44 58.5l-16 -11q18 -39 49 -63.5t83 -24.5q38 0 69.5 16t50 48.5t18.5 79.5zM643 401h184v17h-198l-55 -224l25 29z
" />
    <glyph glyph-name="uni2157" unicode="&#x2157;" horiz-adv-x="831" 
d="M692 700l-557 -700h28l557 700h-28zM145 494q35 0 65 13t49 36.5t19 54.5q0 41 -29 74.5t-83 33.5q-52 0 -83 -30.5t-31 -79.5h18q0 41 26.5 66.5t69.5 25.5q45 0 69 -27t24 -63q0 -28 -17.5 -48.5t-43.5 -31.5t-53 -11v-13zM163 274q56 0 91.5 31.5t35.5 81.5
q0 40 -22 65.5t-55 38t-68 12.5v-13q27 0 56 -11t49.5 -33.5t20.5 -56.5q0 -43 -29.5 -70t-78.5 -27q-51 0 -80.5 28t-29.5 71h-19q0 -32 15 -59t44.5 -42.5t69.5 -15.5zM779 136q0 40 -16 70t-43.5 47t-61.5 17q-36 0 -64.5 -15t-44.5 -36l-15 -25q25 29 53.5 43.5
t64.5 14.5q45 0 76 -32t31 -84q0 -61 -33.5 -93.5t-84.5 -32.5q-44 0 -72 22.5t-44 58.5l-16 -11q18 -39 49 -63.5t83 -24.5q38 0 69.5 16t50 48.5t18.5 79.5zM603 401h184v17h-198l-55 -224l25 29z" />
    <glyph glyph-name="uni2158" unicode="&#x2158;" horiz-adv-x="866" 
d="M727 700l-557 -700h28l557 700h-28zM34 364h303v17h-74h-4h-209zM54 364l197 289v-278v-4v-91h20v420h-7l-230 -336h20zM814 136q0 40 -16 70t-43.5 47t-61.5 17q-36 0 -64.5 -15t-44.5 -36l-15 -25q25 29 53.5 43.5t64.5 14.5q45 0 76 -32t31 -84q0 -61 -33.5 -93.5
t-84.5 -32.5q-44 0 -72 22.5t-44 58.5l-16 -11q18 -39 49 -63.5t83 -24.5q38 0 69.5 16t50 48.5t18.5 79.5zM638 401h184v17h-198l-55 -224l25 29z" />
    <glyph glyph-name="uni2159" unicode="&#x2159;" horiz-adv-x="734" 
d="M605 700l-557 -700h28l557 700h-28zM24 650l99 24v-400h19v424l-118 -28v-20zM445 132q0 31 14.5 57.5t42 42.5t64.5 16q31 0 56 -15t40 -41.5t15 -59.5q0 -53 -32 -87.5t-84 -34.5q-51 0 -83.5 34.5t-32.5 87.5zM595 418l-136 -194q-12 -16 -22 -41t-10 -51
q0 -41 17 -72.5t47 -49.5t70 -18q41 0 71 18t47 49.5t17 72.5q0 37 -17 66.5t-45 47.5t-62 18q-30 0 -54 -10.5t-41 -31.5l1 -1l142 197h-25z" />
    <glyph glyph-name="uni215A" unicode="&#x215a;" horiz-adv-x="856" 
d="M727 700l-557 -700h28l557 700h-28zM304 416q0 40 -16 70t-43.5 47t-61.5 17q-36 0 -64.5 -15t-44.5 -36l-15 -25q25 29 53.5 43.5t64.5 14.5q45 0 76 -32t31 -84q0 -61 -33.5 -93.5t-84.5 -32.5q-44 0 -72 22.5t-44 58.5l-16 -11q18 -39 49 -63.5t83 -24.5q38 0 69.5 16
t50 48.5t18.5 79.5zM128 681h184v17h-198l-55 -224l25 29zM567 132q0 31 15 57.5t42 42.5t64 16q31 0 56 -15t40 -41.5t15 -59.5q0 -53 -32 -87.5t-84 -34.5q-51 0 -83.5 34.5t-32.5 87.5zM717 418l-136 -194q-12 -16 -22 -41t-10 -51q0 -41 17 -72.5t47 -49.5t70 -18
q41 0 71 18t47 49.5t17 72.5q0 37 -17 66.5t-45 47.5t-62 18q-30 0 -54 -10.5t-41 -31.5l1 -1l142 197h-25z" />
    <glyph glyph-name="oneeighth" unicode="&#x215b;" horiz-adv-x="760" 
d="M605 700l-557 -700h28l557 700h-28zM24 650l99 24v-400h19v424l-118 -28v-20zM484 323q0 -30 15.5 -54t40 -37t52.5 -13q29 0 53 13t39 37t15 54q0 28 -13.5 51.5t-38 37.5t-55.5 14t-55 -14t-38.5 -37.5t-14.5 -51.5zM503 321q0 37 25 62.5t64 25.5t64 -25.5t25 -62.5
q0 -26 -14 -46t-34.5 -32t-40.5 -12t-40.5 12t-34.5 32t-14 46zM472 112q0 -32 14.5 -59t41.5 -43t64 -16q38 0 64.5 16t41 43t14.5 59q0 25 -9.5 46.5t-26.5 36.5t-38.5 23t-45.5 8q-23 0 -45 -8t-39 -23t-26.5 -36.5t-9.5 -46.5zM490 114q0 29 15 51.5t38.5 35.5t48.5 13
t48.5 -13t38.5 -35.5t15 -51.5q0 -46 -28 -74.5t-74 -28.5t-74 28.5t-28 74.5z" />
    <glyph glyph-name="threeeighths" unicode="&#x215c;" horiz-adv-x="847" 
d="M692 700l-557 -700h28l557 700h-28zM145 494q35 0 65 13t49 36.5t19 54.5q0 41 -29 74.5t-83 33.5q-52 0 -83 -30.5t-31 -79.5h18q0 41 26.5 66.5t69.5 25.5q45 0 69 -27t24 -63q0 -28 -17.5 -48.5t-43.5 -31.5t-53 -11v-13zM163 274q56 0 91.5 31.5t35.5 81.5
q0 40 -22 65.5t-55 38t-68 12.5v-13q27 0 56 -11t49.5 -33.5t20.5 -56.5q0 -43 -29.5 -70t-78.5 -27q-51 0 -80.5 28t-29.5 71h-19q0 -32 15 -59t44.5 -42.5t69.5 -15.5zM571 323q0 -30 15.5 -54t40 -37t52.5 -13q29 0 53 13t39 37t15 54q0 28 -13.5 51.5t-38 37.5t-55.5 14
t-55 -14t-38.5 -37.5t-14.5 -51.5zM590 321q0 37 25 62.5t64 25.5t64 -25.5t25 -62.5q0 -26 -14 -46t-34.5 -32t-40.5 -12t-40.5 12t-34.5 32t-14 46zM559 112q0 -32 14.5 -59t41.5 -43t64 -16q38 0 64.5 16t41 43t14.5 59q0 25 -9.5 46.5t-26.5 36.5t-38.5 23t-45.5 8
q-23 0 -45 -8t-39 -23t-26.5 -36.5t-9.5 -46.5zM577 114q0 29 15.5 51.5t38.5 35.5t48 13t48.5 -13t38.5 -35.5t15 -51.5q0 -46 -28 -74.5t-74 -28.5t-74 28.5t-28 74.5z" />
    <glyph glyph-name="fiveeighths" unicode="&#x215d;" horiz-adv-x="882" 
d="M727 700l-557 -700h28l557 700h-28zM304 416q0 40 -16 70t-43.5 47t-61.5 17q-36 0 -64.5 -15t-44.5 -36l-15 -25q25 29 53.5 43.5t64.5 14.5q45 0 76 -32t31 -84q0 -61 -33.5 -93.5t-84.5 -32.5q-44 0 -72 22.5t-44 58.5l-16 -11q18 -39 49 -63.5t83 -24.5q38 0 69.5 16
t50 48.5t18.5 79.5zM128 681h184v17h-198l-55 -224l25 29zM606 323q0 -30 15.5 -54t40 -37t52.5 -13q29 0 53 13t39 37t15 54q0 28 -13.5 51.5t-38 37.5t-55.5 14t-55 -14t-38.5 -37.5t-14.5 -51.5zM625 321q0 37 25 62.5t64 25.5t64 -25.5t25 -62.5q0 -26 -14 -46
t-34.5 -32t-40.5 -12t-40.5 12t-34.5 32t-14 46zM594 112q0 -32 14.5 -59t41.5 -43t64 -16q38 0 64.5 16t41 43t14.5 59q0 25 -9.5 46.5t-26.5 36.5t-38.5 23t-45.5 8q-23 0 -45 -8t-39 -23t-26.5 -36.5t-9.5 -46.5zM612 114q0 29 15.5 51.5t38.5 35.5t48 13t48.5 -13
t38.5 -35.5t15 -51.5q0 -46 -28 -74.5t-74 -28.5t-74 28.5t-28 74.5z" />
    <glyph glyph-name="seveneighths" unicode="&#x215e;" horiz-adv-x="772" 
d="M617 700l-557 -700h28l557 700h-28zM34 682h256l-207 -402h20l216 420h-285v-18zM496 323q0 -30 15.5 -54t40 -37t52.5 -13q29 0 53 13t39 37t15 54q0 28 -13.5 51.5t-38 37.5t-55.5 14t-55 -14t-38.5 -37.5t-14.5 -51.5zM515 321q0 37 25 62.5t64 25.5t64 -25.5
t25 -62.5q0 -26 -14 -46t-34.5 -32t-40.5 -12t-40.5 12t-34.5 32t-14 46zM484 112q0 -32 14.5 -59t41.5 -43t64 -16q38 0 64.5 16t41 43t14.5 59q0 25 -9.5 46.5t-26.5 36.5t-38.5 23t-45.5 8q-23 0 -45 -8t-39 -23t-26.5 -36.5t-9.5 -46.5zM502 114q0 29 15.5 51.5
t38.5 35.5t48 13t48.5 -13t38.5 -35.5t15 -51.5q0 -46 -28 -74.5t-74 -28.5t-74 28.5t-28 74.5z" />
    <glyph glyph-name="partialdiff" unicode="&#x2202;" horiz-adv-x="539" 
d="M269 -10q68 0 118 29.5t78 82t28 121.5q0 33 -7.5 64.5t-26.5 68t-51.5 84.5t-82 113.5t-119.5 153.5l-19 -20q49 -61 83 -104t59.5 -77.5t47 -68t45.5 -74.5l13 1q-75 79 -182 79q-58 0 -105 -29.5t-74.5 -79t-27.5 -111.5q0 -69 28 -121.5t78.5 -82t116.5 -29.5z
M269 20q-56 0 -99.5 26t-68.5 72t-25 105q0 54 25.5 98t67.5 70.5t93 26.5q57 0 102.5 -25.5t72 -69.5t26.5 -100q0 -59 -25 -105t-68.5 -72t-100.5 -26z" />
    <glyph glyph-name="emptyset" unicode="&#x2205;" horiz-adv-x="600" 
d="M300 28q59 0 107.5 29t77.5 77.5t29 107.5t-29 107.5t-77.5 77.5t-107.5 29t-107.5 -29t-77.5 -77.5t-29 -107.5t29 -107.5t77.5 -77.5t107.5 -29zM300 53q-52 0 -95 25.5t-68.5 68.5t-25.5 95t25.5 95t68.5 68.5t95 25.5t95 -25.5t68.5 -68.5t25.5 -95q0 -51 -25.5 -94
t-68.5 -69t-95 -26zM113 40l390 388l-16 15l-389 -388z" />
    <glyph glyph-name="product" unicode="&#x220f;" horiz-adv-x="600" 
d="M160 0h80v630h120v-630h80v630h85v70h-450v-70h85v-630z" />
    <glyph glyph-name="summation" unicode="&#x2211;" horiz-adv-x="600" 
d="M100 0h400v27h-356l157 325l-157 321h356v27h-400l170 -348z" />
    <glyph glyph-name="minus" unicode="&#x2212;" horiz-adv-x="590" 
d="M70 246h450v29h-450v-29z" />
    <glyph glyph-name="uni2215" unicode="&#x2215;" horiz-adv-x="487" 
d="M440 700l-425 -850h32l425 850h-32z" />
    <glyph glyph-name="uni2219" unicode="&#x2219;" horiz-adv-x="272" 
d="M112 439q0 -10 7 -17t17 -7t17 7t7 17t-7 17t-17 7q-9 0 -16.5 -7t-7.5 -17z" />
    <glyph glyph-name="radical" unicode="&#x221a;" horiz-adv-x="600" 
d="M235 -139l-111 361l29 -11l-104 -24l-6 22l107 25l90 -311l-19 4l119 773h162v-27h-162l29 17z" />
    <glyph glyph-name="infinity" unicode="&#x221e;" horiz-adv-x="804" 
d="M191 66q104 0 211 158q54 -79 106.5 -118.5t104.5 -39.5q46 0 84 25.5t61.5 66.5t23.5 90q0 48 -23.5 89t-62 66t-83.5 25q-104 0 -211 -157q-107 157 -211 157q-45 0 -83.5 -25t-62 -65.5t-23.5 -89.5t23.5 -90t62 -66.5t83.5 -25.5zM193 96q-36 0 -68 21.5t-51.5 56
t-19.5 74.5t19.5 74t51.5 55.5t68 21.5q48 0 98.5 -39.5t94.5 -111.5q-44 -72 -94.5 -112t-98.5 -40zM611 96q-48 0 -98.5 40t-94.5 112q44 72 94.5 111.5t98.5 39.5q37 0 68.5 -21t51 -55.5t19.5 -74.5t-19.5 -74.5t-51.5 -56t-68 -21.5z" />
    <glyph glyph-name="integral" unicode="&#x222b;" horiz-adv-x="600" 
d="M181 -200q32 0 56 17.5t38.5 50t17.5 76.5l39 697q3 55 25 86t57 31q17 0 31.5 -9t35.5 -30l17 23q-23 24 -43.5 34.5t-43.5 11.5q-46 0 -76.5 -39.5t-34.5 -105.5l-39 -697q-3 -54 -25 -85t-57 -31q-16 0 -31 8.5t-36 30.5l-17 -23q24 -25 44 -35.5t42 -10.5z" />
    <glyph glyph-name="approxequal" unicode="&#x2248;" horiz-adv-x="600" 
d="M408 337q-27 0 -56 15.5t-62 48.5q-34 35 -59.5 48.5t-54.5 13.5q-44 0 -65 -35t-7 -86l-29 4q-11 37 0.5 70t38.5 54.5t62 21.5q31 0 64.5 -17.5t65.5 -51.5q31 -32 53 -44.5t48 -12.5q41 0 58 33.5t4 86.5l30 -3q10 -40 0 -73t-33.5 -53t-57.5 -20zM408 122
q-27 0 -56 15.5t-62 48.5q-34 35 -59.5 48.5t-54.5 13.5q-44 0 -65 -34.5t-7 -86.5l-29 4q-11 37 0.5 70t38.5 54.5t62 21.5q31 0 64.5 -17.5t65.5 -50.5q31 -33 53 -45.5t48 -12.5q41 0 58 33.5t4 87.5l30 -4q10 -40 0 -73t-33.5 -53t-57.5 -20z" />
    <glyph glyph-name="notequal" unicode="&#x2260;" horiz-adv-x="600" 
d="M133 38l-23 16l361 413l23 -16zM65 172v29h485v-29h-485zM65 304v29h485v-29h-485z" />
    <glyph glyph-name="lessequal" unicode="&#x2264;" horiz-adv-x="600" 
d="M58 0v31h510v-31h-510zM568 87l-510 212v17l510 213v-30l-460 -190l460 -192v-30z" />
    <glyph glyph-name="greaterequal" unicode="&#x2265;" horiz-adv-x="600" 
d="M65 0v31h510v-31h-510zM65 87v30l459 190l-459 192v30l510 -212v-17z" />
    <glyph glyph-name="lozenge" unicode="&#x25ca;" horiz-adv-x="600" 
d="M306 15l-206 341l206 340l194 -340zM304 79l159 277l-159 277l-167 -277z" />
    <glyph glyph-name="uniFF10" unicode="&#xff10;" horiz-adv-x="559" 
d="M80 350q0 67 13.5 127t39.5 105.5t63 71t83 25.5q48 0 84.5 -25.5t62.5 -71t39 -105.5t13 -127t-13 -127t-39 -105.5t-62.5 -71t-84.5 -25.5q-46 0 -83 25.5t-63 71t-39.5 105.5t-13.5 127zM48 350q0 -101 28 -182.5t80 -129.5t123 -48q72 0 124 48t80 129.5t28 182.5
t-28 182.5t-80 129.5t-124 48q-71 0 -123 -48t-80 -129.5t-28 -182.5z" />
    <glyph glyph-name="uniFF11" unicode="&#xff11;" horiz-adv-x="559" 
d="M150 627l166 40v-667h32v706l-198 -45v-34z" />
    <glyph glyph-name="uniFF12" unicode="&#xff12;" horiz-adv-x="559" 
d="M38 0h466v31h-397l280 291q39 40 67.5 86t28.5 105q0 33 -11 67.5t-35 64t-61 48t-90 18.5q-64 0 -113 -31.5t-75.5 -88t-26.5 -131.5h32q0 66 22.5 115.5t64 77t96.5 27.5q44 0 75.5 -15t51 -39.5t28.5 -53.5t9 -57q0 -38 -12.5 -68t-32.5 -56t-44 -51z" />
    <glyph glyph-name="uniFF13" unicode="&#xff13;" horiz-adv-x="559" 
d="M254 357q58 0 108 21.5t81.5 61t31.5 91.5q0 47 -21.5 87.5t-63.5 66t-102 25.5q-57 0 -100 -23.5t-66.5 -64.5t-23.5 -96h31q0 67 43.5 110.5t116.5 43.5q50 0 84 -21t52 -55.5t18 -74.5q0 -34 -16.5 -62t-44 -47.5t-61 -30t-67.5 -10.5v-22zM284 -10q63 0 110.5 23.5
t74 66t26.5 98.5q0 49 -21 85.5t-56.5 60.5t-78 36t-85.5 12v-22q34 0 70.5 -10.5t68 -31.5t51 -53t19.5 -74q0 -47 -22 -83.5t-62 -56.5t-95 -20q-57 0 -98.5 21t-63.5 58.5t-22 84.5h-32q0 -41 15 -76.5t43 -62t67.5 -41.5t90.5 -15z" />
    <glyph glyph-name="uniFF14" unicode="&#xff14;" horiz-adv-x="559" 
d="M22 140h504v29h-121h-8h-347zM57 140l328 481v-462v-7v-152h33v700h-12l-384 -560h35z" />
    <glyph glyph-name="uniFF15" unicode="&#xff15;" horiz-adv-x="559" 
d="M499 230q0 66 -27 116t-73 78t-102 28q-60 0 -106.5 -24t-73.5 -59l-27 -42q29 32 58.5 53.5t63.5 32t74 10.5q51 0 92 -25t65 -68t24 -100q0 -67 -26 -114t-71 -71t-102 -24q-48 0 -85.5 16.5t-64 47t-43.5 70.5l-27 -18q19 -44 49 -77t72 -51.5t99 -18.5q48 0 90 15
t74 45t49.5 75t17.5 105zM205 671h307v29h-330l-92 -373l43 49z" />
    <glyph glyph-name="uniFF16" unicode="&#xff16;" horiz-adv-x="559" 
d="M86 223q0 51 24 96t69.5 72t107.5 27q51 0 93 -26t67 -70t25 -99q0 -59 -24 -104.5t-67.5 -72t-101.5 -26.5q-57 0 -100.5 26.5t-68 72t-24.5 104.5zM336 700l-228 -322q-20 -28 -36 -70t-16 -85q0 -69 27.5 -121.5t78 -82t117.5 -29.5q68 0 118 29.5t78 82t28 121.5
q0 46 -16 85.5t-44.5 70t-66 47.5t-80.5 17q-49 0 -89 -17.5t-69 -52.5l2 -2l235 329h-39z" />
    <glyph glyph-name="uniFF17" unicode="&#xff17;" horiz-adv-x="559" 
d="M54 669h427l-344 -669h33l360 700h-476v-31z" />
    <glyph glyph-name="uniFF18" unicode="&#xff18;" horiz-adv-x="559" 
d="M101 538q0 -38 14.5 -70t39.5 -55t57 -36t67 -13q36 0 68 13t57 36t39.5 55t14.5 70q0 47 -23 86t-63.5 62.5t-92.5 23.5q-51 0 -91.5 -23.5t-63.5 -62.5t-23 -86zM131 535q0 40 19.5 73t53 53t75.5 20q44 0 77 -20t52 -53t19 -73q0 -43 -22.5 -77t-57 -53.5t-68.5 -19.5
q-33 0 -67.5 19.5t-57.5 53.5t-23 77zM79 186q0 -41 13.5 -76.5t39.5 -62.5t63 -42t84 -15t84 15t63 42t40 62.5t14 76.5q0 44 -16.5 79t-44.5 60t-64 38.5t-76 13.5q-38 0 -74.5 -13.5t-64.5 -38.5t-44.5 -60t-16.5 -79zM110 189q0 49 24.5 86.5t63.5 59t81 21.5t81 -21.5
t64 -59t25 -86.5q0 -50 -21.5 -88.5t-59 -60t-89.5 -21.5q-50 0 -88.5 21.5t-59.5 60t-21 88.5z" />
    <glyph glyph-name="uniFF19" unicode="&#xff19;" horiz-adv-x="559" 
d="M472 477q0 -51 -24 -95.5t-69 -72t-107 -27.5q-50 0 -92.5 26t-68 70t-25.5 99q0 59 24.5 105t68 72t100.5 26q58 0 101.5 -26t67.5 -72t24 -105zM223 0l228 322q20 28 36 70t16 85q0 69 -28 121.5t-78 82t-118 29.5q-67 0 -117.5 -29.5t-78 -82t-27.5 -121.5
q0 -46 16 -85.5t44.5 -70t66 -47.5t80.5 -17q49 0 89.5 17.5t67.5 52.5l-1 2l-236 -329h40z" />
    <glyph glyph-name="a.alt" 
d="M443 460v-460h29v460h-29zM42 230q0 -73 29 -127t78.5 -83.5t109.5 -29.5q61 0 105 33t68 88.5t24 118.5q0 64 -24 119t-68 88t-105 33q-60 0 -109.5 -29.5t-78.5 -83t-29 -127.5zM73 230q0 66 25.5 113t69 72.5t97.5 25.5q49 0 89 -29.5t64 -77t24 -104.5t-24 -104.5
t-64 -77t-89 -29.5q-54 0 -97.5 25.5t-69 73t-25.5 112.5z" />
    <glyph glyph-name="agrave.alt" 
d="M443 460v-460h29v460h-29zM42 230q0 -73 29 -127t78.5 -83.5t109.5 -29.5q61 0 105 33t68 88.5t24 118.5q0 64 -24 119t-68 88t-105 33q-60 0 -109.5 -29.5t-78.5 -83t-29 -127.5zM73 230q0 66 25.5 113t69 72.5t97.5 25.5q49 0 89 -29.5t64 -77t24 -104.5t-24 -104.5
t-64 -77t-89 -29.5q-54 0 -97.5 25.5t-69 73t-25.5 112.5zM148 692l175 -155l16 12l-164 160z" />
    <glyph glyph-name="aacute.alt" 
d="M443 460v-460h29v460h-29zM42 230q0 -73 29 -127t78.5 -83.5t109.5 -29.5q61 0 105 33t68 88.5t24 118.5q0 64 -24 119t-68 88t-105 33q-60 0 -109.5 -29.5t-78.5 -83t-29 -127.5zM73 230q0 66 25.5 113t69 72.5t97.5 25.5q49 0 89 -29.5t64 -77t24 -104.5t-24 -104.5
t-64 -77t-89 -29.5q-54 0 -97.5 25.5t-69 73t-25.5 112.5zM365 692l-27 17l-164 -160l16 -12z" />
    <glyph glyph-name="acircumflex.alt" 
d="M443 460v-460h29v460h-29zM42 230q0 -73 29 -127t78.5 -83.5t109.5 -29.5q61 0 105 33t68 88.5t24 118.5q0 64 -24 119t-68 88t-105 33q-60 0 -109.5 -29.5t-78.5 -83t-29 -127.5zM73 230q0 66 25.5 113t69 72.5t97.5 25.5q49 0 89 -29.5t64 -77t24 -104.5t-24 -104.5
t-64 -77t-89 -29.5q-54 0 -97.5 25.5t-69 73t-25.5 112.5zM265 667l141 -123l19 17l-160 140l-160 -140l20 -17z" />
    <glyph glyph-name="atilde.alt" 
d="M443 460v-460h29v460h-29zM42 230q0 -73 29 -127t78.5 -83.5t109.5 -29.5q61 0 105 33t68 88.5t24 118.5q0 64 -24 119t-68 88t-105 33q-60 0 -109.5 -29.5t-78.5 -83t-29 -127.5zM73 230q0 66 25.5 113t69 72.5t97.5 25.5q49 0 89 -29.5t64 -77t24 -104.5t-24 -104.5
t-64 -77t-89 -29.5q-54 0 -97.5 25.5t-69 73t-25.5 112.5zM128 556l23 -12q0 12 4.5 23.5t16 19.5t31.5 8q23 0 40 -11.5t36 -23.5t46 -12q18 0 32.5 7t26 20.5t19.5 31.5l-21 15q-12 -24 -24 -36t-32 -12t-34 7t-26 16.5t-27 16.5t-37 7t-38.5 -9t-25.5 -23.5t-10 -32.5z
" />
    <glyph glyph-name="adieresis.alt" 
d="M443 460v-460h29v460h-29zM42 230q0 -73 29 -127t78.5 -83.5t109.5 -29.5q61 0 105 33t68 88.5t24 118.5q0 64 -24 119t-68 88t-105 33q-60 0 -109.5 -29.5t-78.5 -83t-29 -127.5zM73 230q0 66 25.5 113t69 72.5t97.5 25.5q49 0 89 -29.5t64 -77t24 -104.5t-24 -104.5
t-64 -77t-89 -29.5q-54 0 -97.5 25.5t-69 73t-25.5 112.5zM348 589q0 -10 7.5 -17t16.5 -7q11 0 17.5 7t6.5 17q0 11 -6.5 17.5t-17.5 6.5q-9 0 -16.5 -6.5t-7.5 -17.5zM148 589q0 -10 7.5 -17t16.5 -7q11 0 17.5 7t6.5 17q0 11 -6.5 17.5t-17.5 6.5q-9 0 -16.5 -6.5
t-7.5 -17.5z" />
    <glyph glyph-name="aring.alt" 
d="M443 460v-460h29v460h-29zM42 230q0 -73 29 -127t78.5 -83.5t109.5 -29.5q61 0 105 33t68 88.5t24 118.5q0 64 -24 119t-68 88t-105 33q-60 0 -109.5 -29.5t-78.5 -83t-29 -127.5zM73 230q0 66 25.5 113t69 72.5t97.5 25.5q49 0 89 -29.5t64 -77t24 -104.5t-24 -104.5
t-64 -77t-89 -29.5q-54 0 -97.5 25.5t-69 73t-25.5 112.5zM163 630q0 -45 31.5 -72.5t70.5 -27.5t70.5 27.5t31.5 72.5t-31.5 72.5t-70.5 27.5t-70.5 -27.5t-31.5 -72.5zM185 630q0 36 24.5 57.5t55.5 21.5t55.5 -21.5t24.5 -57.5t-24.5 -57.5t-55.5 -21.5t-55.5 21.5
t-24.5 57.5z" />
    <glyph glyph-name="amacron.alt" 
d="M443 460v-460h29v460h-29zM42 230q0 -73 29 -127t78.5 -83.5t109.5 -29.5q61 0 105 33t68 88.5t24 118.5q0 64 -24 119t-68 88t-105 33q-60 0 -109.5 -29.5t-78.5 -83t-29 -127.5zM73 230q0 66 25.5 113t69 72.5t97.5 25.5q49 0 89 -29.5t64 -77t24 -104.5t-24 -104.5
t-64 -77t-89 -29.5q-54 0 -97.5 25.5t-69 73t-25.5 112.5zM87 544h350v29h-350v-29z" />
    <glyph glyph-name="abreve.alt" 
d="M443 460v-460h29v460h-29zM42 230q0 -73 29 -127t78.5 -83.5t109.5 -29.5q61 0 105 33t68 88.5t24 118.5q0 64 -24 119t-68 88t-105 33q-60 0 -109.5 -29.5t-78.5 -83t-29 -127.5zM73 230q0 66 25.5 113t69 72.5t97.5 25.5q49 0 89 -29.5t64 -77t24 -104.5t-24 -104.5
t-64 -77t-89 -29.5q-54 0 -97.5 25.5t-69 73t-25.5 112.5zM101 684q0 -34 17.5 -66.5t53 -53t87.5 -20.5q53 0 88 20.5t52.5 53t17.5 66.5h-27q0 -27 -15 -53t-44 -43.5t-72 -17.5q-42 0 -71 17.5t-44 43.5t-15 53h-28z" />
    <glyph glyph-name="aogonek.alt" 
d="M443 460v-460h29v460h-29zM42 230q0 -73 29 -127t78.5 -83.5t109.5 -29.5q61 0 105 33t68 88.5t24 118.5q0 64 -24 119t-68 88t-105 33q-60 0 -109.5 -29.5t-78.5 -83t-29 -127.5zM73 230q0 66 25.5 113t69 72.5t97.5 25.5q49 0 89 -29.5t64 -77t24 -104.5t-24 -104.5
t-64 -77t-89 -29.5q-54 0 -97.5 25.5t-69 73t-25.5 112.5zM498 -160q-11 -13 -31.5 -22.5t-47.5 -9.5q-33 0 -56.5 16t-23.5 48q0 26 20.5 49.5t51 43.5t61.5 35l-17 14q-35 -18 -68.5 -39.5t-55.5 -48.5t-22 -60q0 -26 12.5 -45.5t37 -30t58.5 -10.5q32 0 58.5 12.5
t37.5 27.5z" />
    </font>
</defs>
</svg>
