<?xml version="1.0" standalone="no"?>
<!DOCTYPE svg PUBLIC "-//W3C//DTD SVG 1.1//EN" "http://www.w3.org/Graphics/SVG/1.1/DTD/svg11.dtd" >
<svg xmlns="http://www.w3.org/2000/svg" xmlns:xlink="http://www.w3.org/1999/xlink" version="1.1">
<metadata>
Created by FontForge 20201107 at Fri Sep 10 18:37:55 2021
 By 
Copyright 2020 The Jost Project Authors (https://github.com/indestructible-type/Jost)
</metadata>
<defs>
<font id="Jost-Italic" horiz-adv-x="553" >
  <font-face 
    font-family="Jost"
    font-weight="400"
    font-style="italic"
    font-stretch="normal"
    units-per-em="1000"
    panose-1="0 0 0 0 0 0 0 0 0 0"
    ascent="800"
    descent="-200"
    x-height="460"
    cap-height="700"
    bbox="-164 -349 1433.8 1030"
    underline-thickness="50"
    underline-position="-125"
    slope="-5"
    unicode-range="U+000D-FF19"
  />
<missing-glyph horiz-adv-x="500" 
 />
    <glyph glyph-name=".notdef" horiz-adv-x="500" 
 />
    <glyph glyph-name="uni0000" horiz-adv-x="301" 
 />
    <glyph glyph-name="uni0000" horiz-adv-x="301" 
 />
    <glyph glyph-name="uni000D" unicode="&#xd;" horiz-adv-x="301" 
 />
    <glyph glyph-name="space" unicode=" " horiz-adv-x="301" 
 />
    <glyph glyph-name="exclam" unicode="!" horiz-adv-x="291" 
d="M188 700l-64 -499h60l104 499h-100zM71 40q0 -22 16.5 -38.5t38.5 -16.5q23 0 39 16.5t16 38.5q0 23 -16 39t-39 16q-22 0 -38.5 -16t-16.5 -39z" />
    <glyph glyph-name="quotedbl" unicode="&#x22;" horiz-adv-x="451" 
d="M216 700l-94 -299h55l135 299h-96zM390 700l-94 -299h55l135 299h-96z" />
    <glyph glyph-name="numbersign" unicode="#" horiz-adv-x="587" 
d="M121 441l134 -1h13h187h13l134 1l11 64h-482zM41 201h482l10 64h-127h-20h-194h-15h-126zM532 700l-90 -222l-6 -16l-87 -216l-8 -18l-93 -228h75l286 700h-77zM328 700l-282 -700h73l93 226l7 18l90 222l7 16l89 218h-77z" />
    <glyph glyph-name="dollar" unicode="$" horiz-adv-x="563" 
d="M360 818l-23 -149h72l24 149h-73zM242 48l-25 -159h72l25 159h-72zM491 514l73 45q-11 39 -36.5 73.5t-63.5 56t-90 21.5q-53 0 -101 -22t-80.5 -60t-39.5 -87q-7 -55 13 -94.5t55.5 -65.5t73.5 -43q36 -15 69 -34.5t52 -48.5t12 -72q-5 -33 -23 -58.5t-47 -39.5t-66 -14
q-43 0 -72 21.5t-48 56.5t-32 77l-76 -42q15 -54 44 -97.5t72 -69.5t100 -26q65 0 115 25t81.5 70.5t39.5 103.5q7 56 -13.5 95.5t-55.5 66.5t-74 44q-27 11 -52.5 23.5t-45.5 28t-30 37t-6 49.5q5 30 22 51.5t44.5 33t62.5 10.5q36 0 59 -17t38 -43t26 -55z" />
    <glyph glyph-name="percent" unicode="%" horiz-adv-x="729" 
d="M100 551q-6 -42 8 -78.5t45 -59t77 -22.5t84 22t63.5 58t31.5 79q6 42 -8 78.5t-45 59t-77 22.5t-84.5 -22t-63 -58t-31.5 -79zM170 550q4 24 18.5 46t36.5 36t48 13q27 -1 42.5 -15t21.5 -35.5t2 -44.5q-4 -24 -18.5 -46t-36 -35.5t-48.5 -12.5q-26 1 -42 15t-21.5 35.5
t-2.5 43.5zM386 151q-6 -42 8 -78.5t45 -59t77 -22.5t84 22t63 58t31 79q6 42 -7.5 78.5t-44.5 59t-77 22.5t-84.5 -22t-63 -58t-31.5 -79zM456 150q4 24 18.5 46t36.5 36t48 13t42 -15t22 -35.5t2 -44.5q-4 -24 -18.5 -46t-36 -35.5t-48.5 -12.5q-26 1 -42 15t-21.5 35.5
t-2.5 43.5zM637 700l-555 -700h75l558 700h-78z" />
    <glyph glyph-name="ampersand" unicode="&#x26;" horiz-adv-x="655" 
d="M260 384l268 -384h90l-294 425q-15 22 -30.5 43t-24.5 43t-5 45q4 24 17.5 43t35 30.5t46.5 10.5q26 0 42.5 -12t23.5 -31t3 -43q-5 -28 -26 -52.5t-51 -45.5t-64 -39q-26 -14 -56.5 -29t-61 -34t-56.5 -43t-44.5 -55.5t-23.5 -72.5q-7 -57 18.5 -100t72.5 -67t102 -25
q69 -1 128.5 25t112 68t99 92.5t89.5 99.5l-57 39q-37 -42 -78 -86.5t-86.5 -82t-94.5 -60t-102 -21.5q-37 1 -66 16.5t-43.5 43t-9.5 63.5q6 38 27.5 65t52.5 47.5t65 37t63 32.5q42 24 78.5 52t61 60.5t30.5 71.5q6 42 -10 77.5t-50 57.5t-82 22q-47 0 -88 -19.5t-68 -54
t-33 -80.5q-4 -36 9.5 -66.5t33.5 -56.5t36 -50z" />
    <glyph glyph-name="quotesingle" unicode="'" horiz-adv-x="277" 
d="M216 700l-94 -299h55l135 299h-96z" />
    <glyph glyph-name="parenleft" unicode="(" horiz-adv-x="301" 
d="M301 779q-74 -110 -120.5 -234t-66.5 -255q-18 -123 -10 -247.5t48 -242.5h73q-34 119 -37 243t15 247q21 130 63.5 253.5t108.5 235.5h-74z" />
    <glyph glyph-name="parenright" unicode=")" horiz-adv-x="301" 
d="M56 -199q74 110 120 234.5t66 254.5q18 124 10.5 248.5t-48.5 242.5h-73q34 -118 37.5 -242.5t-15.5 -248.5q-20 -129 -62.5 -252.5t-109.5 -236.5h75z" />
    <glyph glyph-name="asterisk" unicode="*" horiz-adv-x="575" 
d="M532 599l-189 -69l8 -48l191 50zM462 367l-95 153l-43 -29l77 -164zM234 328l130 160l-36 31l-145 -149zM160 533l176 -51l23 47l-168 69zM346 700l-24 -194h49l44 194h-69z" />
    <glyph glyph-name="plus" unicode="+" horiz-adv-x="597" 
d="M73 216l472 -1l14 80h-473zM314 500l-82 -489l82 -1l86 490h-86z" />
    <glyph glyph-name="comma" unicode="," horiz-adv-x="299" 
d="M134 109l-129 -257l55 -21l150 247z" />
    <glyph glyph-name="hyphen" unicode="-" horiz-adv-x="204" 
d="M12 201h196l13 74h-196z" />
    <glyph glyph-name="period" unicode="." horiz-adv-x="291" 
d="M71 40q0 -22 16 -38t38 -16q23 0 39 16t16 38q0 23 -16 39t-39 16q-22 0 -38 -16t-16 -39z" />
    <glyph glyph-name="slash" unicode="/" horiz-adv-x="500" 
d="M498 700l-536 -849h79l539 849h-82z" />
    <glyph glyph-name="zero" unicode="0" horiz-adv-x="582" 
d="M155 350q7 51 25 101t46 90.5t65.5 64.5t83.5 24q37 -1 61 -18t37.5 -46t19 -65.5t5 -75t-4.5 -75.5q-7 -51 -25 -101t-46 -90.5t-65.5 -64.5t-83.5 -23q-37 0 -61 17.5t-37.5 46.5t-19 65t-5 75t4.5 75zM71 350q-6 -50 -4 -101t14 -97.5t36 -82.5t60.5 -57t88.5 -21
q63 0 116 30t93.5 81.5t66.5 115.5t35 132q6 50 4 101.5t-14 97.5t-36 82.5t-60.5 57.5t-88.5 21q-63 0 -116 -30t-93.5 -81.5t-66.5 -116t-35 -132.5z" />
    <glyph glyph-name="one" unicode="1" horiz-adv-x="437" 
d="M145 562l159 45l-104 -607h84l122 711l-245 -60z" />
    <glyph glyph-name="two" unicode="2" horiz-adv-x="552" 
d="M2 0h481l13 80l-309 1l251 226q44 41 78 93t42 109q8 48 -12 94.5t-64.5 77t-111.5 30.5q-73 0 -126.5 -34t-86.5 -90.5t-45 -125.5h83q9 46 30.5 85t56 62.5t81.5 22.5q39 0 65 -18.5t37.5 -47t6.5 -59.5q-4 -29 -18 -55.5t-34 -50.5t-44 -47z" />
    <glyph glyph-name="three" unicode="3" horiz-adv-x="530" 
d="M282 346q47 2 89 14.5t75.5 35t56 55t28.5 73.5q7 49 -11 91t-57 68.5t-95 26.5q-57 0 -102.5 -24t-75 -65.5t-39.5 -93.5h80q8 29 26.5 53t45.5 39t60 14q33 0 53 -16t27.5 -41t2.5 -55q-6 -35 -28 -61.5t-55 -41.5t-74 -18zM259 -9q60 0 111.5 24.5t86 68t42.5 101.5
q7 50 -7.5 86.5t-45 60t-72 35.5t-88.5 13l-8 -55q31 -2 58 -10.5t46.5 -24t28.5 -39t4 -56.5q-5 -36 -26 -64t-52.5 -44t-70.5 -16q-38 0 -64 15t-38.5 40.5t-10.5 58.5h-84q-4 -55 17 -99t65.5 -69.5t107.5 -25.5z" />
    <glyph glyph-name="four" unicode="4" horiz-adv-x="566" 
d="M17 141l518 -1l13 75h-143h-17l-221 1l239 290l-54 -319l-2 -11l-31 -176h84l120 700l-36 -1z" />
    <glyph glyph-name="five" unicode="5" horiz-adv-x="547" 
d="M528 230q8 61 -9.5 114.5t-58 87.5t-102.5 34q-27 0 -53 -7.5t-51 -18.5l78 185h254l13 75h-323l-145 -372q49 30 92 47t93 15q45 -1 75 -23t43.5 -57.5t6.5 -79.5q-7 -45 -31 -81t-61.5 -57t-86.5 -21q-55 0 -94 34.5t-59 80.5l-76 -48q29 -64 83 -105.5t139 -41.5
q52 0 98 17t83 48.5t61 75.5t31 98z" />
    <glyph glyph-name="six" unicode="6" horiz-adv-x="559" 
d="M146 230q7 45 32.5 82.5t64 60t83.5 22.5t75 -24t43 -61t6 -80q-7 -44 -32.5 -81.5t-63.5 -59t-84 -21.5q-44 0 -74 23t-43 60t-7 79zM409 700l-279 -325q-24 -29 -41 -66t-23 -79q-8 -65 14 -119.5t69.5 -87t114.5 -32.5q68 0 125 31.5t94.5 86t46.5 121.5
q7 58 -11.5 109.5t-58.5 84t-99 33.5q-32 0 -59 -9.5t-50 -29.5l7 -6l259 288h-109z" />
    <glyph glyph-name="seven" unicode="7" horiz-adv-x="509" 
d="M106 620h352l-384 -620h90l434 700h-479z" />
    <glyph glyph-name="eight" unicode="8" horiz-adv-x="530" 
d="M141 532q-6 -39 3 -71t30.5 -55.5t54 -36.5t73.5 -13t77.5 12.5t65.5 35.5t47.5 55.5t24.5 71.5q5 36 -4.5 68t-31.5 57t-54 39.5t-71 14.5q-53 0 -99 -24t-77 -64.5t-39 -89.5zM218 521q6 31 24.5 57t46.5 42t60 15q32 0 53 -16.5t30 -42t4 -55.5t-25 -55.5t-47.5 -40
t-58.5 -14.5q-30 1 -51 16t-30.5 40t-5.5 54zM58 191q-6 -40 5 -76t35.5 -64t60.5 -44t80 -16q45 0 86.5 15t74.5 42.5t54.5 64t28.5 77.5q6 44 -5 81t-36.5 63.5t-61 41t-78.5 14.5q-44 0 -85 -14t-74.5 -40.5t-55.5 -63t-29 -81.5zM139 200q7 36 31 67t58 50t70 18
q36 0 62 -19.5t38.5 -50t6.5 -65.5q-6 -39 -30 -69.5t-58 -47.5t-71 -17q-36 1 -62 18.5t-38 48t-7 67.5z" />
    <glyph glyph-name="nine" unicode="9" horiz-adv-x="559" 
d="M487 470q-7 -44 -32.5 -81.5t-63.5 -60t-84 -22.5q-45 0 -75 23.5t-42.5 61t-6.5 79.5q7 45 32.5 82t64 59t83.5 22t75 -23t43 -60t6 -80zM224 0l279 325q24 29 41 66.5t23 78.5q9 66 -13.5 120.5t-69.5 87t-115 32.5q-67 0 -124.5 -31.5t-95 -86t-46.5 -122.5
q-7 -57 11.5 -108.5t59 -84t98.5 -33.5q32 -1 59 8.5t50 29.5l-7 7l-259 -289h109z" />
    <glyph glyph-name="colon" unicode=":" horiz-adv-x="291" 
d="M71 40q0 -22 16 -38t38 -16q23 0 39 16t16 38q0 23 -16 39t-39 16q-22 0 -38 -16t-16 -39zM136 420q0 -22 16 -38t38 -16q23 0 39 16t16 38q0 23 -16 39t-39 16q-22 0 -38 -16t-16 -39z" />
    <glyph glyph-name="semicolon" unicode=";" horiz-adv-x="320" 
d="M165 420q0 -22 16.5 -38t38.5 -16q23 0 38.5 16t15.5 38q0 23 -15.5 39t-38.5 16q-22 0 -38.5 -16t-16.5 -39zM134 109l-129 -257l55 -21l150 247z" />
    <glyph glyph-name="less" unicode="&#x3c;" horiz-adv-x="621" 
d="M209 259l395 159l15 83l-536 -221l-7 -44l459 -220l13 75z" />
    <glyph glyph-name="equal" unicode="=" horiz-adv-x="597" 
d="M61 141l471 -1l13 75h-472zM86 291l472 -1l13 75h-473z" />
    <glyph glyph-name="greater" unicode="&#x3e;" horiz-adv-x="621" 
d="M446 257l-395 -159l-14 -84l535 221l7 45l-458 219l-14 -75z" />
    <glyph glyph-name="question" unicode="?" horiz-adv-x="541" 
d="M462 500q-9 -42 -39.5 -77t-76 -55.5t-99.5 -22.5h-24l-9 -174h59l29 119q57 7 108.5 34.5t87 72.5t44.5 103q6 42 -4 80t-34 67t-60.5 46t-81.5 17q-80 1 -134 -32t-96 -83l59 -42q29 34 67 58t87 24q43 0 71 -17.5t40.5 -47.5t5.5 -70zM168 40q0 -22 15.5 -38t39.5 -16
q23 0 38.5 16t15.5 38q0 21 -15.5 38t-38.5 17t-39 -16t-16 -39z" />
    <glyph glyph-name="at" unicode="@" horiz-adv-x="747" 
d="M286 320q5 37 25 69t49.5 52t60.5 19q25 0 41 -12.5t22.5 -32.5t3.5 -45q-5 -42 -27 -74t-52.5 -49t-61.5 -16q-26 1 -40.5 13t-19 32t-1.5 44zM211 318q-5 -42 6.5 -77.5t38 -57t65.5 -22.5q52 -1 95 27t71.5 75.5t35.5 106.5q5 36 -1.5 72.5t-28.5 61.5t-65 26
q-49 2 -96.5 -27t-80.5 -77.5t-40 -107.5zM61 320q-10 -69 1.5 -128.5t45.5 -104.5t89.5 -70.5t131.5 -25.5q74 -1 130 15t106 43l-26 58q-49 -26 -100 -39t-105 -12q-77 1 -126.5 36.5t-69 95.5t-8.5 132q11 65 42 124t78.5 104.5t108 71t130.5 25.5q59 -1 100 -22.5
t65 -58t31.5 -81.5t-0.5 -93q-3 -33 -16.5 -65t-32.5 -58t-39.5 -40t-39.5 -10q-14 2 -20.5 8.5t-7.5 16.5t0 20q1 7 3 14t4 13l81 231h-75l-77 -249h7q-6 -29 -2 -56.5t21 -45t50 -19.5q37 -1 72.5 16.5t65 50.5t49.5 77.5t26 95.5q10 59 -2 116t-45 103t-86 73.5
t-127 27.5q-84 0 -157 -30.5t-130.5 -85t-95.5 -125t-50 -149.5z" />
    <glyph glyph-name="A" unicode="A" horiz-adv-x="640" 
d="M152 210h360l-16 80h-303zM388 542l67 -282l4 -20l58 -240h91l-189 737l-444 -737h96l144 246l11 18z" />
    <glyph glyph-name="B" unicode="B" horiz-adv-x="542" 
d="M179 371h112q57 1 105.5 18t81 51t40.5 85q7 43 -3.5 75.5t-35 54.5t-59.5 33.5t-78 11.5h-172l-120 -700h188q66 0 122 23.5t94 69.5t48 112q7 47 -6.5 81.5t-42 57.5t-68.5 34.5t-86 11.5h-117l-8 -46l122 -1q42 0 72 -16t44 -46t7 -71t-32 -71.5t-61.5 -46.5
t-80.5 -16l-98 -1l94 550h94q48 -1 77 -29.5t21 -75.5q-5 -32 -25.5 -55t-50 -35t-63.5 -13h-108z" />
    <glyph glyph-name="C" unicode="C" horiz-adv-x="665" 
d="M160 350q9 57 36.5 106.5t68.5 87.5t91 59.5t105 21.5q67 0 117 -27.5t82 -76.5l18 112q-42 40 -91.5 59t-116.5 18q-75 0 -142 -28.5t-121 -78t-89.5 -114.5t-46.5 -139q-10 -70 5 -135t52 -115.5t94.5 -80t130.5 -29.5q71 0 126 20t104 57l17 111q-46 -43 -106 -73
t-133 -29q-54 0 -95 23t-67.5 61.5t-36.5 87.5t-2 102z" />
    <glyph glyph-name="D" unicode="D" horiz-adv-x="660" 
d="M169 700l-118 -700h82l121 700h-85zM258 0q77 0 144 26.5t119.5 73.5t87 111t46.5 139q11 72 -4 135.5t-52.5 111.5t-95 75.5t-132.5 27.5h-156l-15 -85h162q58 0 101 -20.5t70 -57t37 -84.5t1 -103q-13 -77 -55.5 -137t-106.5 -94t-143 -34h-156l-15 -85h163z" />
    <glyph glyph-name="E" unicode="E" horiz-adv-x="534" 
d="M97 0h344l13 80h-344zM203 620h343l14 80h-344zM155 341h324l14 79h-325zM169 700l-118 -700h82l121 700h-85z" />
    <glyph glyph-name="F" unicode="F" horiz-adv-x="485" 
d="M203 620h305l13 80h-305zM155 341l295 -1l14 80h-296zM169 700l-118 -700h82l121 700h-85z" />
    <glyph glyph-name="G" unicode="G" horiz-adv-x="752" 
d="M412 275h223q-17 -39 -42 -75t-58.5 -64t-75.5 -44t-93 -16q-56 0 -98.5 22.5t-69 61t-36.5 87.5t-2 103q9 57 36.5 107t69 87.5t92.5 59t108 21.5q72 0 124 -30.5t79 -87.5l66 53q-37 74 -104 112.5t-156 37.5q-77 0 -145.5 -28t-122.5 -77t-89 -114.5t-47 -140.5
q-10 -71 4.5 -136t52.5 -115.5t96 -79.5t134 -29q80 0 145 30t114 81.5t80.5 117t44.5 136.5h-316z" />
    <glyph glyph-name="H" unicode="H" horiz-adv-x="694" 
d="M155 341h467l13 79h-467zM625 700l-118 -700h82l122 700h-86zM169 700l-118 -700h82l121 700h-85z" />
    <glyph glyph-name="I" unicode="I" horiz-adv-x="238" 
d="M169 700l-118 -700h82l121 700h-85z" />
    <glyph glyph-name="J" unicode="J" horiz-adv-x="233" 
d="M-112 -104l-52 -65q16 -19 44.5 -34.5t64.5 -15.5q48 0 84 19.5t59.5 55.5t31.5 84l129 760h-79l-129 -750q-5 -40 -29.5 -64t-53.5 -26q-24 -1 -41.5 9.5t-28.5 26.5z" />
    <glyph glyph-name="K" unicode="K" horiz-adv-x="548" 
d="M169 700l-118 -700h82l121 700h-85zM517 700l-346 -327l245 -373h99l-244 370l353 330h-107z" />
    <glyph glyph-name="L" unicode="L" horiz-adv-x="437" 
d="M170 700l-120 -700h351l14 80h-267l106 620h-84z" />
    <glyph glyph-name="M" unicode="M" horiz-adv-x="786" 
d="M227 473l151 -409l289 405l-30 -469h83l46 739l-362 -509l-184 506l-210 -736h85z" />
    <glyph glyph-name="N" unicode="N" horiz-adv-x="752" 
d="M684 700l-90 -521l-419 555l-126 -734h85l90 522l418 -556l126 734h-84z" />
    <glyph glyph-name="O" unicode="O" horiz-adv-x="767" 
d="M160 350q9 56 36 106t68 88t92.5 59.5t109.5 21.5q57 0 99.5 -23t69.5 -62t36.5 -88t1.5 -102q-9 -56 -36.5 -105.5t-68.5 -87.5t-92.5 -59.5t-109.5 -21.5q-57 0 -99.5 23t-69 61.5t-36 87.5t-1.5 102zM71 350q-10 -70 4.5 -134.5t52.5 -115t96 -80.5t134 -30
q77 0 145 28.5t122 78t89.5 115t47.5 138.5q10 71 -5 135.5t-53 115t-96 80t-134 29.5t-144.5 -28t-122.5 -78t-89.5 -115t-46.5 -139z" />
    <glyph glyph-name="P" unicode="P" horiz-adv-x="532" 
d="M169 700l-118 -700h82l121 700h-85zM201 620h143q42 0 72 -15.5t44 -44.5t7 -70t-32 -70t-61.5 -44t-79.5 -16h-137l-14 -80h143q66 0 122.5 26t94.5 73.5t48 110.5q10 62 -14.5 109.5t-72.5 74t-112 26.5h-137z" />
    <glyph glyph-name="Q" unicode="Q" horiz-adv-x="767" 
d="M160 350q9 56 36 106t68 88t92.5 59.5t109.5 21.5q57 0 99.5 -23t69.5 -62t36.5 -88t1.5 -102q-9 -56 -36.5 -105.5t-68.5 -87.5t-92.5 -59.5t-109.5 -21.5q-57 0 -99.5 23t-69 61.5t-36 87.5t-1.5 102zM71 350q-10 -70 4.5 -134.5t52.5 -115t96 -80.5t134 -30
q77 0 145 28.5t122 78t89.5 115t47.5 138.5q10 71 -5 135.5t-53 115t-96 80t-133 29.5q-77 0 -145 -28t-122.5 -78t-90 -115t-46.5 -139zM394 300l240 -300h103l-240 300h-103z" />
    <glyph glyph-name="R" unicode="R" horiz-adv-x="543" 
d="M231 345l176 -345h99l-184 345h-91zM169 700l-118 -700h82l121 700h-85zM202 625h143q42 0 71.5 -17t43.5 -47t7 -71t-32 -71.5t-61.5 -47t-80.5 -16.5h-137l-13 -75h143q66 0 122.5 26t94.5 73.5t48 110.5q10 62 -14.5 109.5t-72.5 74t-112 26.5h-137z" />
    <glyph glyph-name="S" unicode="S" horiz-adv-x="532" 
d="M106 212l-68 -46q18 -46 50 -86.5t77.5 -65t102.5 -24.5q63 0 116.5 29.5t86 79.5t32.5 111q0 56 -23.5 92t-58.5 58.5t-70 36.5q-33 13 -57.5 27t-41.5 30t-25.5 35t-8.5 41q0 28 13 50.5t38.5 36t63.5 13.5q44 0 72 -16t45.5 -41t28.5 -51l73 39q-15 39 -42.5 73
t-68.5 55t-98 21q-64 0 -112 -26t-74.5 -69.5t-26.5 -95.5q0 -40 15.5 -70t39.5 -51t50.5 -36t49.5 -25q36 -16 65.5 -32.5t47.5 -40.5t18 -64q0 -32 -17.5 -62t-50 -49t-77.5 -19q-42 0 -72 18t-52 50t-41 74z" />
    <glyph glyph-name="T" unicode="T" horiz-adv-x="451" 
d="M87 620h176l-107 -620h84l107 620h174l14 80h-433z" />
    <glyph glyph-name="U" unicode="U" horiz-adv-x="608" 
d="M165 700l-80 -470q-10 -64 10 -118.5t67 -87.5t117 -33q80 0 136 32t89 86.5t44 120.5l81 470h-84l-81 -470q-7 -45 -28.5 -81t-58.5 -57t-91 -21q-48 0 -76 22t-38 58.5t-4 78.5l81 470h-84z" />
    <glyph glyph-name="V" unicode="V" horiz-adv-x="640" 
d="M326 158l-139 542h-91l202 -736l431 736h-96z" />
    <glyph glyph-name="W" unicode="W" horiz-adv-x="961" 
d="M690 183l-113 554l-286 -554l-98 517h-92l153 -737l289 544l119 -544l382 737h-95z" />
    <glyph glyph-name="X" unicode="X" horiz-adv-x="539" 
d="M507 700l-185 -257l-101 257h-95l145 -331l-281 -369h101l210 292l115 -292h95l-158 365l255 335h-101z" />
    <glyph glyph-name="Y" unicode="Y" horiz-adv-x="544" 
d="M538 700l-230 -322l-119 322h-91l158 -396l-53 -304h84l51 300l297 400h-97z" />
    <glyph glyph-name="Z" unicode="Z" horiz-adv-x="529" 
d="M112 620h337l-464 -620h479l14 80l-337 1l463 619h-478z" />
    <glyph glyph-name="bracketleft" unicode="[" horiz-adv-x="291" 
d="M267 705l98 1l11 74h-176l-155 -1000h177l12 75h-99z" />
    <glyph glyph-name="backslash" unicode="\" horiz-adv-x="500" 
d="M106 701l272 -701h79l-268 700z" />
    <glyph glyph-name="bracketright" unicode="]" horiz-adv-x="291" 
d="M77 -145h-98l-12 -75h177l154 1000h-176l-12 -75h98z" />
    <glyph glyph-name="asciicircum" unicode="^" horiz-adv-x="495" 
d="M329 621l78 -161h76l-123 250h-40l-208 -249h82z" />
    <glyph glyph-name="underscore" unicode="_" horiz-adv-x="485" 
d="M-50 -132h487l8 54h-486z" />
    <glyph glyph-name="grave" unicode="`" horiz-adv-x="364" 
d="M157 661l154 -150l47 28l-123 161z" />
    <glyph glyph-name="a" unicode="a" 
d="M463 460l-77 -460h73l80 460h-76zM45 230q-9 -65 11 -119.5t64.5 -87t109.5 -32.5q46 0 84.5 18.5t67.5 51.5t48 76.5t26 92.5q6 47 0.5 89.5t-23.5 76.5t-49.5 54t-77.5 20q-65 1 -120.5 -31t-93 -86.5t-47.5 -122.5zM125 230q8 47 34.5 85t65.5 59.5t83 20.5
q30 -1 52.5 -14.5t37.5 -36.5t21 -52t1 -62q-6 -34 -22.5 -64t-40.5 -52.5t-52.5 -35t-58.5 -12.5q-44 0 -73.5 22.5t-41.5 60t-6 81.5z" />
    <glyph glyph-name="b" unicode="b" 
d="M253 780h-79l-134 -780h79zM532 230q9 65 -10.5 119.5t-64 87.5t-109.5 33q-46 0 -84.5 -19t-67.5 -52t-48 -76.5t-26 -92.5q-6 -46 -0.5 -89t23.5 -77t49.5 -54t77.5 -20q65 0 120.5 31.5t93 86.5t46.5 122zM453 230q-7 -47 -34 -84.5t-65.5 -59t-83.5 -20.5
q-30 1 -52.5 14t-37.5 36t-20.5 52t-1.5 62q6 35 22.5 65t40.5 52.5t52.5 35t58.5 12.5q44 0 73.5 -22.5t42 -60t5.5 -82.5z" />
    <glyph glyph-name="c" unicode="c" horiz-adv-x="464" 
d="M127 230q7 46 32 83t63.5 59.5t84.5 22.5q50 0 87.5 -23t53.5 -61l14 100q-26 29 -65.5 44t-83.5 15q-68 0 -125 -32.5t-94.5 -86.5t-46.5 -121q-8 -64 14 -118.5t69.5 -87.5t113.5 -33q47 0 89.5 15.5t73.5 42.5l14 99q-26 -33 -71.5 -58t-98.5 -24q-45 1 -75 24
t-42.5 60.5t-6.5 79.5z" />
    <glyph glyph-name="d" unicode="d" 
d="M512 780l-131 -780h77l135 780h-81zM45 230q-9 -65 11 -119.5t64.5 -87t109.5 -32.5q46 0 84.5 18.5t67.5 51.5t48 76.5t26 92.5q6 47 0.5 89.5t-23.5 76.5t-49.5 54t-77.5 20q-65 1 -120.5 -31t-93 -86.5t-47.5 -122.5zM125 230q8 47 34.5 85t65.5 59.5t83 20.5
q30 -1 52.5 -14.5t37.5 -36.5t21 -52t1 -62q-6 -34 -22.5 -64t-40.5 -52.5t-52.5 -35t-58.5 -12.5q-44 0 -73.5 22.5t-41.5 60t-6 81.5z" />
    <glyph glyph-name="e" unicode="e" horiz-adv-x="500" 
d="M238 -10q74 0 130 33t92 84l-63 41q-25 -36 -63.5 -59.5t-85.5 -23.5q-42 0 -69 17.5t-40 49.5t-13 73q0 39 12.5 74.5t35.5 62.5t54.5 42.5t69.5 15.5q37 0 61 -14t36.5 -39.5t12.5 -61.5q0 -14 -4 -27.5t-9 -25.5l31 46h-330v-68h383q4 8 7.5 26t3.5 33q0 66 -23 110.5
t-64.5 67.5t-99.5 23q-55 0 -101.5 -22t-81 -59.5t-54 -86t-19.5 -102.5q0 -66 24 -113t67 -72t100 -25z" />
    <glyph glyph-name="f" unicode="f" horiz-adv-x="278" 
d="M90 460l-14 -75h225l14 75h-225zM346 685l53 64q-13 17 -33 28.5t-49 12.5q-44 1 -76 -19.5t-52 -57t-27 -82.5l-108 -631h80l106 620q4 25 12 45.5t21 33t31 12.5q13 0 23.5 -6.5t18.5 -19.5z" />
    <glyph glyph-name="g" unicode="g" 
d="M10 -30q-6 -58 17 -103t69.5 -70.5t110.5 -25.5q66 0 119.5 30.5t89 84.5t45.5 124l77 450h-79l-78 -450q-7 -49 -32.5 -86.5t-62.5 -57.5t-78 -20q-42 0 -69.5 17t-39.5 45t-10 62h-79zM45 230q-9 -65 11 -119.5t64.5 -87t109.5 -32.5q46 0 84.5 18.5t67.5 51.5t48 76.5
t26 92.5q6 47 0.5 89.5t-23.5 76.5t-49.5 54t-77.5 20q-65 1 -120.5 -31t-93 -86.5t-47.5 -122.5zM125 230q8 47 34.5 85t65.5 59.5t83 20.5q30 -1 52.5 -14.5t37.5 -36.5t21 -52t1 -62q-6 -34 -22.5 -64t-40.5 -52.5t-52.5 -35t-58.5 -12.5q-44 0 -73.5 22.5t-41.5 60
t-6 81.5z" />
    <glyph glyph-name="h" unicode="h" horiz-adv-x="509" 
d="M258 780h-79l-134 -780h79zM380 280l-48 -280h78l50 290q6 51 -5 91.5t-41 64.5t-80 24t-89.5 -26.5t-64.5 -69.5t-35 -93h27q8 31 26.5 57t46 42t62.5 15q33 -1 50 -16.5t22 -41t1 -57.5z" />
    <glyph glyph-name="i" unicode="i" horiz-adv-x="252" 
d="M156 650q0 -22 16 -38t38 -16q23 0 39 16t16 38q0 23 -16 39t-39 16q-22 0 -38 -16t-16 -39zM137 460l-76 -460h79l78 460h-81z" />
    <glyph glyph-name="j" unicode="j" horiz-adv-x="243" 
d="M144 650q0 -22 16 -38t38 -16q23 0 38.5 16t15.5 38q0 23 -15.5 38.5t-38.5 15.5q-22 0 -38 -15.5t-16 -38.5zM-65 -114l-52 -64q16 -19 37.5 -30t49.5 -11q44 -1 75 20.5t49.5 58t25.5 80.5l88 520h-79l-88 -510q-2 -23 -10 -44t-21 -34t-32 -12q-13 0 -24.5 7.5
t-18.5 18.5z" />
    <glyph glyph-name="k" unicode="k" horiz-adv-x="427" 
d="M173 780l-132 -780h78l135 780h-81zM360 460l-224 -187l168 -273h95l-169 264l232 196h-102z" />
    <glyph glyph-name="l" unicode="l" horiz-adv-x="223" 
d="M178 780l-132 -780h77l135 780h-80z" />
    <glyph glyph-name="m" unicode="m" horiz-adv-x="757" 
d="M707 290q6 48 -2.5 89t-36 66t-77.5 25q-49 0 -87 -24t-65 -65q-6 27 -20.5 47t-38 31t-56.5 11q-28 0 -52 -9t-43.5 -25.5t-35.5 -39.5l10 64h-79l-80 -460h80l50 285q5 32 21.5 56.5t43 38.5t59.5 14q32 0 46.5 -15.5t17.5 -41.5t-1 -57l-48 -280h77l49 282
q5 32 21.5 57t43 40t60.5 15q32 0 46.5 -15.5t18 -41.5t-0.5 -57l-50 -280h80z" />
    <glyph glyph-name="n" unicode="n" horiz-adv-x="509" 
d="M380 280l-48 -280h78l50 290q7 48 -4.5 89t-41 66t-80.5 25q-46 0 -81 -20.5t-61 -58.5l11 69h-79l-80 -460h80l50 284q5 32 23.5 57t47 39.5t62.5 14.5q33 0 50 -16t22 -42t1 -57z" />
    <glyph glyph-name="o" unicode="o" horiz-adv-x="530" 
d="M52 230q-8 -64 14 -118.5t69.5 -87.5t113.5 -33q68 0 125 32.5t94.5 86.5t46.5 120q9 64 -13.5 118.5t-69.5 88t-114 33.5t-124.5 -32.5t-95 -86.5t-46.5 -121zM131 230q7 45 32.5 82.5t64 60t83.5 22.5t75 -24t43 -61t7 -80q-7 -44 -32.5 -82t-64 -60t-84.5 -22
q-45 0 -74.5 23.5t-42.5 61t-7 79.5z" />
    <glyph glyph-name="p" unicode="p" 
d="M83 -219l114 679h-77l-118 -680zM532 230q9 65 -10.5 119.5t-64 87.5t-109.5 33q-46 0 -84.5 -19t-67.5 -52t-48 -76.5t-26 -92.5q-6 -46 -0.5 -89t23.5 -77t49.5 -54t77.5 -20q65 0 120.5 31.5t93 86.5t46.5 122zM453 230q-7 -47 -34 -84.5t-65.5 -59t-83.5 -20.5
q-30 1 -52.5 14t-37.5 36t-20.5 52t-1.5 62q6 35 22.5 65t40.5 52.5t52.5 35t58.5 12.5q44 0 73.5 -22.5t42 -60t5.5 -82.5z" />
    <glyph glyph-name="q" unicode="q" 
d="M342 -220h79l117 680h-79zM45 230q-9 -65 11 -119.5t64.5 -87t109.5 -32.5q46 0 84.5 18.5t67.5 51.5t48 76.5t26 92.5q6 47 0.5 89.5t-23.5 76.5t-49.5 54t-77.5 20q-65 1 -120.5 -31t-93 -86.5t-47.5 -122.5zM125 230q8 47 34.5 85t65.5 59.5t83 20.5q30 -1 52.5 -14.5
t37.5 -36.5t21 -52t1 -62q-6 -34 -22.5 -64t-40.5 -52.5t-52.5 -35t-58.5 -12.5q-44 0 -73.5 22.5t-41.5 60t-6 81.5z" />
    <glyph glyph-name="r" unicode="r" horiz-adv-x="333" 
d="M203 460h-79l-80 -460h80zM324 373l53 64q-18 17 -37.5 25t-43.5 8q-40 0 -73.5 -28t-56 -71t-31.5 -90h37q6 29 16.5 55t30 43t49.5 16q17 0 30 -6t26 -16z" />
    <glyph glyph-name="s" unicode="s" horiz-adv-x="391" 
d="M96 139l-65 -37q13 -27 38 -53t61.5 -42.5t82.5 -16.5q47 0 83 19.5t56.5 52.5t20.5 73q0 41 -17.5 66.5t-46.5 42.5t-63 32q-22 10 -40.5 20t-29.5 23.5t-11 31.5q0 23 18.5 37t49.5 14q32 0 58.5 -17.5t45.5 -43.5l59 40q-21 38 -62 63.5t-96 25.5q-37 0 -71.5 -14
t-56.5 -42.5t-22 -72.5q0 -38 18 -62.5t45 -40t53 -25.5q21 -9 42 -20.5t35 -27.5t14 -39q0 -27 -21 -45.5t-55 -18.5q-28 0 -51 10.5t-40.5 28t-31.5 38.5z" />
    <glyph glyph-name="t" unicode="t" horiz-adv-x="233" 
d="M58 460l-14 -75h225l13 75h-224zM155 620l-104 -620h77l108 620h-81z" />
    <glyph glyph-name="u" unicode="u" horiz-adv-x="509" 
d="M154 180l48 280h-77l-51 -290q-7 -47 4 -88t41.5 -66t80.5 -25q46 0 81.5 21t60.5 58l-11 -70h79l80 460h-80l-50 -284q-5 -31 -23.5 -56t-46.5 -39.5t-63 -14.5q-33 0 -50 16t-22 42t-1 56z" />
    <glyph glyph-name="v" unicode="v" horiz-adv-x="427" 
d="M54 460l137 -496l292 496h-91l-175 -322l-76 322h-87z" />
    <glyph glyph-name="w" unicode="w" horiz-adv-x="660" 
d="M57 460l109 -497l186 335l76 -335l281 497h-91l-164 -298l-71 335l-180 -333l-59 296h-87z" />
    <glyph glyph-name="x" unicode="x" horiz-adv-x="408" 
d="M363 460l-130 -160l-83 160h-86l118 -218l-202 -242h92l143 176l89 -176h86l-123 233l188 227h-92z" />
    <glyph glyph-name="y" unicode="y" horiz-adv-x="427" 
d="M481 460h-91l-198 -355l32 -5l-84 360h-88l104 -392l-174 -287h91z" />
    <glyph glyph-name="z" unicode="z" horiz-adv-x="446" 
d="M328 385l-343 -385h401l14 75h-257l343 385h-391l-14 -75h247z" />
    <glyph glyph-name="braceleft" unicode="{" horiz-adv-x="302" 
d="M258 660q4 22 18 36t37 14h34l10 70h-60q-29 0 -55 -18t-43.5 -49t-23.5 -72l-32 -211q-6 -46 -21 -71t-42 -39l-9 -60q23 -16 29 -40.5t1 -69.5l-32 -210q-4 -38 4 -70t27.5 -51t48.5 -19h58l10 71h-35q-15 0 -24.5 6.5t-13 18t-1.5 24.5l27 170q5 32 7.5 66t-2.5 65
t-24.5 52t-58.5 27l-3 -19q41 5 66.5 24.5t40 49.5t22.5 65t14 70z" />
    <glyph glyph-name="bar" unicode="|" horiz-adv-x="266" 
d="M200 785l-153 -999h73l153 999h-73z" />
    <glyph glyph-name="braceright" unicode="}" horiz-adv-x="302" 
d="M108 -80q-4 -22 -18 -36t-37 -14h-33l-11 -69h61q29 0 54.5 18t43.5 49.5t23 71.5l32 210q6 47 21 72t42 38l9 60q-23 17 -29 41t-1 69l32 210q5 39 -3.5 70.5t-28 50.5t-48.5 19h-58l-10 -70h35q15 0 24.5 -7t13 -17.5t1.5 -24.5l-27 -171q-4 -31 -7 -65.5t2 -65
t24.5 -52t58.5 -27.5l3 20q-40 -4 -66 -24.5t-40.5 -50.5t-22.5 -65t-14 -70z" />
    <glyph glyph-name="asciitilde" unicode="~" horiz-adv-x="558" 
d="M149 176q-1 6 -1 11.5t1 10.5q5 24 21.5 39t41.5 16q13 0 26 -4t26.5 -11.5t25.5 -17.5q26 -20 52 -33.5t53 -13.5q27 -1 52.5 11.5t44.5 34.5q13 16 21 35t10 36q2 7 1.5 14.5t-1.5 13.5l-77 5q2 -7 2.5 -14t-1.5 -13q-4 -20 -17 -34t-33 -14q-15 -1 -31.5 8.5
t-33.5 22.5q-27 22 -55 35t-58 13q-31 0 -59.5 -14t-49.5 -38q-13 -16 -21.5 -34t-11.5 -35q-1 -7 -1 -13t1 -12z" />
    <glyph glyph-name="uni00A0" unicode="&#xa0;" horiz-adv-x="301" 
 />
    <glyph glyph-name="exclamdown" unicode="&#xa1;" horiz-adv-x="291" 
d="M127 -245l65 500h-60l-105 -500h100zM243 414q2 21 -11 38t-34 18t-40.5 -16.5t-21.5 -37.5q-2 -21 11 -37.5t34 -17.5t40.5 16t21.5 37z" />
    <glyph glyph-name="cent" unicode="&#xa2;" horiz-adv-x="563" 
d="M251 38l-26 -149h63l26 149h-63zM170 230q8 45 34 82.5t65 60t84 22.5q50 0 87 -23t52 -61l16 100q-25 29 -64.5 44t-83.5 15q-68 0 -125.5 -32.5t-96 -86.5t-48.5 -121q-9 -63 12.5 -117.5t68 -88t113.5 -33.5q47 0 90 15.5t74 42.5l15 99q-27 -33 -72.5 -58t-99.5 -24
q-45 1 -74.5 24t-41.5 60.5t-5 79.5zM343 578l-26 -149h63l26 149h-63z" />
    <glyph glyph-name="sterling" unicode="&#xa3;" horiz-adv-x="563" 
d="M101 370l-14 -75h351l14 75h-351zM492 480l74 28q2 33 -6 68t-27.5 65.5t-51.5 49.5t-78 19q-43 0 -82 -13.5t-70 -39.5t-51.5 -61t-26.5 -77q-5 -43 4 -77.5t23 -65.5t23 -61.5t3 -65.5q-9 -49 -37.5 -89t-68.5 -78t-85 -82h440l15 80h-355l-6 -29q32 11 61.5 30.5
t54 47.5t41 62t22.5 73q5 37 -4 68t-22 60t-21 60t-2 68q6 34 26 58t49 36.5t60 11.5q32 -1 51.5 -14t30.5 -34.5t14.5 -47t1.5 -50.5z" />
    <glyph glyph-name="currency" unicode="&#xa4;" horiz-adv-x="563" 
d="M94 505l78 -94l55 47l-77 95zM67 48l106 91l-42 51l-106 -91zM480 411l106 90l-41 52l-107 -92zM384 143l77 -95l55 48l-76 94zM74 300q-9 -63 12 -117.5t68 -88t114 -33.5q68 0 125.5 32t96 86.5t48.5 120.5q9 64 -12.5 118.5t-68 88t-113.5 33.5q-68 0 -125.5 -32.5
t-96 -87t-48.5 -120.5zM154 300q8 45 33.5 82.5t64.5 60t85 22.5q45 0 74 -24t41.5 -61t5.5 -80q-7 -45 -33.5 -82t-65 -59.5t-84.5 -22.5q-45 0 -74.5 23.5t-41.5 61t-5 79.5z" />
    <glyph glyph-name="yen" unicode="&#xa5;" horiz-adv-x="563" 
d="M67 291l472 -1l12 75h-472zM41 141l472 -1l13 75h-473zM548 700l-231 -322l-118 322h-91l158 -394l-54 -306h86l52 304l294 396h-96z" />
    <glyph glyph-name="brokenbar" unicode="&#xa6;" horiz-adv-x="266" 
d="M188 695l-41 -239h73l41 239h-73zM184 245h-73l-41 -239h73z" />
    <glyph glyph-name="section" unicode="&#xa7;" horiz-adv-x="396" 
d="M375 580l67 39q-14 42 -55.5 66.5t-93.5 24.5q-36 0 -71.5 -15t-60.5 -41.5t-31 -63.5q-4 -27 4 -48t24.5 -37t37 -28t42.5 -22q23 -10 43.5 -22t32.5 -28.5t8 -41.5q-3 -22 -18 -40.5t-36 -31t-45 -16.5l-5 -34q35 1 66 8t56.5 21.5t42 39t21.5 60.5q5 33 -9 58
t-39 44.5t-55 33.5q-15 7 -32 15.5t-31.5 18.5t-23 22t-5.5 27q3 16 14.5 25.5t29 14.5t34.5 5q29 0 51.5 -14t36.5 -40zM92 161l-69 -37q5 -38 25.5 -68t54 -47t75.5 -18q46 0 86 15t66.5 46.5t32.5 77.5q4 33 -10 58t-38.5 44.5t-54.5 33.5q-17 8 -34.5 17t-31.5 20
t-20.5 27t-2.5 39q5 23 19 38t35 26.5t47 20.5l5 25q-37 -1 -68.5 -8t-56 -21.5t-40.5 -36.5t-21 -53q-5 -36 9.5 -63.5t41 -47.5t55.5 -34q22 -10 43 -21.5t33 -28t7 -41.5q-3 -19 -16.5 -32.5t-32.5 -19.5t-41 -6q-43 0 -67.5 27.5t-30.5 67.5z" />
    <glyph glyph-name="dieresis" unicode="&#xa8;" horiz-adv-x="456" 
d="M356 661q-2 -21 11.5 -37.5t34.5 -17.5t40.5 16t21.5 37q2 21 -11.5 38t-35.5 18q-20 1 -39.5 -16.5t-21.5 -37.5zM162 661q-2 -21 11.5 -37.5t34.5 -17.5t40.5 16t21.5 37q2 21 -11.5 38t-35.5 18q-20 1 -39.5 -16.5t-21.5 -37.5z" />
    <glyph glyph-name="copyright" unicode="&#xa9;" horiz-adv-x="776" 
d="M269 350q7 46 32.5 83t63.5 59.5t83 22.5q41 0 70.5 -16.5t49.5 -45.5l10 67q-26 23 -56 34.5t-71 11.5q-59 0 -109.5 -29.5t-84 -78t-41.5 -108.5q-7 -57 12.5 -106t61.5 -79t100 -30q42 -1 74.5 11t61.5 34l9 66q-27 -25 -63 -43t-79 -17q-45 1 -74.5 24t-42.5 60
t-7 80zM130 350q10 64 40.5 120t77 99t104.5 67t124 24q64 0 113.5 -25.5t82 -69t45.5 -99t4 -116.5q-10 -63 -40.5 -119t-77 -99t-105 -67t-123.5 -24q-64 0 -114 25.5t-82 69t-45 99t-4 115.5zM75 350q-10 -72 7 -136.5t57 -115t99.5 -79.5t134.5 -29q77 0 145 28t122 77
t89.5 114.5t45.5 140.5q10 72 -7 137t-56.5 115.5t-99 79t-134.5 28.5q-77 0 -145.5 -27.5t-122.5 -77t-89 -115t-46 -140.5z" />
    <glyph glyph-name="ordfeminine" unicode="&#xaa;" horiz-adv-x="231" 
d="M123 532q2 21 23 36t45 15q20 1 35.5 -6t31.5 -18l4 24q-10 10 -27.5 20t-44.5 10q-36 0 -69 -22.5t-38 -57.5q-5 -33 15 -54.5t51 -22.5q36 -1 61 18.5t34 49.5l-4 26q-8 -26 -29 -42.5t-49 -15.5q-21 1 -31 12.5t-8 27.5zM143 646q13 7 31.5 16t40.5 7q18 -1 28 -9.5
t12 -24.5l-31 -174h40l29 174q3 33 -18.5 51.5t-56.5 18.5q-28 1 -50 -8t-39 -19z" />
    <glyph glyph-name="guillemotleft" unicode="&#xab;" horiz-adv-x="495" 
d="M299 259l178 185l-43 46l-223 -232l146 -238l55 44zM143 259l179 185l-44 46l-223 -232l146 -238l56 44z" />
    <glyph glyph-name="logicalnot" unicode="&#xac;" horiz-adv-x="602" 
d="M86 300h404l-22 -124h74l35 199h-477z" />
    <glyph glyph-name="uni00AD" unicode="&#xad;" horiz-adv-x="204" 
d="M12 201h196l13 74h-196z" />
    <glyph glyph-name="registered" unicode="&#xae;" horiz-adv-x="776" 
d="M376 358l110 -208h61l-116 208h-55zM336 570l-64 -419h50l65 419h-51zM356 525h86q37 -2 58.5 -23t16.5 -58t-35 -58t-68 -23h-83l-6 -44h85q59 2 104.5 35t53.5 90q8 56 -29 90.5t-93 35.5h-83zM130 350q10 64 40.5 120t77 99t104.5 67t124 24q64 0 113.5 -25.5t82 -69
t45.5 -99t4 -116.5q-10 -63 -40.5 -119t-77 -99t-105 -67t-123.5 -24q-64 0 -114 25.5t-82 69t-45 99t-4 115.5zM75 350q-10 -72 7 -136.5t57 -115t99.5 -79.5t134.5 -29q77 0 145 28t122 77.5t89.5 114.5t45.5 140q10 72 -7 137t-56.5 115.5t-99 79t-134.5 28.5
q-77 0 -145.5 -27.5t-122.5 -77t-89 -115t-46 -140.5z" />
    <glyph glyph-name="macron" unicode="&#xaf;" horiz-adv-x="495" 
d="M153 600h341l12 75h-341z" />
    <glyph glyph-name="degree" unicode="&#xb0;" horiz-adv-x="270" 
d="M94 601q-7 -49 20.5 -84.5t77.5 -35.5q34 0 62.5 16t48 43t24.5 60q5 32 -6 59t-34.5 44t-57.5 17q-33 0 -62 -16t-48.5 -43t-24.5 -60zM134 600q4 22 17.5 40.5t33.5 30t42 11.5q33 -1 49 -25.5t11 -56.5q-3 -22 -17 -40.5t-33.5 -29.5t-42.5 -11q-33 0 -49 25t-11 56z
" />
    <glyph glyph-name="plusminus" unicode="&#xb1;" horiz-adv-x="597" 
d="M47 0h471l13 80h-473zM100 345h471l13 80h-472zM334 620l-70 -469l82 -1l74 470h-86z" />
    <glyph glyph-name="uni00B2" unicode="&#xb2;" horiz-adv-x="336" 
d="M45 283h288l8 47l-183 1l152 135q26 25 46.5 53.5t26.5 62.5q5 30 -5 59t-35 48.5t-66 19.5q-44 1 -77.5 -20t-54.5 -55t-30 -75h51q7 27 21.5 51t36.5 38.5t50 12.5q23 -1 36.5 -12t19 -28t2.5 -35q-4 -27 -21.5 -49.5t-38.5 -42.5z" />
    <glyph glyph-name="uni00B3" unicode="&#xb3;" horiz-adv-x="303" 
d="M193 488q37 3 69.5 15.5t54.5 35t28 55.5q5 29 -5.5 54.5t-33.5 41.5t-57 16q-52 1 -87 -31t-46 -77l49 -1q8 25 29.5 45t50.5 18q29 -1 41.5 -21t7.5 -46q-4 -21 -17.5 -36.5t-33.5 -24.5t-45 -12zM177 275q36 0 67 14.5t52 41t26 60.5q5 30 -4 52t-27 35.5t-42.5 21
t-52.5 8.5l-6 -33q25 -2 45 -10t30.5 -24.5t5.5 -42.5q-4 -32 -30.5 -54t-60.5 -21t-50 20.5t-16 47.5h-51q-1 -32 11 -58.5t38 -42t65 -15.5z" />
    <glyph glyph-name="acute" unicode="&#xb4;" horiz-adv-x="364" 
d="M377 658l-70 42l-169 -158l42 -31z" />
    <glyph glyph-name="mu" unicode="&#xb5;" horiz-adv-x="509" 
d="M204 460h-81l-131 -779l77 -1l57 330q14 -9 33 -14t41 -5q43 0 78.5 19t61.5 50l-9 -60h79l80 460h-80l-50 -284q-5 -31 -23.5 -56t-46.5 -39.5t-63 -14.5q-30 0 -48 13.5t-24.5 37t-3.5 52.5z" />
    <glyph glyph-name="paragraph" unicode="&#xb6;" horiz-adv-x="561" 
d="M298 271l-83 -490h69l145 855h87l-146 -855h69l157 919h-225q-64 0 -119 -25.5t-91.5 -73.5t-47.5 -115q-9 -64 12.5 -111t67 -73.5t105.5 -30.5z" />
    <glyph glyph-name="periodcentered" unicode="&#xb7;" horiz-adv-x="291" 
d="M106 241q-1 -14 4.5 -26.5t16 -20t24.5 -8.5t28 6.5t24 20.5t11 26q2 14 -4 26.5t-17 20.5t-25 9t-27.5 -7t-23 -20.5t-11.5 -26.5z" />
    <glyph glyph-name="cedilla" unicode="&#xb8;" horiz-adv-x="340" 
d="M172 59l-110 -166q15 8 32 13t28 4q13 0 23 -4t15 -12t3 -19q-1 -11 -9.5 -20.5t-21 -15t-26.5 -5.5q-17 0 -27.5 7t-22.5 17l-38 -38q19 -19 37.5 -29t45.5 -10t53 11t44 32t21 49q4 33 -15 53t-46 22h-3h-4l82 111h-61z" />
    <glyph glyph-name="uni00B9" unicode="&#xb9;" horiz-adv-x="456" 
d="M225 612l93 26l-61 -363h51l74 426l-149 -37z" />
    <glyph glyph-name="ordmasculine" unicode="&#xba;" horiz-adv-x="270" 
d="M91 581q-7 -49 20.5 -84.5t77.5 -35.5q34 0 62.5 16t48 43t23.5 60q5 32 -6 59t-34.5 44t-57.5 17q-33 0 -62 -16t-48 -43t-24 -60zM130 580q4 22 17.5 40.5t33.5 30t42 11.5q33 -1 49.5 -25.5t11.5 -56.5q-4 -22 -17.5 -40.5t-33 -29.5t-42.5 -11q-33 0 -49 25t-12 56z
" />
    <glyph glyph-name="guillemotright" unicode="&#xbb;" horiz-adv-x="495" 
d="M229 252l-178 -185l44 -46l223 231l-147 238l-55 -44zM385 252l-178 -185l43 -46l223 231l-146 238l-55 -44z" />
    <glyph glyph-name="onequarter" unicode="&#xbc;" horiz-adv-x="732" 
d="M690 699l-622 -699h65l623 699h-66zM107 612l93 26l-61 -363h51l73 426l-148 -37zM374 85h311l7 44h-86h-10l-176 -1zM428 85l179 217l-32 -190l-1 -6l-18 -106h51l71 420l-22 -1l-283 -333z" />
    <glyph glyph-name="onehalf" unicode="&#xbd;" horiz-adv-x="795" 
d="M690 699l-622 -699h65l623 699h-66zM107 612l93 26l-61 -363h51l73 426l-148 -37zM452 3h288l8 47l-183 1l152 135q26 25 46.5 53.5t25.5 62.5q5 30 -5 59t-35 48.5t-66 19.5q-44 1 -77 -20t-54 -55t-30 -75h51q6 27 20.5 50.5t36.5 38t50 12.5q23 -1 37 -12t19.5 -27.5
t2.5 -34.5q-4 -27 -21.5 -49.5t-39.5 -42.5z" />
    <glyph glyph-name="threequarters" unicode="&#xbe;" horiz-adv-x="796" 
d="M755 699l-622 -699h65l623 699h-66zM198 488q37 3 69.5 15.5t54.5 35t28 55.5q5 29 -6 54.5t-34 41.5t-57 16q-52 1 -86.5 -31t-45.5 -77l49 -1q8 25 29.5 45t50.5 18q29 -1 41 -21t8 -46q-4 -21 -17.5 -36.5t-33.5 -24.5t-45 -12zM182 275q36 0 67 14.5t52 41t26 60.5
q5 30 -4 52t-27 35.5t-42.5 21t-52.5 8.5l-6 -33q25 -2 45 -10t30.5 -24.5t5.5 -42.5q-4 -32 -30.5 -54t-60.5 -21t-50 20.5t-16 47.5h-51q-1 -32 11 -58.5t38 -42t65 -15.5zM439 85h311l7 44h-86h-10l-176 -1zM493 85l179 217l-32 -190l-1 -6l-18 -106h51l71 420l-22 -1
l-283 -333z" />
    <glyph glyph-name="questiondown" unicode="&#xbf;" horiz-adv-x="541" 
d="M144 200q9 43 39.5 77.5t76 55.5t99.5 22h25l9 175h-60l-28 -120q-57 -6 -108.5 -34t-86.5 -72.5t-45 -102.5q-6 -42 4 -80t34 -67t60 -46t81 -17q81 -1 134.5 32t96.5 83l-59 42q-29 -34 -67 -58.5t-88 -23.5q-42 0 -70.5 17.5t-40.5 47.5t-6 69zM438 659q2 21 -11.5 38
t-34.5 18q-14 1 -27.5 -7t-23 -20.5t-11.5 -26.5q-2 -21 11 -37.5t34 -17.5q14 -1 28 6.5t24 20.5t11 26z" />
    <glyph glyph-name="Agrave" unicode="&#xc0;" horiz-adv-x="640" 
d="M152 211l360 -1l-16 80h-303zM388 542l67 -282l4 -20l58 -240h91l-189 737l-444 -737h96l144 246l11 18zM328 946l152 -151l47 29l-120 161z" />
    <glyph glyph-name="Aacute" unicode="&#xc1;" horiz-adv-x="640" 
d="M152 211l360 -1l-16 80h-303zM388 542l67 -282l4 -20l58 -240h91l-189 737l-444 -737h96l144 246l11 18zM582 943l-69 42l-172 -158l42 -31z" />
    <glyph glyph-name="Acircumflex" unicode="&#xc2;" horiz-adv-x="640" 
d="M152 211l360 -1l-16 80h-303zM388 542l67 -282l4 -20l58 -240h91l-189 737l-444 -737h96l144 246l11 18zM441 850l90 -94l54 38l-134 141l-178 -138l44 -41z" />
    <glyph glyph-name="Atilde" unicode="&#xc3;" horiz-adv-x="640" 
d="M152 211l360 -1l-16 80h-303zM388 542l67 -282l4 -20l58 -240h91l-189 737l-444 -737h96l144 246l11 18zM271 814l48 -38q6 14 18.5 31.5t39.5 18.5q21 1 37 -10.5t32.5 -23t39.5 -12.5q25 -1 46.5 10t39 27.5t28.5 33.5l-40 44q-14 -19 -30 -32.5t-34 -14.5
q-23 -1 -38 10.5t-31.5 23.5t-42.5 12q-24 1 -46.5 -10.5t-39.5 -30t-27 -39.5z" />
    <glyph glyph-name="Adieresis" unicode="&#xc4;" horiz-adv-x="640" 
d="M152 211l360 -1l-16 80h-303zM388 542l67 -282l4 -20l58 -240h91l-189 737l-444 -737h96l144 246l11 18zM482 851q-2 -21 11 -37.5t34 -17.5t40.5 16t21.5 37q2 21 -11 38t-34 18t-40.5 -16.5t-21.5 -37.5zM287 851q-2 -21 11.5 -37.5t34.5 -17.5t40.5 16t21.5 37
q2 21 -11 38t-34 18t-41 -16.5t-22 -37.5z" />
    <glyph glyph-name="Aring" unicode="&#xc5;" horiz-adv-x="640" 
d="M152 211l360 -1l-16 80h-303zM388 542l67 -282l4 -20l58 -240h91l-189 737l-444 -737h96l144 246l11 18zM330 799q-4 -27 6.5 -49.5t31 -36.5t46.5 -14q27 0 52 13t42.5 35.5t20.5 49.5q4 28 -6.5 50.5t-30.5 36.5t-47 14q-26 0 -51.5 -13.5t-42.5 -35.5t-21 -50z
M380 798q2 14 11.5 26.5t23 20t25.5 6.5q18 -1 29.5 -16.5t9.5 -35.5q-2 -21 -22 -37.5t-38 -15.5t-29.5 16.5t-9.5 35.5z" />
    <glyph glyph-name="AE" unicode="&#xc6;" horiz-adv-x="932" 
d="M220 211l292 -1l14 80h-293zM517 700l-539 -700h94l504 658zM495 0h343l14 80h-344zM611 620h333l14 80h-441zM553 341l324 -1l14 80h-325zM567 700l-118 -700h82l121 700h-85z" />
    <glyph glyph-name="Ccedilla" unicode="&#xc7;" horiz-adv-x="665" 
d="M160 350q9 57 36.5 106.5t68.5 87.5t91 59.5t105 21.5q67 0 117 -27.5t82 -76.5l18 112q-42 40 -91.5 59t-116.5 18q-75 0 -142 -28.5t-121 -78t-89.5 -114.5t-46.5 -139q-10 -70 5 -135t52 -115.5t94.5 -80t130.5 -29.5q71 0 126 20t104 57l17 111q-46 -43 -106 -73
t-133 -29q-54 0 -95 23t-67.5 61.5t-36.5 87.5t-2 102zM350 58l-110 -166q15 8 32 13t29 4q13 0 22.5 -4t14.5 -12t3 -19q-1 -11 -9.5 -20.5t-21 -15t-26.5 -5.5q-16 0 -27 7t-23 17l-38 -38q19 -19 38 -29t45 -10q27 0 53 11.5t44 32t21 48.5q4 33 -15 53t-45 22h-4h-4
l82 111h-61z" />
    <glyph glyph-name="Egrave" unicode="&#xc8;" horiz-adv-x="534" 
d="M97 0h344l13 80h-344zM203 621l343 -1l14 80h-344zM155 341l324 -1l14 80h-325zM169 700l-118 -700h82l121 700h-85zM275 921l152 -151l47 29l-120 161z" />
    <glyph glyph-name="Eacute" unicode="&#xc9;" horiz-adv-x="534" 
d="M97 0h344l13 80h-344zM203 621l343 -1l14 80h-344zM155 341l324 -1l14 80h-325zM169 700l-118 -700h82l121 700h-85zM529 918l-69 42l-172 -158l42 -31z" />
    <glyph glyph-name="Ecircumflex" unicode="&#xca;" horiz-adv-x="534" 
d="M97 0h344l13 80h-344zM203 621l343 -1l14 80h-344zM155 341l324 -1l14 80h-325zM169 700l-118 -700h82l121 700h-85zM405 865l90 -94l54 38l-134 141l-178 -138l44 -41z" />
    <glyph glyph-name="Edieresis" unicode="&#xcb;" horiz-adv-x="534" 
d="M97 0h344l13 80h-344zM203 621l343 -1l14 80h-344zM155 341l324 -1l14 80h-325zM169 700l-118 -700h82l121 700h-85zM442 846q-2 -21 11 -37.5t35 -17.5q20 -1 40 16t22 37q2 21 -11 38t-35 18q-20 1 -40 -16.5t-22 -37.5zM248 846q-2 -21 11 -37.5t35 -17.5q20 -1 40 16
t22 37q2 21 -11.5 38t-34.5 18t-40.5 -16.5t-21.5 -37.5z" />
    <glyph glyph-name="Igrave" unicode="&#xcc;" horiz-adv-x="238" 
d="M169 700l-118 -700h82l121 700h-85zM122 921l152 -151l48 29l-121 161z" />
    <glyph glyph-name="Iacute" unicode="&#xcd;" horiz-adv-x="238" 
d="M169 700l-118 -700h82l121 700h-85zM375 918l-67 42l-172 -158l40 -31z" />
    <glyph glyph-name="Icircumflex" unicode="&#xce;" horiz-adv-x="238" 
d="M169 700l-118 -700h82l121 700h-85zM242 865l90 -94l54 38l-134 141l-178 -138l44 -41z" />
    <glyph glyph-name="Idieresis" unicode="&#xcf;" horiz-adv-x="238" 
d="M169 700l-118 -700h82l121 700h-85zM276 826q-2 -20 10.5 -37t34.5 -18q21 -1 41 16t22 37q2 21 -11.5 38t-34.5 18t-40.5 -16.5t-21.5 -37.5zM82 826q-2 -20 10.5 -37t34.5 -18q21 -1 41 16t22 37q2 21 -11.5 38t-35.5 18q-20 1 -39.5 -16.5t-21.5 -37.5z" />
    <glyph glyph-name="Eth" unicode="&#xd0;" horiz-adv-x="660" 
d="M31 311l293 -1l12 75h-292zM169 700l-118 -700h82l121 700h-85zM258 0q102 2 186.5 47.5t140 124t70.5 178.5q14 96 -16.5 175t-99 126.5t-168.5 48.5h-156l-15 -85h162q78 -1 128.5 -36.5t71.5 -95t9 -133.5q-13 -77 -55.5 -136t-106.5 -93t-143 -36h-156l-15 -85h163z
" />
    <glyph glyph-name="Ntilde" unicode="&#xd1;" horiz-adv-x="752" 
d="M684 700l-90 -521l-419 555l-126 -734h85l90 522l418 -556l126 734h-84zM316 794l48 -38q6 14 19 31.5t39 18.5q21 1 37 -10.5t32.5 -23t39.5 -12.5q25 -1 46.5 10t39 27.5t28.5 33.5l-40 44q-14 -19 -30 -32.5t-33 -14.5q-23 -1 -38.5 10.5t-32 23.5t-42.5 12
q-24 1 -46 -10.5t-39.5 -30t-27.5 -39.5z" />
    <glyph glyph-name="Ograve" unicode="&#xd2;" horiz-adv-x="767" 
d="M160 350q9 56 36 106t68 88t92.5 59.5t109.5 21.5q57 0 99.5 -23t69.5 -62t36.5 -88t1.5 -102q-9 -56 -36.5 -105.5t-68.5 -87.5t-92.5 -59.5t-109.5 -21.5q-57 0 -99.5 23t-69 61.5t-36 87.5t-1.5 102zM71 350q-10 -70 4.5 -134.5t52.5 -115t96 -80.5t134 -30
q77 0 145 28.5t122 78t89.5 115t47.5 138.5q10 71 -5 135.5t-53 115t-96 80t-134 29.5t-144.5 -28t-122.5 -78t-89.5 -115t-46.5 -139zM396 921l152 -151l48 29l-121 161z" />
    <glyph glyph-name="Oacute" unicode="&#xd3;" horiz-adv-x="767" 
d="M160 350q9 56 36 106t68 88t92.5 59.5t109.5 21.5q57 0 99.5 -23t69.5 -62t36.5 -88t1.5 -102q-9 -56 -36.5 -105.5t-68.5 -87.5t-92.5 -59.5t-109.5 -21.5q-57 0 -99.5 23t-69 61.5t-36 87.5t-1.5 102zM71 350q-10 -70 4.5 -134.5t52.5 -115t96 -80.5t134 -30
q77 0 145 28.5t122 78t89.5 115t47.5 138.5q10 71 -5 135.5t-53 115t-96 80t-134 29.5t-144.5 -28t-122.5 -78t-89.5 -115t-46.5 -139zM631 918l-69 42l-172 -158l42 -31z" />
    <glyph glyph-name="Ocircumflex" unicode="&#xd4;" horiz-adv-x="767" 
d="M160 350q9 56 36 106t68 88t92.5 59.5t109.5 21.5q57 0 99.5 -23t69.5 -62t36.5 -88t1.5 -102q-9 -56 -36.5 -105.5t-68.5 -87.5t-92.5 -59.5t-109.5 -21.5q-57 0 -99.5 23t-69 61.5t-36 87.5t-1.5 102zM71 350q-10 -70 4.5 -134.5t52.5 -115t96 -80.5t134 -30
q77 0 145 28.5t122 78t89.5 115t47.5 138.5q10 71 -5 135.5t-53 115t-96 80t-133 29.5q-77 0 -145 -28t-122.5 -78t-90 -115t-46.5 -139zM507 865l90 -94l54 38l-134 141l-178 -138l44 -41z" />
    <glyph glyph-name="Otilde" unicode="&#xd5;" horiz-adv-x="767" 
d="M160 350q9 56 36 106t68 88t92.5 59.5t109.5 21.5q57 0 99.5 -23t69.5 -62t36.5 -88t1.5 -102q-9 -56 -36.5 -105.5t-68.5 -87.5t-92.5 -59.5t-109.5 -21.5q-57 0 -99.5 23t-69 61.5t-36 87.5t-1.5 102zM71 350q-10 -70 4.5 -134.5t52.5 -115t96 -80.5t134 -30
q77 0 145 28.5t122 78t89.5 115t47.5 138.5q10 71 -5 135.5t-53 115t-96 80t-133 29.5q-77 0 -145 -28t-122.5 -78t-90 -115t-46.5 -139zM333 809l48 -38q6 14 19 31.5t39 18.5q21 1 37 -10.5t33 -23t40 -12.5q25 -1 46 10t38.5 27.5t28.5 33.5l-40 44q-14 -19 -30 -32.5
t-33 -14.5q-23 -1 -38.5 10.5t-32 23.5t-42.5 12q-18 0 -44.5 -11t-47 -29t-21.5 -40z" />
    <glyph glyph-name="Odieresis" unicode="&#xd6;" horiz-adv-x="767" 
d="M160 350q9 56 36 106t68 88t92.5 59.5t109.5 21.5q57 0 99.5 -23t69.5 -62t36.5 -88t1.5 -102q-9 -56 -36.5 -105.5t-68.5 -87.5t-92.5 -59.5t-109.5 -21.5q-57 0 -99.5 23t-69 61.5t-36 87.5t-1.5 102zM71 350q-10 -70 4.5 -134.5t52.5 -115t96 -80.5t134 -30
q77 0 145 28.5t122 78t89.5 115t47.5 138.5q10 71 -5 135.5t-53 115t-96 80t-134 29.5t-144.5 -28t-122.5 -78t-89.5 -115t-46.5 -139zM540 826q-2 -21 11.5 -37.5t34.5 -17.5t40.5 16t21.5 37q2 21 -11 38t-35 18q-20 1 -40 -16.5t-22 -37.5zM346 826q-2 -21 11.5 -37.5
t34.5 -17.5t40.5 16t21.5 37q2 21 -11 38t-35 18q-20 1 -40 -16.5t-22 -37.5z" />
    <glyph glyph-name="multiply" unicode="&#xd7;" horiz-adv-x="578" 
d="M96 22l203 181l141 -181l62 54l-147 177l207 176l-46 59l-204 -181l-140 181l-62 -53l147 -178l-208 -176z" />
    <glyph glyph-name="Oslash" unicode="&#xd8;" horiz-adv-x="767" 
d="M160 350q9 56 36 106t68 88t92.5 59.5t109.5 21.5q57 0 99.5 -23t69.5 -62t36.5 -88t1.5 -102q-9 -56 -36.5 -105.5t-68.5 -87.5t-92.5 -59.5t-109.5 -21.5q-57 0 -99.5 23t-69 61.5t-36 87.5t-1.5 102zM71 350q-10 -70 4.5 -134.5t52.5 -115t96 -80.5t134 -30
q77 0 145 28.5t122 78t89.5 115t47.5 138.5q10 71 -5 135.5t-53 115t-96 80t-133 29.5q-77 0 -145 -28t-122.5 -78t-90 -115t-46.5 -139zM767 750l-758 -758l53 -41l758 758z" />
    <glyph glyph-name="Ugrave" unicode="&#xd9;" horiz-adv-x="608" 
d="M165 700l-80 -470q-9 -64 10.5 -118.5t66 -87.5t116.5 -33q72 0 128.5 32.5t93.5 86.5t48 120l81 470h-84l-81 -470q-8 -44 -31.5 -80.5t-60.5 -57.5t-86 -21q-48 1 -76 23t-38 58t-4 78l81 470h-84zM307 921l152 -151l47 29l-120 161z" />
    <glyph glyph-name="Uacute" unicode="&#xda;" horiz-adv-x="608" 
d="M165 700l-80 -470q-9 -64 10.5 -118.5t66 -87.5t116.5 -33q72 0 128.5 32.5t93.5 86.5t48 120l81 470h-84l-81 -470q-8 -44 -31.5 -80.5t-60.5 -57.5t-86 -21q-48 1 -76 23t-38 58t-4 78l81 470h-84zM561 918l-69 42l-172 -158l42 -31z" />
    <glyph glyph-name="Ucircumflex" unicode="&#xdb;" horiz-adv-x="608" 
d="M165 700l-80 -470q-9 -64 10.5 -118.5t66 -87.5t116.5 -33q72 0 128.5 32.5t93.5 86.5t48 120l81 470h-84l-81 -470q-8 -44 -31.5 -80.5t-60.5 -57.5t-86 -21q-48 1 -76 23t-38 58t-4 78l81 470h-84zM427 865l90 -94l54 38l-134 141l-178 -138l44 -41z" />
    <glyph glyph-name="Udieresis" unicode="&#xdc;" horiz-adv-x="608" 
d="M165 700l-80 -470q-9 -64 10.5 -118.5t66 -87.5t116.5 -33q72 0 128.5 32.5t93.5 86.5t48 120l81 470h-84l-81 -470q-8 -44 -31.5 -80.5t-60.5 -57.5t-86 -21q-48 1 -76 23t-38 58t-4 78l81 470h-84zM461 826q-2 -21 11 -37.5t35 -17.5q20 -1 40 16t22 37q2 21 -11.5 38
t-34.5 18t-40.5 -16.5t-21.5 -37.5zM267 826q-2 -21 11 -37.5t34 -17.5t41 16t22 37q2 21 -11.5 38t-34.5 18t-40.5 -16.5t-21.5 -37.5z" />
    <glyph glyph-name="Yacute" unicode="&#xdd;" horiz-adv-x="544" 
d="M529 918l-68 42l-172 -158l41 -31zM538 700l-230 -322l-119 322h-91l158 -396l-53 -304h84l51 300l297 400h-97z" />
    <glyph glyph-name="Thorn" unicode="&#xde;" horiz-adv-x="534" 
d="M169 700l-118 -700h82l121 700h-85zM177 480h143q42 -1 72 -16.5t44 -44t7 -69.5t-32 -70t-61.5 -44t-79.5 -16h-137l-14 -80h143q66 2 122.5 27.5t94.5 72.5t48 110q10 62 -14.5 109t-72.5 73.5t-112 27.5h-137z" />
    <glyph glyph-name="germandbls" unicode="&#xdf;" horiz-adv-x="565" 
d="M342 -12q55 0 98.5 26t69.5 70t26 98q0 43 -14.5 71.5t-36.5 48t-44 34.5t-36.5 30t-14.5 36q0 25 16 43.5t40 36t48 39t40 53t16 78.5q0 46 -22 77.5t-60 48t-87 16.5q-68 0 -117.5 -25t-79 -67t-37.5 -94l-100 -610h81l99 590q7 45 26 74.5t48 44t67 14.5
q41 0 69.5 -17.5t28.5 -58.5q0 -33 -16.5 -57.5t-41 -45l-49 -41t-41 -44.5t-16.5 -55q0 -34 15 -57.5t37.5 -41t45 -35.5t37.5 -40.5t15 -56.5q0 -29 -13.5 -53.5t-37 -39t-53.5 -14.5q-29 0 -55 14.5t-49 37.5l-49 -60q18 -20 40.5 -35.5t49 -24t57.5 -8.5z" />
    <glyph glyph-name="agrave" unicode="&#xe0;" 
d="M463 460l-77 -460h73l80 460h-76zM45 230q-9 -65 11 -119.5t64.5 -87t109.5 -32.5q46 0 84.5 18.5t67.5 51.5t48 76.5t26 92.5q6 47 0.5 89.5t-23.5 76.5t-49.5 54t-77.5 20q-65 1 -120.5 -31t-93 -86.5t-47.5 -122.5zM125 230q8 47 34.5 85t65.5 59.5t83 20.5
q30 -1 52.5 -14.5t37.5 -36.5t21 -52t1 -62q-6 -34 -22.5 -64t-40.5 -52.5t-52.5 -35t-58.5 -12.5q-44 0 -73.5 22.5t-41.5 60t-6 81.5zM198 681l152 -151l47 29l-120 161z" />
    <glyph glyph-name="aacute" unicode="&#xe1;" 
d="M463 460l-77 -460l73 1l80 459h-76zM45 230q-9 -65 11 -119.5t64.5 -87t109.5 -32.5q46 0 84.5 18.5t67.5 51.5t48 76.5t26 92.5q6 47 0.5 89.5t-23.5 76.5t-49.5 54t-77.5 20q-65 1 -120.5 -31t-93 -86.5t-47.5 -122.5zM125 230q8 47 34.5 85t65.5 59.5t83 20.5
q30 -1 52.5 -14.5t37.5 -36.5t21 -52t1 -62q-6 -34 -22.5 -64t-40.5 -52.5t-52.5 -35t-58.5 -12.5q-44 0 -73.5 22.5t-41.5 60t-6 81.5zM471 678l-68 42l-172 -158l41 -31z" />
    <glyph glyph-name="acircumflex" unicode="&#xe2;" 
d="M463 460l-77 -460h73l80 460h-76zM45 230q-9 -65 11 -119.5t64.5 -87t109.5 -32.5q46 0 84.5 18.5t67.5 51.5t48 76.5t26 92.5q6 47 0.5 89.5t-23.5 76.5t-49.5 54t-77.5 20q-65 1 -120.5 -31t-93 -86.5t-47.5 -122.5zM125 230q8 47 34.5 85t65.5 59.5t83 20.5
q30 -1 52.5 -14.5t37.5 -36.5t21 -52t1 -62q-6 -34 -22.5 -64t-40.5 -52.5t-52.5 -35t-58.5 -12.5q-44 0 -73.5 22.5t-41.5 60t-6 81.5zM357 625l90 -94l54 38l-134 141l-178 -138l44 -41z" />
    <glyph glyph-name="atilde" unicode="&#xe3;" 
d="M463 460l-77 -460h73l80 460h-76zM45 230q-9 -65 11 -119.5t64.5 -87t109.5 -32.5q46 0 84.5 18.5t67.5 51.5t48 76.5t26 92.5q6 47 0.5 89.5t-23.5 76.5t-49.5 54t-77.5 20q-65 1 -120.5 -31t-93 -86.5t-47.5 -122.5zM125 230q8 47 34.5 85t65.5 59.5t83 20.5
q30 -1 52.5 -14.5t37.5 -36.5t21 -52t1 -62q-6 -34 -22.5 -64t-40.5 -52.5t-52.5 -35t-58.5 -12.5q-44 0 -73.5 22.5t-41.5 60t-6 81.5zM184 569l47 -38q7 14 19.5 31.5t39.5 18.5q21 1 36.5 -10.5t32.5 -23t40 -12.5q25 -1 46 10t38.5 27.5t28.5 33.5l-39 44
q-15 -19 -30.5 -32.5t-33.5 -14.5q-23 -1 -38.5 10.5t-31.5 23.5t-42 12q-23 0 -45.5 -11t-40 -29t-27.5 -40z" />
    <glyph glyph-name="adieresis" unicode="&#xe4;" 
d="M463 460l-77 -460h73l80 460h-76zM45 230q-9 -65 11 -119.5t64.5 -87t109.5 -32.5q46 0 84.5 18.5t67.5 51.5t48 76.5t26 92.5q6 47 0.5 89.5t-23.5 76.5t-49.5 54t-77.5 20q-65 1 -120.5 -31t-93 -86.5t-47.5 -122.5zM125 230q8 47 34.5 85t65.5 59.5t83 20.5
q30 -1 52.5 -14.5t37.5 -36.5t21 -52t1 -62q-6 -34 -22.5 -64t-40.5 -52.5t-52.5 -35t-58.5 -12.5q-44 0 -73.5 22.5t-41.5 60t-6 81.5zM391 586q-2 -21 11 -37.5t34 -17.5t41 16t22 37q2 21 -11.5 38t-34.5 18t-40.5 -16.5t-21.5 -37.5zM197 586q-2 -21 11 -37.5t34 -17.5
t40.5 16t21.5 37q2 21 -11 38t-34 18t-40.5 -16.5t-21.5 -37.5z" />
    <glyph glyph-name="aring" unicode="&#xe5;" 
d="M463 460l-77 -460h73l80 460h-76zM45 230q-9 -65 11 -119.5t64.5 -87t109.5 -32.5q46 0 84.5 18.5t67.5 51.5t48 76.5t26 92.5q6 47 0.5 89.5t-23.5 76.5t-49.5 54t-77.5 20q-65 1 -120.5 -31t-93 -86.5t-47.5 -122.5zM125 230q8 47 34.5 85t65.5 59.5t83 20.5
q30 -1 52.5 -14.5t37.5 -36.5t21 -52t1 -62q-6 -34 -22.5 -64t-40.5 -52.5t-52.5 -35t-58.5 -12.5q-44 0 -73.5 22.5t-41.5 60t-6 81.5zM229 630q-3 -27 7 -49.5t31 -36t47 -14.5q27 0 51.5 13.5t42 36t21.5 49.5t-6.5 50t-31 36.5t-47.5 13.5q-26 1 -51 -12.5t-42.5 -36
t-21.5 -50.5zM279 629q2 14 11.5 26t23.5 19.5t26 7.5q18 0 29.5 -16t9.5 -36q-1 -13 -11 -25.5t-23.5 -20t-26.5 -7.5q-18 0 -29.5 16.5t-9.5 35.5z" />
    <glyph glyph-name="ae" unicode="&#xe6;" horiz-adv-x="801" 
d="M183 -10q75 0 123.5 32.5t68.5 87.5h-15q21 -63 63.5 -91.5t109.5 -28.5q63 0 122.5 29.5t96.5 87.5l-65 41q-25 -42 -63.5 -62.5t-85.5 -20.5q-46 0 -73.5 22.5t-36.5 60t-2 81.5l-22 -19h372q5 11 8 25.5t3 33.5q0 62 -22 107t-61.5 69.5t-90.5 24.5q-48 0 -89 -17.5
t-71.5 -46.5t-48.5 -65l20 15q5 56 -34 85t-107 29q-48 0 -93 -14.5t-83 -42.5l39 -61q20 15 43 26t47.5 16.5t46.5 5.5q39 0 62 -22.5t17 -67.5l-13 -80h39q-51 32 -86 44t-76 12q-60 0 -106.5 -22.5t-73 -60t-26.5 -83.5q0 -54 40.5 -92t122.5 -38zM198 61
q-50 0 -73.5 15.5t-23.5 53.5q0 30 17 51t46.5 32.5t65.5 11.5q35 0 66 -8t58 -23l-8 27v-105l8 76q-20 -67 -58 -99t-98 -32zM426 239q13 49 36 85t56.5 56t77.5 20q41 0 64.5 -16.5t33.5 -46.5t10 -71q0 -12 -2 -16l24 28h-322z" />
    <glyph glyph-name="ccedilla" unicode="&#xe7;" horiz-adv-x="464" 
d="M120 230q8 45 34 82.5t65 60t85 22.5q50 0 87 -23t52 -61l16 100q-26 29 -65 44t-83 15q-68 0 -125.5 -32.5t-96 -86.5t-48.5 -121q-10 -63 11.5 -117.5t68 -88t113.5 -33.5q47 0 90 15.5t74 42.5l16 99q-27 -33 -72.5 -58t-99.5 -24q-45 1 -74.5 24t-41.5 60.5t-6 79.5z
M232 58l-111 -166q15 8 32.5 13t28.5 4q13 0 23 -4t15 -12t3 -19q-1 -11 -9.5 -20.5t-21 -15t-26.5 -5.5q-17 0 -27.5 7t-22.5 17l-39 -38q20 -19 38.5 -29t45.5 -10t52.5 11.5t43.5 32t21 48.5q4 33 -14.5 53t-45.5 22h-3h-4l81 111h-60z" />
    <glyph glyph-name="egrave" unicode="&#xe8;" horiz-adv-x="500" 
d="M92 211h384q2 6 2.5 11.5t1.5 11.5q8 64 -8.5 117.5t-57.5 86t-108 32.5q-60 0 -110 -25.5t-85.5 -68.5t-53.5 -97q-4 -12 -7 -24t-5 -25q-8 -61 9.5 -115.5t59.5 -88.5t106 -35q54 0 95 14.5t74 41t61 59.5l-59 42q-19 -22 -42.5 -41t-51 -30t-60.5 -11q-46 1 -73 23
t-36 59.5t-3 81.5l8 30q9 40 32.5 71.5t58 50.5t75.5 18q39 0 61.5 -16.5t32 -44t8.5 -61.5h-298zM209 691l153 -151l47 29l-121 161z" />
    <glyph glyph-name="eacute" unicode="&#xe9;" horiz-adv-x="500" 
d="M92 211h384q2 6 2.5 11.5t1.5 11.5q8 64 -8.5 117.5t-57.5 86t-108 32.5q-60 0 -110 -25.5t-85.5 -68.5t-53.5 -97q-4 -12 -7 -24t-5 -25q-8 -61 9.5 -115.5t59.5 -88.5t106 -35q54 0 95 14.5t74 41t61 59.5l-59 42q-19 -22 -42.5 -41t-51 -30t-60.5 -11q-46 1 -73 23
t-36 59.5t-3 81.5l8 30q9 40 32.5 71.5t58 50.5t75.5 18q39 0 61.5 -16.5t32 -44t8.5 -61.5h-298zM502 688l-69 42l-171 -158l41 -31z" />
    <glyph glyph-name="ecircumflex" unicode="&#xea;" horiz-adv-x="500" 
d="M92 211h384q2 6 2.5 11.5t1.5 11.5q8 64 -8.5 117.5t-57.5 86t-108 32.5q-60 0 -110 -25.5t-85.5 -68.5t-53.5 -97q-4 -12 -7 -24t-5 -25q-8 -61 9.5 -115.5t59.5 -88.5t106 -35q54 0 95 14.5t74 41t61 59.5l-59 42q-19 -22 -42.5 -41t-51 -30t-60.5 -11q-46 1 -73 23
t-36 59.5t-3 81.5l8 30q9 40 32.5 71.5t58 50.5t75.5 18q39 0 61.5 -16.5t32 -44t8.5 -61.5h-298zM338 625l90 -94l54 38l-134 141l-178 -138l44 -41z" />
    <glyph glyph-name="edieresis" unicode="&#xeb;" horiz-adv-x="500" 
d="M92 211h384q2 6 2.5 11.5t1.5 11.5q8 64 -8.5 117.5t-57.5 86t-108 32.5q-60 0 -110 -25.5t-85.5 -68.5t-53.5 -97q-4 -12 -7 -24t-5 -25q-8 -61 9.5 -115.5t59.5 -88.5t106 -35q54 0 95 14.5t74 41t61 59.5l-59 42q-19 -22 -42.5 -41t-51 -30t-60.5 -11q-46 1 -73 23
t-36 59.5t-3 81.5l8 30q9 40 32.5 71.5t58 50.5t75.5 18q39 0 61.5 -16.5t32 -44t8.5 -61.5h-298zM371 586q-2 -21 11.5 -37.5t34.5 -17.5t40.5 16t21.5 37q2 21 -11 38t-35 18q-20 1 -40 -16.5t-22 -37.5zM177 586q-2 -21 11 -37.5t35 -17.5q20 -1 40 16t22 37q2 21 -11 38
t-35 18q-20 1 -40 -16.5t-22 -37.5z" />
    <glyph glyph-name="igrave" unicode="&#xec;" horiz-adv-x="252" 
d="M137 460l-76 -460h77l80 460h-81zM63 701l152 -151l47 29l-120 161z" />
    <glyph glyph-name="iacute" unicode="&#xed;" horiz-adv-x="252" 
d="M137 460l-76 -460h77l80 460h-81zM375 698l-69 42l-172 -158l42 -31z" />
    <glyph glyph-name="icircumflex" unicode="&#xee;" horiz-adv-x="252" 
d="M137 460l-76 -460h77l80 460h-81zM210 635l91 -94l53 38l-134 141l-178 -138l44 -41z" />
    <glyph glyph-name="idieresis" unicode="&#xef;" horiz-adv-x="252" 
d="M137 460l-76 -460h77l80 460h-81zM247 616q-2 -21 11.5 -37.5t34.5 -17.5t40.5 16t21.5 37q2 21 -11 38t-35 18q-20 1 -40 -16.5t-22 -37.5zM53 616q-2 -21 11.5 -37.5t34.5 -17.5t40.5 16t21.5 37q2 21 -11 38t-35 18q-20 1 -40 -16.5t-22 -37.5z" />
    <glyph glyph-name="eth" unicode="&#xf0;" horiz-adv-x="576" 
d="M263 -10q62 0 110.5 24t82.5 64.5t52 91.5t18 105q0 40 -9 80.5t-28.5 82.5t-50.5 87.5t-75 95t-102 104.5l-48 -56q43 -37 75.5 -71.5t57.5 -68.5t43.5 -69t33.5 -74h41q-43 35 -82.5 53t-84.5 18t-89 -18.5t-79.5 -52.5t-57 -80t-21.5 -101q0 -65 26.5 -113.5t74.5 -75
t112 -26.5zM263 67q-58 0 -95 37.5t-37 100.5q0 39 15.5 73.5t41.5 60.5t58.5 41t66.5 15q38 0 67 -16t45.5 -47.5t16.5 -76.5q0 -35 -13 -68.5t-36.5 -60.5t-56.5 -43t-73 -16zM224 503l280 107l-18 47l-280 -107z" />
    <glyph glyph-name="ntilde" unicode="&#xf1;" horiz-adv-x="509" 
d="M203 460h-79l-80 -460h80zM380 280l-48 -280h78l50 290q6 51 -5 91.5t-41 64.5t-80 24q-51 0 -92 -26.5t-68.5 -69.5t-37.5 -93h36q8 31 26.5 57t46 42t62.5 15q33 -1 50 -16.5t22 -41t1 -57.5zM164 569l48 -38q6 14 19 31.5t39 18.5q21 1 37 -10.5t32.5 -23t39.5 -12.5
q25 -1 46.5 10t39 27.5t28.5 33.5l-40 44q-14 -19 -30 -32.5t-33 -14.5q-23 -1 -38.5 10.5t-32 23.5t-42.5 12q-24 1 -46 -10.5t-39.5 -30t-27.5 -39.5z" />
    <glyph glyph-name="ograve" unicode="&#xf2;" horiz-adv-x="530" 
d="M45 230q-9 -63 12.5 -117.5t68 -88t113.5 -33.5q68 0 125.5 32.5t96 86.5t48.5 120q10 64 -11.5 118.5t-68.5 88t-114 33.5t-125 -32.5t-96.5 -87t-48.5 -120.5zM125 230q8 45 34 82.5t65 60t84 22.5q46 0 75 -24t41 -61t5 -80q-7 -44 -33 -82t-65 -60t-85 -22
q-45 0 -74 23.5t-41 61t-6 79.5zM201 701l153 -151l47 29l-121 161z" />
    <glyph glyph-name="oacute" unicode="&#xf3;" horiz-adv-x="530" 
d="M45 230q-9 -63 12.5 -117.5t68 -88t113.5 -33.5q68 0 125.5 32.5t96 86.5t48.5 120q10 64 -11.5 118.5t-68.5 88t-114 33.5t-125 -32.5t-96.5 -87t-48.5 -120.5zM125 230q8 45 34 82.5t65 60t84 22.5q46 0 75 -24t41 -61t5 -80q-7 -44 -33 -82t-65 -60t-85 -22
q-45 0 -74 23.5t-41 61t-6 79.5zM513 698l-68 42l-172 -158l42 -31z" />
    <glyph glyph-name="ocircumflex" unicode="&#xf4;" horiz-adv-x="530" 
d="M45 230q-9 -63 12.5 -117.5t68 -88t113.5 -33.5q68 0 125.5 32.5t96 86.5t48.5 120q10 64 -11.5 118.5t-68.5 88t-114 33.5t-125 -32.5t-96.5 -87t-48.5 -120.5zM125 230q8 45 34 82.5t65 60t84 22.5q46 0 75 -24t41 -61t5 -80q-7 -44 -33 -82t-65 -60t-85 -22
q-45 0 -74 23.5t-41 61t-6 79.5zM351 645l90 -94l54 38l-134 141l-178 -138l44 -41z" />
    <glyph glyph-name="otilde" unicode="&#xf5;" horiz-adv-x="530" 
d="M45 230q-9 -63 12.5 -117.5t68 -88t113.5 -33.5q68 0 125.5 32.5t96 86.5t48.5 120q10 64 -11.5 118.5t-68.5 88t-114 33.5t-125 -32.5t-96.5 -87t-48.5 -120.5zM125 230q8 45 34 82.5t65 60t84 22.5q46 0 75 -24t41 -61t5 -80q-7 -44 -33 -82t-65 -60t-85 -22
q-45 0 -74 23.5t-41 61t-6 79.5zM174 569l47 -38q7 14 19.5 31.5t39.5 18.5q21 1 37 -10.5t32.5 -23t39.5 -12.5q25 -1 46.5 10t39 27.5t28.5 33.5l-40 44q-15 -19 -30.5 -32.5t-33.5 -14.5q-23 -1 -38.5 10.5t-31.5 23.5t-42 12q-18 0 -45 -11t-47.5 -29t-20.5 -40z" />
    <glyph glyph-name="odieresis" unicode="&#xf6;" horiz-adv-x="530" 
d="M45 230q-9 -63 12.5 -117.5t68 -88t113.5 -33.5q68 0 125.5 32.5t96 86.5t48.5 120q10 64 -11.5 118.5t-68.5 88t-114 33.5t-125 -32.5t-96.5 -87t-48.5 -120.5zM125 230q8 45 34 82.5t65 60t84 22.5q46 0 75 -24t41 -61t5 -80q-7 -44 -33 -82t-65 -60t-85 -22
q-45 0 -74 23.5t-41 61t-6 79.5zM386 616q-2 -21 11 -37.5t35 -17.5q20 -1 40 16t22 37q2 21 -11 38t-35 18q-20 1 -40 -16.5t-22 -37.5zM192 616q-2 -21 11 -37.5t35 -17.5q20 -1 40 16t22 37q2 21 -11 38t-35 18q-20 1 -40 -16.5t-22 -37.5z" />
    <glyph glyph-name="divide" unicode="&#xf7;" horiz-adv-x="605" 
d="M297 451q-1 -14 4.5 -26.5t16.5 -20t25 -8.5t27.5 6.5t23.5 20.5t11 26q2 14 -4 26.5t-17 20.5t-25 9t-27.5 -7t-23 -20.5t-11.5 -26.5zM232 71q-2 -21 11 -37.5t35 -17.5q14 -1 27.5 6.5t23.5 20.5t11 26q2 14 -4 26.5t-16.5 20.5t-25.5 9q-13 1 -27 -7t-23.5 -20.5
t-11.5 -26.5zM70 226l487 -1l13 80h-487z" />
    <glyph glyph-name="oslash" unicode="&#xf8;" horiz-adv-x="530" 
d="M45 230q-9 -63 12.5 -117.5t68 -88t113.5 -33.5q68 0 125.5 32.5t96 86.5t48.5 120q10 64 -11.5 118.5t-68.5 88t-114 33.5t-125 -32.5t-96.5 -87t-48.5 -120.5zM125 230q8 45 34 82.5t65 60t84 22.5q46 0 75 -24t41 -61t5 -80q-7 -44 -33 -82t-65 -60t-85 -22
q-45 0 -74 23.5t-41 61t-6 79.5zM484 499l-467 -521l43 -21l467 522z" />
    <glyph glyph-name="ugrave" unicode="&#xf9;" horiz-adv-x="509" 
d="M331 0h79l80 460h-80zM154 180l48 280h-77l-51 -290q-6 -50 5 -90.5t41 -64.5t80 -24q51 0 92.5 26.5t69 69.5t37.5 92h-37q-8 -30 -26.5 -56t-46 -42t-62.5 -15q-33 1 -50 16.5t-21.5 41t-1.5 56.5zM230 701l152 -151l48 29l-121 161z" />
    <glyph glyph-name="uacute" unicode="&#xfa;" horiz-adv-x="509" 
d="M331 0h79l80 460h-80zM154 180l48 280h-77l-51 -290q-6 -50 5 -90.5t41 -64.5t80 -24q51 0 92.5 26.5t69 69.5t37.5 92h-37q-8 -30 -26.5 -56t-46 -42t-62.5 -15q-33 1 -50 16.5t-21.5 41t-1.5 56.5zM464 698l-68 42l-171 -158l40 -31z" />
    <glyph glyph-name="ucircumflex" unicode="&#xfb;" horiz-adv-x="509" 
d="M331 0h79l80 460h-80zM154 180l48 280h-77l-51 -290q-6 -50 5 -90.5t41 -64.5t80 -24q51 0 92.5 26.5t69 69.5t37.5 92h-37q-8 -30 -26.5 -56t-46 -42t-62.5 -15q-33 1 -50 16.5t-21.5 41t-1.5 56.5zM340 645l90 -94l54 38l-134 141l-178 -138l44 -41z" />
    <glyph glyph-name="udieresis" unicode="&#xfc;" horiz-adv-x="509" 
d="M331 0h79l80 460h-80zM154 180l48 280h-77l-51 -290q-6 -50 5 -90.5t41 -64.5t80 -24q51 0 92.5 26.5t69 69.5t37.5 92h-37q-8 -30 -26.5 -56t-46 -42t-62.5 -15q-33 1 -50 16.5t-21.5 41t-1.5 56.5zM375 606q-2 -20 10 -37t34 -18q21 -1 41.5 16t22.5 37q2 21 -12 38
t-35 18t-40 -16.5t-21 -37.5zM181 606q-2 -20 10 -37t34 -18q21 -1 41 16t22 37q2 21 -11.5 38t-34.5 18t-40 -16.5t-21 -37.5z" />
    <glyph glyph-name="yacute" unicode="&#xfd;" horiz-adv-x="427" 
d="M481 460h-91l-198 -355l32 -5l-80 360h-92l104 -392l-174 -287h91zM433 698l-69 42l-171 -158l41 -31z" />
    <glyph glyph-name="thorn" unicode="&#xfe;" 
d="M83 -219l169 999h-78l-172 -1000zM532 230q9 65 -10.5 119.5t-64 87.5t-109.5 33q-46 0 -84.5 -19t-67.5 -52t-48 -76.5t-26 -92.5q-6 -46 -0.5 -89t23.5 -77t49.5 -54t77.5 -20q65 0 120.5 31.5t93 86.5t46.5 122zM453 230q-7 -47 -34 -84.5t-65.5 -59t-83.5 -20.5
q-30 1 -52.5 14t-37.5 36t-20.5 52t-1.5 62q6 35 22.5 65t40.5 52.5t52.5 35t58.5 12.5q44 0 73.5 -22.5t42 -60t5.5 -82.5z" />
    <glyph glyph-name="ydieresis" unicode="&#xff;" horiz-adv-x="427" 
d="M481 460h-91l-198 -355l32 -5l-80 360h-92l104 -392l-174 -287h91zM330 586q-2 -21 11 -37.5t34 -17.5t40.5 16t21.5 37q2 21 -11 38t-34 18t-40.5 -16.5t-21.5 -37.5zM136 586q-2 -21 11 -37.5t34 -17.5t40.5 16t21.5 37q2 21 -11 38t-34 18t-40.5 -16.5t-21.5 -37.5z
" />
    <glyph glyph-name="Amacron" unicode="&#x100;" horiz-adv-x="640" 
d="M152 211l360 -1l-16 80h-303zM388 542l67 -282l4 -20l58 -240h91l-189 737l-444 -737h96l144 246l11 18zM260 796l341 -1l12 75h-341z" />
    <glyph glyph-name="amacron" unicode="&#x101;" 
d="M463 460l-77 -460h73l80 460h-76zM45 230q-9 -65 11 -119.5t64.5 -87t109.5 -32.5q46 0 84.5 18.5t67.5 51.5t48 76.5t26 92.5q6 47 0.5 89.5t-23.5 76.5t-49.5 54t-77.5 20q-65 1 -120.5 -31t-93 -86.5t-47.5 -122.5zM125 230q8 47 34.5 85t65.5 59.5t83 20.5
q30 -1 52.5 -14.5t37.5 -36.5t21 -52t1 -62q-6 -34 -22.5 -64t-40.5 -52.5t-52.5 -35t-58.5 -12.5q-44 0 -73.5 22.5t-41.5 60t-6 81.5zM159 541l341 -1l13 75h-342z" />
    <glyph glyph-name="Abreve" unicode="&#x102;" horiz-adv-x="640" 
d="M152 211l360 -1l-16 80h-303zM388 542l67 -282l4 -20l58 -240h91l-189 737l-444 -737h96l144 246l11 18zM299 935q-3 -36 10.5 -68t44 -51.5t78.5 -19.5q49 0 84.5 19.5t58.5 51t32 67.5l-71 1q-6 -16 -18 -33.5t-31 -29t-50 -11.5q-29 0 -44.5 11.5t-20.5 29t-4 33.5
h-69z" />
    <glyph glyph-name="abreve" unicode="&#x103;" 
d="M463 460l-77 -460h73l80 460h-76zM45 230q-9 -65 11 -119.5t64.5 -87t109.5 -32.5q46 0 84.5 18.5t67.5 51.5t48 76.5t26 92.5q6 47 0.5 89.5t-23.5 76.5t-49.5 54t-77.5 20q-65 1 -120.5 -31t-93 -86.5t-47.5 -122.5zM125 230q8 47 34.5 85t65.5 59.5t83 20.5
q30 -1 52.5 -14.5t37.5 -36.5t21 -52t1 -62q-6 -34 -22.5 -64t-40.5 -52.5t-52.5 -35t-58.5 -12.5q-44 0 -73.5 22.5t-41.5 60t-6 81.5zM168 670q-2 -37 12 -69t44.5 -51.5t78.5 -19.5q49 0 84.5 19.5t58 51.5t30.5 68h-70q-6 -16 -17.5 -33t-30.5 -29t-50 -12
q-29 1 -44.5 12.5t-21 28.5t-5.5 33z" />
    <glyph glyph-name="Aogonek" unicode="&#x104;" horiz-adv-x="640" 
d="M152 211l360 -1l-16 80h-303zM388 542l67 -282l4 -20l58 -240h91l-189 737l-444 -737h96l144 246l11 18zM590 -130q-10 -7 -22.5 -13.5t-29.5 -5.5q-21 2 -30 14.5t-7 34.5q4 22 21 40.5t41 33.5t47 26l-39 25q-33 -16 -65.5 -37t-56 -47.5t-29.5 -59.5q-7 -46 22 -73.5
t83 -26.5q29 0 51.5 11.5t38.5 26.5z" />
    <glyph glyph-name="aogonek" unicode="&#x105;" 
d="M463 460l-77 -460l73 1l80 459h-76zM45 230q-9 -65 11 -119.5t64.5 -87t109.5 -32.5q46 0 84.5 18.5t67.5 51.5t48 76.5t26 92.5q6 47 0.5 89.5t-23.5 76.5t-49.5 54t-77.5 20q-65 1 -120.5 -31t-93 -86.5t-47.5 -122.5zM125 230q8 47 34.5 85t65.5 59.5t83 20.5
q30 -1 52.5 -14.5t37.5 -36.5t21 -52t1 -62q-6 -34 -22.5 -64t-40.5 -52.5t-52.5 -35t-58.5 -12.5q-44 0 -73.5 22.5t-41.5 60t-6 81.5zM440 -130q-10 -7 -22.5 -13.5t-29.5 -5.5q-21 2 -30 14.5t-7 34.5q4 22 21 40.5t40.5 33.5t46.5 26l-38 25q-33 -16 -66 -37
t-56.5 -47.5t-29.5 -59.5q-7 -46 22 -73.5t83 -26.5q29 0 52 11.5t39 26.5z" />
    <glyph glyph-name="Cacute" unicode="&#x106;" horiz-adv-x="665" 
d="M160 350q9 57 36.5 106.5t68.5 87.5t91 59.5t105 21.5q67 0 117 -27.5t82 -76.5l18 112q-42 40 -91.5 59t-116.5 18q-75 0 -142 -28.5t-121 -78t-89.5 -114.5t-46.5 -139q-10 -70 5 -135t52 -115.5t94.5 -80t130.5 -29.5q71 0 126 20t104 57l17 111q-46 -43 -106 -73
t-133 -29q-54 0 -95 23t-67.5 61.5t-36.5 87.5t-2 102zM635 918l-68 42l-172 -158l42 -31z" />
    <glyph glyph-name="cacute" unicode="&#x107;" horiz-adv-x="464" 
d="M120 230q8 45 34 82.5t65 60t85 22.5q50 0 87 -23t52 -61l16 100q-26 29 -65 44t-83 15q-68 0 -125.5 -32.5t-96 -86.5t-48.5 -121q-10 -63 11.5 -117.5t68 -88t113.5 -33.5q47 0 90 15.5t74 42.5l16 99q-27 -33 -72.5 -58t-99.5 -24q-45 1 -74.5 24t-41.5 60.5t-6 79.5z
M476 678l-69 42l-171 -158l41 -31z" />
    <glyph glyph-name="Ccircumflex" unicode="&#x108;" horiz-adv-x="665" 
d="M160 350q9 57 36.5 106.5t68.5 87.5t91 59.5t105 21.5q67 0 117 -27.5t82 -76.5l18 112q-42 40 -91.5 59t-116.5 18q-75 0 -142 -28.5t-121 -78t-89.5 -114.5t-46.5 -139q-10 -70 5 -135t52 -115.5t94.5 -80t130.5 -29.5q71 0 126 20t104 57l17 111q-46 -43 -106 -73
t-133 -29q-54 0 -95 23t-67.5 61.5t-36.5 87.5t-2 102zM502 865l90 -94l54 38l-134 141l-178 -138l44 -41z" />
    <glyph glyph-name="ccircumflex" unicode="&#x109;" horiz-adv-x="464" 
d="M120 230q8 45 34 82.5t65 60t85 22.5q50 0 87 -23t52 -61l16 100q-26 29 -65 44t-83 15q-68 0 -125.5 -32.5t-96 -86.5t-48.5 -121q-10 -63 11.5 -117.5t68 -88t113.5 -33.5q47 0 90 15.5t74 42.5l16 99q-27 -33 -72.5 -58t-99.5 -24q-45 1 -74.5 24t-41.5 60.5t-6 79.5z
M343 625l90 -94l54 38l-135 141l-178 -138l45 -41z" />
    <glyph glyph-name="Cdotaccent" unicode="&#x10a;" horiz-adv-x="665" 
d="M160 350q9 57 36.5 106.5t68.5 87.5t91 59.5t105 21.5q67 0 117 -27.5t82 -76.5l18 112q-42 40 -91.5 59t-116.5 18q-75 0 -142 -28.5t-121 -78t-89.5 -114.5t-46.5 -139q-10 -70 5 -135t52 -115.5t94.5 -80t130.5 -29.5q71 0 126 20t104 57l17 111q-46 -43 -106 -73
t-133 -29q-54 0 -95 23t-67.5 61.5t-36.5 87.5t-2 102zM439 826q-2 -21 11 -37.5t34 -17.5t40.5 16t21.5 37q2 21 -11 38t-34 18t-40.5 -16.5t-21.5 -37.5z" />
    <glyph glyph-name="cdotaccent" unicode="&#x10b;" horiz-adv-x="464" 
d="M120 230q8 45 34 82.5t65 60t85 22.5q50 0 87 -23t52 -61l16 100q-26 29 -65 44t-83 15q-68 0 -125.5 -32.5t-96 -86.5t-48.5 -121q-10 -63 11.5 -117.5t68 -88t113.5 -33.5q47 0 90 15.5t74 42.5l16 99q-27 -33 -72.5 -58t-99.5 -24q-45 1 -74.5 24t-41.5 60.5t-6 79.5z
M279 586q-2 -21 11 -37.5t35 -17.5q20 -1 40 16t22 37q2 21 -11 38t-35 18q-20 1 -40 -16.5t-22 -37.5z" />
    <glyph glyph-name="Ccaron" unicode="&#x10c;" horiz-adv-x="665" 
d="M160 350q9 57 36.5 106.5t68.5 87.5t91 59.5t105 21.5q67 0 117 -27.5t82 -76.5l18 112q-42 40 -91.5 59t-116.5 18q-75 0 -142 -28.5t-121 -78t-89.5 -114.5t-46.5 -139q-10 -70 5 -135t52 -115.5t94.5 -80t130.5 -29.5q71 0 126 20t104 57l17 111q-46 -43 -106 -73
t-133 -29q-54 0 -95 23t-67.5 61.5t-36.5 87.5t-2 102zM495 856l-90 94l-54 -39l134 -141l178 139l-44 41z" />
    <glyph glyph-name="ccaron" unicode="&#x10d;" horiz-adv-x="464" 
d="M120 230q8 45 34 82.5t65 60t85 22.5q50 0 87 -23t52 -61l16 100q-26 29 -65 44t-83 15q-68 0 -125.5 -32.5t-96 -86.5t-48.5 -121q-10 -63 11.5 -117.5t68 -88t113.5 -33.5q47 0 90 15.5t74 42.5l16 99q-27 -33 -72.5 -58t-99.5 -24q-45 1 -74.5 24t-41.5 60.5t-6 79.5z
M336 616l-91 94l-54 -39l135 -141l178 139l-45 41z" />
    <glyph glyph-name="Dcaron" unicode="&#x10e;" horiz-adv-x="660" 
d="M169 700l-118 -700h82l121 700h-85zM258 0q102 2 186.5 47.5t140 124t70.5 178.5q14 96 -16.5 175t-99 126.5t-168.5 48.5h-156l-15 -85h162q78 -1 128.5 -36.5t71.5 -95t9 -133.5q-13 -77 -55.5 -136t-106.5 -93t-143 -36h-156l-15 -85h163zM437 856l-91 94l-53 -39
l134 -141l178 139l-45 41z" />
    <glyph glyph-name="dcaron" unicode="&#x10f;" 
d="M512 780l-131 -780h77l135 780h-81zM45 230q-9 -65 11 -119.5t64.5 -87t109.5 -32.5q46 0 84.5 18.5t67.5 51.5t48 76.5t26 92.5q6 47 0.5 89.5t-23.5 76.5t-49.5 54t-77.5 20q-65 1 -120.5 -31t-93 -86.5t-47.5 -122.5zM125 230q8 47 34.5 85t65.5 59.5t83 20.5
q30 -1 52.5 -14.5t37.5 -36.5t21 -52t1 -62q-6 -34 -22.5 -64t-40.5 -52.5t-52.5 -35t-58.5 -12.5q-44 0 -73.5 22.5t-41.5 60t-6 81.5zM704 779l-129 -257l56 -21l149 247z" />
    <glyph glyph-name="Dcroat" unicode="&#x110;" horiz-adv-x="660" 
d="M31 311l293 -1l12 75h-292zM169 700l-118 -700h82l121 700h-85zM258 0q102 2 186.5 47.5t140 124t70.5 178.5q14 96 -16.5 175t-99 126.5t-168.5 48.5h-156l-15 -85h162q78 -1 128.5 -36.5t71.5 -95t9 -133.5q-13 -77 -55.5 -136t-106.5 -93t-143 -36h-156l-15 -85h163z
" />
    <glyph glyph-name="dcroat" unicode="&#x111;" 
d="M360 591l293 -1l13 75h-293zM512 780l-131 -780h77l135 780h-81zM45 230q-9 -65 11 -119.5t64.5 -87t109.5 -32.5q46 0 84.5 18.5t67.5 51.5t48 76.5t26 92.5q6 47 0.5 89.5t-23.5 76.5t-49.5 54t-77.5 20q-65 1 -120.5 -31t-93 -86.5t-47.5 -122.5zM125 230
q8 47 34.5 85t65.5 59.5t83 20.5q30 -1 52.5 -14.5t37.5 -36.5t21 -52t1 -62q-6 -34 -22.5 -64t-40.5 -52.5t-52.5 -35t-58.5 -12.5q-44 0 -73.5 22.5t-41.5 60t-6 81.5z" />
    <glyph glyph-name="Emacron" unicode="&#x112;" horiz-adv-x="534" 
d="M97 0h344l13 80h-344zM203 621l343 -1l14 80h-344zM155 341l324 -1l14 80h-325zM169 700l-118 -700h82l121 700h-85zM207 771l341 -1l12 75h-341z" />
    <glyph glyph-name="emacron" unicode="&#x113;" horiz-adv-x="500" 
d="M92 211h384q2 6 2.5 11.5t1.5 11.5q8 64 -8.5 117.5t-57.5 86t-108 32.5q-60 0 -110 -25.5t-85.5 -68.5t-53.5 -97q-4 -12 -7 -24t-5 -25q-8 -61 9.5 -115.5t59.5 -88.5t106 -35q54 0 95 14.5t74 41t61 59.5l-59 42q-19 -22 -42.5 -41t-51 -30t-60.5 -11q-46 1 -73 23
t-36 59.5t-3 81.5l8 30q9 40 32.5 71.5t58 50.5t75.5 18q39 0 61.5 -16.5t32 -44t8.5 -61.5h-298zM149 531l341 -1l13 75h-341z" />
    <glyph glyph-name="Ebreve" unicode="&#x114;" horiz-adv-x="534" 
d="M97 0h344l13 80h-344zM203 621l343 -1l14 80h-344zM155 341l324 -1l14 80h-325zM169 700l-118 -700h82l121 700h-85zM246 910q-3 -36 10.5 -68t44 -51.5t78.5 -19.5q49 0 84.5 19.5t58.5 51t32 67.5l-71 1q-6 -16 -18 -33.5t-31 -29t-50 -11.5q-29 0 -44.5 11.5t-20.5 29
t-4 33.5h-69z" />
    <glyph glyph-name="ebreve" unicode="&#x115;" horiz-adv-x="500" 
d="M92 211h384q2 6 2.5 11.5t1.5 11.5q8 64 -8.5 117.5t-57.5 86t-108 32.5q-60 0 -110 -25.5t-85.5 -68.5t-53.5 -97q-4 -12 -7 -24t-5 -25q-8 -61 9.5 -115.5t59.5 -88.5t106 -35q54 0 95 14.5t74 41t61 59.5l-59 42q-19 -22 -42.5 -41t-51 -30t-60.5 -11q-46 1 -73 23
t-36 59.5t-3 81.5l8 30q9 40 32.5 71.5t58 50.5t75.5 18q39 0 61.5 -16.5t32 -44t8.5 -61.5h-298zM189 670q-3 -36 10.5 -68t43.5 -51.5t78 -19.5q49 0 84.5 19.5t59 51t32.5 67.5l-71 1q-7 -16 -18.5 -33.5t-30.5 -29t-50 -11.5q-29 0 -44.5 11.5t-20.5 29t-4 33.5h-69z
" />
    <glyph glyph-name="Edotaccent" unicode="&#x116;" horiz-adv-x="534" 
d="M97 0h344l13 80h-344zM203 621l343 -1l14 80h-344zM155 341l324 -1l14 80h-325zM169 700l-118 -700h82l121 700h-85zM332 826q-2 -21 11 -37.5t34 -17.5t41 16t22 37q2 21 -11.5 38t-34.5 18t-40.5 -16.5t-21.5 -37.5z" />
    <glyph glyph-name="edotaccent" unicode="&#x117;" horiz-adv-x="500" 
d="M92 211h384q2 6 2.5 11.5t1.5 11.5q8 64 -8.5 117.5t-57.5 86t-108 32.5q-60 0 -110 -25.5t-85.5 -68.5t-53.5 -97q-4 -12 -7 -24t-5 -25q-8 -61 9.5 -115.5t59.5 -88.5t106 -35q54 0 95 14.5t74 41t61 59.5l-59 42q-19 -22 -42.5 -41t-51 -30t-60.5 -11q-46 1 -73 23
t-36 59.5t-3 81.5l8 30q9 40 32.5 71.5t58 50.5t75.5 18q39 0 61.5 -16.5t32 -44t8.5 -61.5h-298zM274 586q-2 -21 11 -37.5t35 -17.5q20 -1 40 16t22 37q2 21 -11 38t-35 18q-20 1 -40 -16.5t-22 -37.5z" />
    <glyph glyph-name="Eogonek" unicode="&#x118;" horiz-adv-x="534" 
d="M97 0h344l13 80h-344zM203 621l343 -1l14 80h-344zM155 341l324 -1l14 80h-325zM169 700l-118 -700h82l121 700h-85zM304 -130q-10 -7 -22.5 -13.5t-29.5 -5.5q-21 2 -30 14.5t-7 34.5q4 22 21 40.5t40.5 33.5t46.5 26l-38 25q-33 -16 -66 -37t-56.5 -47.5t-29.5 -59.5
q-7 -46 22 -73.5t83 -26.5q29 0 52 11.5t39 26.5z" />
    <glyph glyph-name="eogonek" unicode="&#x119;" horiz-adv-x="500" 
d="M92 211h384q2 6 2.5 11.5t1.5 11.5q8 64 -8.5 117.5t-57.5 86t-108 32.5q-60 0 -110 -25.5t-85.5 -68.5t-53.5 -97q-4 -12 -7 -24t-5 -25q-8 -61 9.5 -115.5t59.5 -88.5t106 -35q40 0 71.5 11.5t57.5 29.5t50.5 38t50.5 36l-59 42q-19 -22 -42.5 -41t-51 -30t-60.5 -11
q-46 1 -73 23t-36 59.5t-3 81.5l8 30q9 40 32.5 71.5t58 50.5t75.5 18q39 0 61.5 -16.5t32 -44t8.5 -61.5h-298zM400 -65q-10 -7 -22.5 -13.5t-29.5 -5.5q-21 2 -30 14t-7 30q4 22 19.5 39t45.5 41t74 66l-58 -5q-31 -21 -66.5 -46.5t-62.5 -55t-33 -62.5q-7 -46 24 -69
t76 -22q29 0 54 11.5t41 26.5z" />
    <glyph glyph-name="Ecaron" unicode="&#x11a;" horiz-adv-x="534" 
d="M97 0h344l13 80h-344zM203 621l343 -1l14 80h-344zM155 341l324 -1l14 80h-325zM169 700l-118 -700h82l121 700h-85zM388 856l-90 94l-54 -39l134 -141l178 139l-44 41z" />
    <glyph glyph-name="ecaron" unicode="&#x11b;" horiz-adv-x="500" 
d="M92 211h384q2 6 2.5 11.5t1.5 11.5q8 64 -8.5 117.5t-57.5 86t-108 32.5q-60 0 -110 -25.5t-85.5 -68.5t-53.5 -97q-4 -12 -7 -24t-5 -25q-8 -61 9.5 -115.5t59.5 -88.5t106 -35q54 0 95 14.5t74 41t61 59.5l-59 42q-19 -22 -42.5 -41t-51 -30t-60.5 -11q-46 1 -73 23
t-36 59.5t-3 81.5l8 30q9 40 32.5 71.5t58 50.5t75.5 18q39 0 61.5 -16.5t32 -44t8.5 -61.5h-298zM331 616l-91 94l-53 -39l134 -141l178 139l-45 41z" />
    <glyph glyph-name="Gcircumflex" unicode="&#x11c;" horiz-adv-x="752" 
d="M412 275h228q-18 -39 -43.5 -75t-60 -64t-77 -44t-93.5 -16q-56 0 -98.5 22.5t-69 61t-36.5 87.5t-2 103q9 57 36.5 107t69 87.5t92.5 59t108 21.5q72 0 124 -30.5t79 -87.5l66 53q-37 74 -104 112.5t-156 37.5q-77 0 -145.5 -28t-122.5 -77t-89 -114.5t-47 -140.5
q-10 -71 4.5 -136t52.5 -115.5t96 -79.5t134 -29q80 0 145 30t114 81.5t80.5 117t44.5 136.5h-316zM507 865l90 -94l54 38l-134 141l-178 -138l44 -41z" />
    <glyph glyph-name="gcircumflex" unicode="&#x11d;" 
d="M10 -30q-6 -58 15.5 -103t66.5 -70.5t109 -25.5t119 30.5t92.5 84.5t48.5 124l77 450h-79l-78 -450q-8 -49 -33.5 -86t-62 -57.5t-77.5 -20.5q-42 0 -69.5 17t-39.5 45t-10 62h-79zM45 230q-9 -65 11 -119.5t64.5 -87t109.5 -32.5q46 0 84.5 18.5t67.5 51.5t48 76.5
t26 92.5q6 47 0.5 89.5t-23.5 76.5t-49.5 54t-77.5 20q-65 1 -120.5 -31t-93 -86.5t-47.5 -122.5zM125 230q8 47 34.5 85t65.5 59.5t83 20.5q30 -1 52.5 -14.5t37.5 -36.5t21 -52t1 -62q-6 -34 -22.5 -64t-40.5 -52.5t-52.5 -35t-58.5 -12.5q-44 0 -73.5 22.5t-41.5 60
t-6 81.5zM338 625l90 -94l54 38l-134 141l-178 -138l44 -41z" />
    <glyph glyph-name="Gbreve" unicode="&#x11e;" horiz-adv-x="752" 
d="M412 275h228q-18 -39 -43.5 -75t-60 -64t-77 -44t-93.5 -16q-56 0 -98.5 22.5t-69 61t-36.5 87.5t-2 103q9 57 36.5 107t69 87.5t92.5 59t108 21.5q72 0 124 -30.5t79 -87.5l66 53q-37 74 -104 112.5t-156 37.5q-77 0 -145.5 -28t-122.5 -77t-89 -114.5t-47 -140.5
q-10 -71 4.5 -136t52.5 -115.5t96 -79.5t134 -29q80 0 145 30t114 81.5t80.5 117t44.5 136.5h-316zM358 910q-3 -36 10.5 -68t43.5 -51.5t78 -19.5q49 0 84.5 19.5t59 51t32.5 67.5l-71 1q-6 -16 -17.5 -33.5t-31 -29t-50.5 -11.5q-29 0 -44.5 11.5t-20.5 29t-4 33.5h-69z
" />
    <glyph glyph-name="gbreve" unicode="&#x11f;" 
d="M10 -30q-6 -58 15.5 -103t66.5 -70.5t109 -25.5t119 30.5t92.5 84.5t48.5 124l77 450h-79l-78 -450q-8 -49 -33.5 -86t-62 -57.5t-77.5 -20.5q-42 0 -69.5 17t-39.5 45t-10 62h-79zM45 230q-9 -65 11 -119.5t64.5 -87t109.5 -32.5q46 0 84.5 18.5t67.5 51.5t48 76.5
t26 92.5q6 47 0.5 89.5t-23.5 76.5t-49.5 54t-77.5 20q-65 1 -120.5 -31t-93 -86.5t-47.5 -122.5zM125 230q8 47 34.5 85t65.5 59.5t83 20.5q30 -1 52.5 -14.5t37.5 -36.5t21 -52t1 -62q-6 -34 -22.5 -64t-40.5 -52.5t-52.5 -35t-58.5 -12.5q-44 0 -73.5 22.5t-41.5 60
t-6 81.5zM189 670q-3 -36 10.5 -68t43.5 -51.5t78 -19.5q49 0 84.5 19.5t59 51t32.5 67.5l-71 1q-7 -16 -18.5 -33.5t-30.5 -29t-50 -11.5q-29 0 -44.5 11.5t-20.5 29t-4 33.5h-69z" />
    <glyph glyph-name="Gdotaccent" unicode="&#x120;" horiz-adv-x="752" 
d="M412 275h228q-18 -39 -43.5 -75t-60 -64t-77 -44t-93.5 -16q-56 0 -98.5 22.5t-69 61t-36.5 87.5t-2 103q9 57 36.5 107t69 87.5t92.5 59t108 21.5q72 0 124 -30.5t79 -87.5l66 53q-37 74 -104 112.5t-156 37.5q-77 0 -145.5 -28t-122.5 -77t-89 -114.5t-47 -140.5
q-10 -71 4.5 -136t52.5 -115.5t96 -79.5t134 -29q80 0 145 30t114 81.5t80.5 117t44.5 136.5h-316zM443 826q-2 -21 11.5 -37.5t34.5 -17.5t40.5 16t21.5 37q2 21 -11 38t-35 18q-20 1 -40 -16.5t-22 -37.5z" />
    <glyph glyph-name="gdotaccent" unicode="&#x121;" 
d="M10 -30q-6 -58 15.5 -103t66.5 -70.5t109 -25.5t119 30.5t92.5 84.5t48.5 124l77 450h-79l-78 -450q-8 -49 -33.5 -86t-62 -57.5t-77.5 -20.5q-42 0 -69.5 17t-39.5 45t-10 62h-79zM45 230q-9 -65 11 -119.5t64.5 -87t109.5 -32.5q46 0 84.5 18.5t67.5 51.5t48 76.5
t26 92.5q6 47 0.5 89.5t-23.5 76.5t-49.5 54t-77.5 20q-65 1 -120.5 -31t-93 -86.5t-47.5 -122.5zM125 230q8 47 34.5 85t65.5 59.5t83 20.5q30 -1 52.5 -14.5t37.5 -36.5t21 -52t1 -62q-6 -34 -22.5 -64t-40.5 -52.5t-52.5 -35t-58.5 -12.5q-44 0 -73.5 22.5t-41.5 60
t-6 81.5zM301 626q-2 -21 11 -37.5t34 -17.5t40.5 16t21.5 37q2 21 -11 38t-34 18t-40.5 -16.5t-21.5 -37.5z" />
    <glyph glyph-name="uni0122" unicode="&#x122;" horiz-adv-x="752" 
d="M412 275h228q-18 -39 -43.5 -75t-60 -64t-77 -44t-93.5 -16q-56 0 -98.5 22.5t-69 61t-36.5 87.5t-2 103q9 57 36.5 107t69 87.5t92.5 59t108 21.5q72 0 124 -30.5t79 -87.5l66 53q-37 74 -104 112.5t-156 37.5q-77 0 -145.5 -28t-122.5 -77t-89 -114.5t-47 -140.5
q-10 -71 4.5 -136t52.5 -115.5t96 -79.5t134 -29q80 0 145 30t114 81.5t80.5 117t44.5 136.5h-316zM346 -71l-128 -257l55 -21l150 247z" />
    <glyph glyph-name="uni0123" unicode="&#x123;" 
d="M9 -30q-5 -58 17 -103t67 -70.5t109 -25.5t119 30.5t92.5 84.5t48.5 124l77 450h-81l-77 -450q-8 -49 -34 -86t-63 -57.5t-78 -20.5q-41 1 -68.5 18t-39.5 45t-10 61h-79zM45 230q-9 -65 11.5 -119.5t65.5 -87t109 -32.5q46 0 84.5 18.5t67.5 51.5t48 76.5t25 92.5
q6 47 0.5 90t-24 76.5t-50 53.5t-78.5 20q-65 1 -120.5 -31t-92 -86.5t-46.5 -122.5zM126 230q8 47 34.5 85t65.5 59.5t84 20.5q29 -1 51.5 -14.5t37 -36.5t20 -52.5t0.5 -61.5q-6 -34 -22.5 -64t-40.5 -52.5t-52.5 -35t-58.5 -12.5q-44 0 -73 22.5t-41 60t-5 81.5zM344 546
l161 240l-51 31l-181 -226z" />
    <glyph glyph-name="Hcircumflex" unicode="&#x124;" horiz-adv-x="694" 
d="M155 341l467 -1l13 80h-467zM625 700l-118 -700h82l122 700h-86zM169 700l-118 -700h82l121 700h-85zM471 865l90 -94l54 38l-134 141l-178 -138l44 -41z" />
    <glyph glyph-name="hcircumflex" unicode="&#x125;" horiz-adv-x="509" 
d="M258 780h-79l-134 -780h79zM380 280l-48 -280h78l50 290q6 51 -5 91.5t-41 64.5t-80 24q-51 0 -92 -26.5t-68.5 -69.5t-37.5 -93h36q8 31 26.5 57t46 42t62.5 15q33 -1 50 -16.5t22 -41t1 -57.5zM254 935l90 -94l54 38l-134 141l-178 -138l44 -41z" />
    <glyph glyph-name="Hbar" unicode="&#x126;" horiz-adv-x="694" 
d="M155 341h468l13 79h-468zM624 700l-117 -700h83l121 700h-87zM168 700l-117 -700h82l122 700h-87zM71 541h686l12 74h-686z" />
    <glyph glyph-name="hbar" unicode="&#x127;" horiz-adv-x="509" 
d="M259 780h-81l-134 -780h80zM380 280l-47 -280h77l50 290q6 51 -5.5 91.5t-41.5 64.5t-80 24t-89 -27t-64 -69.5t-35 -91.5l28 -1q8 31 26.5 57t46.5 41.5t63 14.5q33 0 49.5 -16t21 -41.5t0.5 -56.5zM85 626h305l12 74h-305z" />
    <glyph glyph-name="Itilde" unicode="&#x128;" horiz-adv-x="238" 
d="M169 700l-118 -700h82l121 700h-85zM69 809l48 -38q6 14 19 31.5t39 18.5q21 1 37 -10.5t33 -23t40 -12.5q25 -1 46 10t38.5 27.5t28.5 33.5l-40 44q-14 -19 -30 -32.5t-33 -14.5q-23 -1 -38.5 10.5t-32 23.5t-42.5 12q-24 1 -46 -10.5t-39.5 -30t-27.5 -39.5z" />
    <glyph glyph-name="itilde" unicode="&#x129;" horiz-adv-x="252" 
d="M137 460l-76 -460h77l80 460h-81zM35 569l48 -38q6 14 19 31.5t39 18.5q21 1 37 -10.5t32.5 -23t39.5 -12.5q25 -1 46.5 10t39 27.5t28.5 33.5l-40 44q-14 -19 -30 -32.5t-33 -14.5q-23 -1 -38.5 10.5t-32 23.5t-42.5 12q-24 1 -46 -10.5t-39.5 -30t-27.5 -39.5z" />
    <glyph glyph-name="Imacron" unicode="&#x12a;" horiz-adv-x="238" 
d="M169 700l-118 -700h82l121 700h-85zM54 771l341 -1l13 75h-341z" />
    <glyph glyph-name="imacron" unicode="&#x12b;" horiz-adv-x="252" 
d="M137 460l-76 -460h77l80 460h-81zM20 531l341 -1l13 75h-341z" />
    <glyph glyph-name="Ibreve" unicode="&#x12c;" horiz-adv-x="238" 
d="M169 700l-118 -700h82l121 700h-85zM94 910q-3 -36 10.5 -68t44 -51.5t78.5 -19.5q49 0 84.5 19.5t58.5 51t32 67.5l-71 1q-6 -16 -18 -33.5t-31 -29t-50 -11.5q-29 0 -44 11.5t-20.5 29t-4.5 33.5h-69z" />
    <glyph glyph-name="ibreve" unicode="&#x12d;" horiz-adv-x="252" 
d="M137 460l-76 -460h77l80 460h-81zM59 670q-2 -36 11 -68t43.5 -51.5t78.5 -19.5q49 0 84.5 19.5t58.5 51t32 67.5l-70 1q-7 -16 -18.5 -33.5t-31 -29t-49.5 -11.5q-29 0 -44.5 11.5t-20.5 29t-5 33.5h-69z" />
    <glyph glyph-name="Iogonek" unicode="&#x12e;" horiz-adv-x="238" 
d="M169 700l-118 -700h82l121 700h-85zM115 -130q-11 -7 -23.5 -13.5t-29.5 -5.5q-20 2 -29 14.5t-7 34.5q4 22 21 40.5t40.5 33.5t46.5 26l-38 25q-33 -16 -66 -37t-56.5 -47.5t-29.5 -59.5q-4 -30 7.5 -53t36.5 -35t61 -12q29 0 52 11.5t39 26.5z" />
    <glyph glyph-name="iogonek" unicode="&#x12f;" horiz-adv-x="252" 
d="M156 651q-2 -21 11.5 -37.5t34.5 -17.5t40.5 16t21.5 37q2 21 -11 38t-35 18q-20 1 -40 -16.5t-22 -37.5zM137 460l-76 -460h77l80 460h-81zM120 -130q-11 -7 -23.5 -13.5t-29.5 -5.5q-20 2 -29 14.5t-7 34.5q4 22 20.5 40.5t40.5 33.5t47 26l-38 25q-33 -16 -66 -37
t-56.5 -47.5t-29.5 -59.5q-7 -46 22 -73.5t83 -26.5q29 0 52 11.5t39 26.5z" />
    <glyph glyph-name="Idotaccent" unicode="&#x130;" horiz-adv-x="238" 
d="M169 700l-118 -700h82l121 700h-85zM178 826q-2 -21 11.5 -37.5t34.5 -17.5t40.5 16t21.5 37q2 21 -11 38t-34 18t-41 -16.5t-22 -37.5z" />
    <glyph glyph-name="dotlessi" unicode="&#x131;" horiz-adv-x="252" 
d="M137 460l-76 -460h77l80 460h-81z" />
    <glyph glyph-name="IJ" unicode="&#x132;" horiz-adv-x="476" 
d="M131 -104l-53 -65q17 -19 45.5 -34.5t64.5 -15.5q48 0 84 19.5t59 55.5t31 84l130 760h-79l-129 -750q-7 -40 -30.5 -64t-52.5 -26q-25 -1 -42 9.5t-28 26.5zM169 700l-118 -700h82l121 700h-85z" />
    <glyph glyph-name="ij" unicode="&#x133;" horiz-adv-x="495" 
d="M399 651q-2 -21 11 -37.5t35 -17.5q20 -1 40 16t22 37q2 21 -11 38t-35 18q-20 1 -40 -16.5t-22 -37.5zM187 -114l-52 -64q14 -16 33.5 -28.5t47.5 -12.5q44 -1 76.5 19.5t52.5 57t27 82.5l89 520h-80l-88 -510q-2 -24 -10.5 -45t-21.5 -33.5t-31 -11.5q-7 0 -14.5 4
t-15 10t-13.5 12zM156 651q-2 -21 11.5 -37.5t34.5 -17.5t40.5 16t21.5 37q2 21 -11 38t-35 18q-20 1 -40 -16.5t-22 -37.5zM137 460l-76 -460h77l80 460h-81z" />
    <glyph glyph-name="Jcircumflex" unicode="&#x134;" horiz-adv-x="233" 
d="M-112 -104l-52 -65q16 -19 44.5 -34.5t64.5 -15.5q48 0 84 19.5t59.5 55.5t31.5 84l129 760h-79l-129 -750q-6 -40 -30 -64t-53 -26q-24 -1 -41.5 9.5t-28.5 26.5zM240 865l90 -94l54 38l-134 141l-178 -138l44 -41z" />
    <glyph glyph-name="jcircumflex" unicode="&#x135;" horiz-adv-x="243" 
d="M-65 -114l-52 -64q14 -16 33.5 -28.5t47.5 -12.5q44 -1 76.5 19.5t52.5 57t27 82.5l88 520h-79l-88 -510q-3 -24 -11 -44.5t-21 -33t-31 -12.5q-13 0 -23.5 6.5t-19.5 19.5zM199 625l90 -94l54 38l-134 141l-178 -138l44 -41z" />
    <glyph glyph-name="uni0136" unicode="&#x136;" horiz-adv-x="548" 
d="M169 700l-118 -700h82l121 700h-85zM517 700l-346 -327l245 -373h99l-244 370l353 330h-107zM275 -61l-128 -257l55 -21l150 247z" />
    <glyph glyph-name="uni0137" unicode="&#x137;" horiz-adv-x="427" 
d="M173 780l-132 -780h78l135 780h-81zM360 460l-224 -187l168 -273h95l-167 268l230 192h-102zM212 -61l-128 -257l55 -21l150 247z" />
    <glyph glyph-name="kgreenlandic" unicode="&#x138;" horiz-adv-x="427" 
d="M118 460l-77 -460h78l80 460h-81zM360 460l-224 -187l168 -273h95l-167 268l230 192h-102z" />
    <glyph glyph-name="Lacute" unicode="&#x139;" horiz-adv-x="437" 
d="M170 700l-120 -700h351l14 80h-267l106 620h-84zM509 918l-68 42l-172 -158l41 -31z" />
    <glyph glyph-name="lacute" unicode="&#x13a;" horiz-adv-x="223" 
d="M178 780l-132 -780h77l135 780h-80zM381 988l-69 42l-172 -158l42 -31z" />
    <glyph glyph-name="uni013B" unicode="&#x13b;" horiz-adv-x="437" 
d="M170 700l-120 -700h351l14 80h-267l106 620h-84zM217 -61l-129 -257l56 -21l149 247z" />
    <glyph glyph-name="uni013C" unicode="&#x13c;" horiz-adv-x="223" 
d="M178 780l-132 -780h77l135 780h-80zM76 -61l-128 -257l55 -21l150 247z" />
    <glyph glyph-name="Lcaron" unicode="&#x13d;" horiz-adv-x="437" 
d="M170 700l-120 -700h351l14 80h-267l106 620h-84zM411 709l-129 -257l55 -21l150 247z" />
    <glyph glyph-name="lcaron" unicode="&#x13e;" horiz-adv-x="223" 
d="M178 780l-132 -780h77l135 780h-80zM389 779l-129 -257l55 -21l150 247z" />
    <glyph glyph-name="Ldot" unicode="&#x13f;" horiz-adv-x="437" 
d="M170 700l-120 -700h351l14 80h-267l106 620h-84zM291 416q-2 -21 11 -37.5t35 -17.5q14 -1 27.5 6.5t23.5 20.5t11 26q2 14 -4 26.5t-17 20.5t-25 9t-27.5 -7t-23 -20.5t-11.5 -26.5z" />
    <glyph glyph-name="ldot" unicode="&#x140;" horiz-adv-x="359" 
d="M178 780l-132 -780h77l135 780h-80zM252 416q-1 -14 4.5 -26.5t16.5 -20t25 -8.5t27.5 6.5t23.5 20.5t11 26q2 14 -4 26.5t-16.5 20.5t-25.5 9q-13 1 -27 -7t-23.5 -20.5t-11.5 -26.5z" />
    <glyph glyph-name="Lslash" unicode="&#x141;" horiz-adv-x="437" 
d="M37 341l291 168l-12 56l-290 -169zM170 700l-120 -700h351l14 80h-267l106 620h-84z" />
    <glyph glyph-name="lslash" unicode="&#x142;" horiz-adv-x="223" 
d="M37 341l268 148l-11 56l-268 -149zM178 780l-132 -780h77l135 780h-80z" />
    <glyph glyph-name="Nacute" unicode="&#x143;" horiz-adv-x="752" 
d="M684 700l-90 -521l-419 555l-126 -734h85l90 522l418 -556l126 734h-84zM672 903l-69 42l-172 -158l42 -31z" />
    <glyph glyph-name="nacute" unicode="&#x144;" horiz-adv-x="509" 
d="M203 460h-79l-80 -460h80zM380 280l-48 -280h78l50 290q6 51 -5 91.5t-41 64.5t-80 24t-89.5 -26.5t-64.5 -69.5t-35 -93h27q8 31 26.5 57t46 42t62.5 15q33 -1 50 -16.5t22 -41t1 -57.5zM480 678l-68 42l-171 -158l40 -31z" />
    <glyph glyph-name="uni0145" unicode="&#x145;" horiz-adv-x="752" 
d="M352 -36l-128 -257l55 -21l150 247zM684 700l-90 -521l-419 555l-126 -734h85l90 522l418 -556l126 734h-84z" />
    <glyph glyph-name="uni0146" unicode="&#x146;" horiz-adv-x="509" 
d="M203 460h-79l-80 -460h80zM380 280l-48 -280h78l50 290q6 51 -5 91.5t-41 64.5t-80 24q-51 0 -92 -26.5t-68.5 -69.5t-37.5 -93h36q8 31 26.5 57t46 42t62.5 15q33 -1 50 -16.5t22 -41t1 -57.5zM219 -61l-129 -257l56 -21l149 247z" />
    <glyph glyph-name="Ncaron" unicode="&#x147;" horiz-adv-x="752" 
d="M509 881l-90 94l-54 -39l134 -141l178 139l-44 41zM684 700l-90 -521l-419 555l-126 -734h85l90 522l418 -556l126 734h-84z" />
    <glyph glyph-name="ncaron" unicode="&#x148;" horiz-adv-x="509" 
d="M203 460h-79l-80 -460h80zM380 280l-48 -280h78l50 290q6 51 -5 91.5t-41 64.5t-80 24q-51 0 -92 -26.5t-68.5 -69.5t-37.5 -93h36q8 31 26.5 57t46 42t62.5 15q33 -1 50 -16.5t22 -41t1 -57.5zM330 616l-91 94l-53 -39l134 -141l178 139l-44 41z" />
    <glyph glyph-name="napostrophe" unicode="&#x149;" horiz-adv-x="616" 
d="M310 460h-79l-80 -460h80zM487 280l-48 -280h77l51 290q6 51 -5 91.5t-41 64.5t-80 24q-51 0 -92.5 -26.5t-69 -69.5t-37.5 -93h37q8 31 26.5 57t46 42t62.5 15q33 -1 50 -16.5t22 -41t1 -57.5zM217 700l-96 -229h55l138 229h-97z" />
    <glyph glyph-name="Eng" unicode="&#x14a;" horiz-adv-x="775" 
d="M480 -220q42 0 75 19t55 55t30 86l127 760h-85l-87 -521l-437 556l-123 -735h85l87 521l371 -472l-16 -99q-5 -32 -13.5 -52t-20.5 -29t-29 -9q-16 0 -27.5 7t-17.5 19l-55 -66q12 -20 31.5 -30t49.5 -10z" />
    <glyph glyph-name="eng" unicode="&#x14b;" horiz-adv-x="525" 
d="M235 -220q66 0 106.5 40.5t53.5 119.5l59 350q14 86 -19.5 133t-108.5 47q-43 0 -82.5 -21.5t-68.5 -60.5l12 72h-80l-77 -460h80l47 280q6 34 25.5 60t48 40.5t62.5 14.5q49 0 69 -29t10 -86l-55 -330q-7 -46 -23 -68t-40 -22q-33 0 -45 26l-55 -66q11 -19 32.5 -29.5
t48.5 -10.5z" />
    <glyph glyph-name="Omacron" unicode="&#x14c;" horiz-adv-x="767" 
d="M160 350q9 56 36 106t68 88t92.5 59.5t109.5 21.5q57 0 99.5 -23t69.5 -62t36.5 -88t1.5 -102q-9 -56 -36.5 -105.5t-68.5 -87.5t-92.5 -59.5t-109.5 -21.5q-57 0 -99.5 23t-69 61.5t-36 87.5t-1.5 102zM71 350q-10 -70 4.5 -134.5t52.5 -115t96 -80.5t134 -30
q77 0 145 28.5t122 78t89.5 115t47.5 138.5q10 71 -5 135.5t-53 115t-96 80t-133 29.5q-77 0 -145 -28t-122.5 -78t-90 -115t-46.5 -139zM318 771l341 -1l13 75h-341z" />
    <glyph glyph-name="omacron" unicode="&#x14d;" horiz-adv-x="530" 
d="M45 230q-9 -63 12.5 -117.5t68 -88t113.5 -33.5q68 0 125.5 32.5t96 86.5t48.5 120q10 64 -11.5 118.5t-68.5 88t-114 33.5t-125 -32.5t-96.5 -87t-48.5 -120.5zM125 230q8 45 34 82.5t65 60t84 22.5q46 0 75 -24t41 -61t5 -80q-7 -44 -33 -82t-65 -60t-85 -22
q-45 0 -74 23.5t-41 61t-6 79.5zM159 531l341 -1l13 75h-342z" />
    <glyph glyph-name="Obreve" unicode="&#x14e;" horiz-adv-x="767" 
d="M160 350q9 56 36 106t68 88t92.5 59.5t109.5 21.5q57 0 99.5 -23t69.5 -62t36.5 -88t1.5 -102q-9 -56 -36.5 -105.5t-68.5 -87.5t-92.5 -59.5t-109.5 -21.5q-57 0 -99.5 23t-69 61.5t-36 87.5t-1.5 102zM71 350q-10 -70 4.5 -134.5t52.5 -115t96 -80.5t134 -30
q77 0 145 28.5t122 78t89.5 115t47.5 138.5q10 71 -5 135.5t-53 115t-96 80t-133 29.5q-77 0 -145 -28t-122.5 -78t-90 -115t-46.5 -139zM358 910q-3 -36 10.5 -68t43.5 -51.5t78 -19.5q49 0 84.5 19.5t59 51t32.5 67.5l-71 1q-6 -16 -17.5 -33.5t-31 -29t-50.5 -11.5
q-29 0 -44.5 11.5t-20.5 29t-4 33.5h-69z" />
    <glyph glyph-name="obreve" unicode="&#x14f;" horiz-adv-x="530" 
d="M45 230q-9 -63 12.5 -117.5t68 -88t113.5 -33.5q68 0 125.5 32.5t96 86.5t48.5 120q10 64 -11.5 118.5t-68.5 88t-114 33.5t-125 -32.5t-96.5 -87t-48.5 -120.5zM125 230q8 45 34 82.5t65 60t84 22.5q46 0 75 -24t41 -61t5 -80q-7 -44 -33 -82t-65 -60t-85 -22
q-45 0 -74 23.5t-41 61t-6 79.5zM198 670q-2 -36 11 -68t43.5 -51.5t78.5 -19.5q49 0 84.5 19.5t58.5 51t32 67.5l-70 1q-7 -16 -18.5 -33.5t-31 -29t-49.5 -11.5q-29 0 -44.5 11.5t-20.5 29t-5 33.5h-69z" />
    <glyph glyph-name="Ohungarumlaut" unicode="&#x150;" horiz-adv-x="767" 
d="M402 771l159 191l-85 22l-129 -194zM566 771l161 191l-87 22l-128 -194zM160 350q9 56 36 106t68 88t92.5 59.5t109.5 21.5q57 0 99.5 -23t69.5 -62t36.5 -88t1.5 -102q-9 -56 -36.5 -105.5t-68.5 -87.5t-92.5 -59.5t-109.5 -21.5q-57 0 -99.5 23t-69 61.5t-36 87.5
t-1.5 102zM71 350q-10 -70 4.5 -134.5t52.5 -115t96 -80.5t134 -30q77 0 145 28.5t122 78t89.5 115t47.5 138.5q10 71 -5 135.5t-53 115t-96 80t-134 29.5t-144.5 -28t-122.5 -78t-89.5 -115t-46.5 -139z" />
    <glyph glyph-name="ohungarumlaut" unicode="&#x151;" horiz-adv-x="530" 
d="M246 530l159 191l-85 22l-129 -194zM410 530l161 191l-87 22l-128 -194zM52 230q-8 -64 14 -118.5t69.5 -87.5t113.5 -33q68 0 125 32.5t94.5 86.5t46.5 120q9 64 -13.5 118.5t-69.5 88t-114 33.5t-124.5 -32.5t-95 -86.5t-46.5 -121zM131 230q7 45 32.5 82.5t64 60
t83.5 22.5t75 -24t43 -61t7 -80q-7 -44 -32.5 -82t-64 -60t-84.5 -22q-45 0 -74.5 23.5t-42.5 61t-7 79.5z" />
    <glyph glyph-name="OE" unicode="&#x152;" horiz-adv-x="956" 
d="M577 341l324 -1l14 80h-325zM586 670l-108 -639l82 -1l111 640h-85zM875 80h-336h-23h-154q-58 2 -100.5 23.5t-69.5 58.5t-36.5 85t-0.5 103q10 58 36.5 107t66.5 85t91.5 56.5t111.5 21.5h156h16h334l15 80h-514q-76 -1 -143.5 -27.5t-120 -73.5t-87 -110.5
t-46.5 -138.5q-11 -72 4 -135t52.5 -110.5t95 -75t132.5 -29.5h507z" />
    <glyph glyph-name="oe" unicode="&#x153;" horiz-adv-x="873" 
d="M773 250l-4 -19l80 -20q2 6 2.5 11.5t1.5 11.5q8 62 -9 115.5t-56 87t-99 33.5q-59 1 -109 -24.5t-86 -69t-53 -97.5q-4 -12 -7 -24t-5 -25q-8 -61 9.5 -115.5t59 -88.5t105.5 -35q48 0 87.5 15t73 41.5t60.5 58.5l-59 42q-29 -34 -67 -58.5t-88 -23.5q-46 1 -72.5 23
t-35.5 59.5t-3 81.5l7 30q9 40 32.5 71.5t58.5 50.5t76 18q44 -1 67.5 -22.5t30.5 -55.5t2 -72zM476 211l372 -1l-9 68h-353zM45 230q-9 -65 11 -119.5t64.5 -87t109.5 -32.5t114.5 32t81 86.5t40.5 120.5q8 64 -5.5 118.5t-51.5 88t-103 33.5t-120.5 -31.5t-93 -86
t-47.5 -122.5zM125 230q8 47 34.5 85t65.5 59.5t83 20.5q40 -1 64.5 -24.5t34 -60.5t3.5 -80q-7 -45 -31 -82.5t-58.5 -59.5t-74.5 -22q-44 0 -73.5 22.5t-41.5 60t-6 81.5z" />
    <glyph glyph-name="Racute" unicode="&#x154;" horiz-adv-x="543" 
d="M231 345l176 -345h99l-184 345h-91zM169 700l-118 -700h82l121 700h-85zM202 625h143q42 -1 71.5 -18t43.5 -46.5t7 -70.5t-32 -71t-61.5 -46t-80.5 -18h-137l-13 -75h143q66 2 122.5 27.5t94.5 72.5t48 110q10 62 -14.5 109t-72.5 73.5t-112 27.5h-137zM524 918l-69 42
l-172 -158l42 -31z" />
    <glyph glyph-name="racute" unicode="&#x155;" horiz-adv-x="333" 
d="M203 460h-79l-80 -460h80zM324 373l53 64q-18 17 -37.5 25t-43.5 8q-40 0 -73.5 -28t-56 -71t-31.5 -90h37q6 29 16.5 55t30 43t49.5 16q17 0 30 -6t26 -16zM416 678l-68 42l-171 -158l40 -31z" />
    <glyph glyph-name="uni0156" unicode="&#x156;" horiz-adv-x="543" 
d="M231 345l176 -345h99l-184 345h-91zM169 700l-118 -700h82l121 700h-85zM202 625h143q42 -1 71.5 -18t43.5 -46.5t7 -70.5t-32 -71t-61.5 -46t-80.5 -18h-137l-13 -75h143q66 2 122.5 27.5t94.5 72.5t48 110q10 62 -14.5 109t-72.5 73.5t-112 27.5h-137zM270 -61
l-128 -257l55 -21l150 247z" />
    <glyph glyph-name="uni0157" unicode="&#x157;" horiz-adv-x="333" 
d="M203 460h-79l-80 -460h80zM324 373l53 64q-18 17 -37.5 25t-43.5 8q-40 0 -73.5 -28t-56 -71t-31.5 -90h37q6 29 16.5 55t30 43t49.5 16q17 0 30 -6t26 -16zM76 -61l-128 -257l55 -21l150 247z" />
    <glyph glyph-name="Rcaron" unicode="&#x158;" horiz-adv-x="543" 
d="M231 345l176 -345h99l-184 345h-91zM169 700l-118 -700h82l121 700h-85zM202 625h143q42 -1 71.5 -18t43.5 -46.5t7 -70.5t-32 -71t-61.5 -46t-80.5 -18h-137l-13 -75h143q66 2 122.5 27.5t94.5 72.5t48 110q10 62 -14.5 109t-72.5 73.5t-112 27.5h-137zM364 856l-90 94
l-54 -39l134 -141l178 139l-44 41z" />
    <glyph glyph-name="rcaron" unicode="&#x159;" horiz-adv-x="333" 
d="M203 460h-79l-80 -460h80zM324 373l53 64q-18 17 -37.5 25t-43.5 8q-40 0 -73.5 -28t-56 -71t-31.5 -90h37q6 29 16.5 55t30 43t49.5 16q17 0 30 -6t26 -16zM275 616l-90 94l-54 -39l134 -141l178 139l-44 41z" />
    <glyph glyph-name="Sacute" unicode="&#x15a;" horiz-adv-x="532" 
d="M119 226l-76 -42q14 -54 42 -97.5t71 -69.5t100 -26q65 0 115.5 25t83 70.5t40.5 103.5q7 56 -12.5 95.5t-54 66.5t-73.5 44q-26 11 -51.5 23.5t-45.5 28t-30 35.5t-5 46q5 30 24 52.5t47 35t60 12.5q36 0 59 -17t37.5 -43t24.5 -55l74 45q-11 39 -35.5 73.5t-62.5 56
t-90 21.5q-54 0 -102.5 -22t-81.5 -61t-41 -91q-7 -53 13 -91t55.5 -64t72.5 -43q36 -15 68.5 -34.5t51 -48.5t10.5 -72q-6 -33 -24.5 -58.5t-47.5 -39.5t-67 -14q-33 0 -57 12.5t-41 34t-29.5 49.5t-21.5 59zM575 918l-68 42l-172 -158l41 -31z" />
    <glyph glyph-name="sacute" unicode="&#x15b;" horiz-adv-x="391" 
d="M88 161l-70 -37q5 -38 26 -68.5t54.5 -47.5t74.5 -17q47 0 87 15t66.5 46.5t31.5 77.5q5 33 -9 58.5t-39 45t-54 32.5q-20 9 -43.5 19.5t-38.5 24.5t-12 34q4 26 28 38t51 12q28 0 50.5 -16t37.5 -38l68 39q-14 42 -55.5 66.5t-93.5 24.5q-36 0 -72 -15t-61 -41.5
t-31 -63.5q-5 -36 10.5 -61.5t42 -42.5t55.5 -31q17 -7 33 -15.5t28.5 -19t18.5 -24.5t3 -32q-3 -19 -16.5 -32.5t-32.5 -19.5t-41 -6q-28 0 -48.5 12.5t-32.5 34.5t-16 48zM462 678l-69 42l-172 -158l42 -31z" />
    <glyph glyph-name="Scircumflex" unicode="&#x15c;" horiz-adv-x="532" 
d="M119 226l-76 -42q14 -54 42 -97.5t71 -69.5t100 -26q65 0 115.5 25t82.5 70.5t40 103.5q8 56 -11.5 95.5t-54 66.5t-73.5 44q-26 11 -51.5 23.5t-45.5 28t-30 35.5t-5 46q5 30 24 52.5t47 35t60 12.5q36 0 59 -17t37.5 -43t24.5 -55l74 45q-11 39 -35.5 73.5t-62.5 56
t-90 21.5q-54 0 -102.5 -22t-81.5 -61t-41 -91q-7 -53 13 -91t55.5 -64t72.5 -43q36 -15 68.5 -34.5t51 -48.5t10.5 -72q-6 -33 -24.5 -58.5t-47.5 -39.5t-67 -14q-33 0 -57 12.5t-41 34t-29.5 49.5t-21.5 59zM393 865l91 -94l53 38l-134 141l-178 -138l44 -41z" />
    <glyph glyph-name="scircumflex" unicode="&#x15d;" horiz-adv-x="391" 
d="M88 161l-70 -37q5 -38 26 -68.5t54.5 -47.5t74.5 -17q47 0 87 15t66.5 46.5t31.5 77.5q5 33 -9 58.5t-39 45t-54 32.5q-20 9 -43.5 19.5t-38.5 24.5t-12 34q4 26 28 38t51 12q28 0 50.5 -16t37.5 -38l68 39q-14 42 -55.5 66.5t-93.5 24.5q-36 0 -72 -15t-61 -41.5
t-31 -63.5q-5 -36 10.5 -61.5t42 -42.5t55.5 -31q17 -7 33 -15.5t28.5 -19t18.5 -24.5t3 -32q-3 -19 -16 -32.5t-32 -19.5t-41 -6q-28 0 -49 12.5t-33 34.5t-16 48zM279 625l91 -94l53 38l-134 141l-178 -138l45 -41z" />
    <glyph glyph-name="Scedilla" unicode="&#x15e;" horiz-adv-x="532" 
d="M119 226l-76 -42q14 -54 42 -97.5t71 -69.5t100 -26q62 0 113 25.5t84.5 70.5t41.5 103q7 56 -12.5 95.5t-54 66.5t-73.5 44q-26 11 -51.5 23.5t-45.5 27.5t-30 35t-5 47q5 30 21.5 52.5t42 35t57.5 12.5q36 0 61.5 -17t42.5 -42.5t27 -54.5l74 44q-14 42 -38 76
t-61 54.5t-89 20.5q-58 0 -106 -23t-79.5 -63t-39.5 -93q-7 -56 13 -93t55 -60.5t73 -39.5q36 -15 68.5 -34.5t51 -48.5t10.5 -72q-6 -33 -24.5 -58.5t-47.5 -39.5t-67 -14q-33 0 -57 12.5t-41 34t-29.5 49.5t-21.5 59zM273 58l-111 -166q15 8 32.5 13t28.5 4q13 0 23 -4
t15 -12t3 -19q-1 -11 -9.5 -20.5t-21 -15t-26.5 -5.5q-17 0 -28 7t-23 17l-38 -38q19 -19 38 -29t45 -10q27 0 53 11.5t44 32t21 48.5q4 33 -15 53t-45 22h-3.5h-3.5l81 111h-60z" />
    <glyph glyph-name="scedilla" unicode="&#x15f;" horiz-adv-x="391" 
d="M85 163l-67 -38q13 -37 35.5 -67t55.5 -48t74 -18q44 0 81.5 15.5t62.5 47t31 76.5q5 36 -8 62t-38 45.5t-56 32.5q-20 9 -43.5 18.5t-39.5 24t-12 36.5q5 26 29.5 37t50.5 11q28 -1 51 -17.5t37 -39.5l68 39q-20 41 -58.5 66t-90.5 25q-37 0 -73 -14t-60.5 -41.5
t-30.5 -67.5q-5 -39 9.5 -64t41.5 -41.5t57 -30.5q22 -9 43 -21t33 -28t7 -40q-3 -18 -15.5 -31t-30.5 -19t-38 -6q-24 1 -44 14.5t-35.5 35t-26.5 46.5zM199 59l-109 -166q15 8 31.5 13t27.5 4q13 0 23 -4t15 -12t3 -19q-1 -11 -9.5 -20.5t-21 -15t-26.5 -5.5q-16 0 -27 7
t-23 17l-37 -38q19 -19 37.5 -29t44.5 -10q27 0 53 11t44.5 32t21.5 49q4 33 -15.5 53t-46.5 22h-2.5h-3.5l83 111h-63z" />
    <glyph glyph-name="Scaron" unicode="&#x160;" horiz-adv-x="532" 
d="M119 226l-76 -42q14 -54 42 -97.5t71 -69.5t100 -26q65 0 115.5 25t82.5 70.5t40 103.5q8 56 -11.5 95.5t-54 66.5t-73.5 44q-26 11 -51.5 23.5t-45.5 28t-30 35.5t-5 46q5 30 24 52.5t47 35t60 12.5q36 0 59 -17t37.5 -43t24.5 -55l74 45q-11 39 -35.5 73.5t-62.5 56
t-90 21.5q-54 0 -102.5 -22t-81.5 -61t-41 -91q-7 -53 13 -91t55.5 -64t72.5 -43q36 -15 68.5 -34.5t51 -48.5t10.5 -72q-6 -33 -24.5 -58.5t-47.5 -39.5t-67 -14q-33 0 -57 12.5t-41 34t-29.5 49.5t-21.5 59zM386 856l-90 94l-54 -39l134 -141l178 139l-44 41z" />
    <glyph glyph-name="scaron" unicode="&#x161;" horiz-adv-x="391" 
d="M88 161l-70 -37q5 -38 26 -68.5t54.5 -47.5t74.5 -17q47 0 87 15t66.5 46.5t31.5 77.5q5 33 -9 58.5t-39 45t-54 32.5q-20 9 -43.5 19.5t-38.5 24.5t-12 34q4 26 28 38t51 12q28 0 50.5 -16t37.5 -38l68 39q-14 42 -55.5 66.5t-93.5 24.5q-36 0 -72 -15t-61 -41.5
t-31 -63.5q-5 -36 10.5 -61.5t42 -42.5t55.5 -31q17 -7 33 -15.5t28.5 -19t18.5 -24.5t3 -32q-3 -19 -16 -32.5t-32 -19.5t-41 -6q-28 0 -49 12.5t-33 34.5t-16 48zM272 616l-90 94l-54 -39l134 -141l179 139l-45 41z" />
    <glyph glyph-name="uni0162" unicode="&#x162;" horiz-adv-x="451" 
d="M170 9l-110 -166q15 8 32 13t28 4q13 0 23 -4t15 -12t3 -19q-1 -11 -9.5 -20.5t-21 -15t-26.5 -5.5q-17 0 -27.5 7t-22.5 17l-38 -38q19 -19 37.5 -29t45.5 -10t53 11t44 32t21 49q4 33 -15 53t-46 22h-3h-4l82 111h-61zM87 620h176l-107 -620h84l107 620h174l14 80h-433
z" />
    <glyph glyph-name="uni0163" unicode="&#x163;" horiz-adv-x="233" 
d="M61 9l-110 -166q15 8 32 13t28 4q13 0 23 -4t15 -12t3 -19q-1 -11 -9.5 -20.5t-21 -15t-26.5 -5.5q-17 0 -27.5 7t-22.5 17l-38 -38q19 -19 37.5 -29t45.5 -10t53 11t44 32t21 49q4 33 -15 53t-46 22h-3h-4l82 111h-61zM58 460l-14 -75h225l13 75h-224zM155 620
l-104 -620h77l108 620h-81z" />
    <glyph glyph-name="Tcaron" unicode="&#x164;" horiz-adv-x="451" 
d="M87 620h176l-107 -620h84l107 620h174l14 80h-433zM342 856l-91 94l-53 -39l134 -141l178 139l-44 41z" />
    <glyph glyph-name="tcaron" unicode="&#x165;" horiz-adv-x="340" 
d="M56 460l-14 -75h225l14 75h-225zM155 620l-104 -620h77l108 620h-81zM396 809l-129 -257l55 -21l150 247z" />
    <glyph glyph-name="Tbar" unicode="&#x166;" horiz-adv-x="465" 
d="M111 381h309l20 74h-309zM87 620h176l-107 -620h84l107 620h174l14 80h-433z" />
    <glyph glyph-name="tbar" unicode="&#x167;" horiz-adv-x="240" 
d="M27 206h196l13 74h-196zM58 460l-14 -75h225l13 75h-224zM155 620l-104 -620h77l108 620h-81z" />
    <glyph glyph-name="Utilde" unicode="&#x168;" horiz-adv-x="608" 
d="M165 700l-81 -470q-8 -64 12 -118.5t67 -87.5t117 -33q72 0 128.5 32.5t93 86.5t47.5 120l80 470h-85l-81 -470q-8 -44 -31.5 -80.5t-60.5 -58t-86 -20.5q-48 1 -76 23t-37.5 58t-3.5 78l82 470h-85zM253 809l49 -38q7 14 20 31.5t39 18.5q21 1 37 -10.5t32.5 -23
t39.5 -12.5q25 -1 46 9.5t38 27t28 33.5l-40 45q-15 -18 -31 -32t-33 -15q-23 -1 -38.5 10.5t-32 23.5t-42.5 12q-18 0 -44.5 -11t-47 -29t-20.5 -40z" />
    <glyph glyph-name="utilde" unicode="&#x169;" horiz-adv-x="509" 
d="M330 0h81l79 460h-80zM154 180l48 280h-78l-50 -290q-6 -50 5.5 -91t42 -64.5t80.5 -23.5t88.5 26.5t64 69.5t34.5 92h-28q-8 -30 -26.5 -56t-46 -42t-62.5 -15q-33 1 -49.5 16.5t-21 41t-1.5 56.5zM163 569l49 -38q7 14 19.5 31.5t39.5 18.5q21 1 36.5 -10.5t32.5 -23
t40 -12.5q25 -1 46 9.5t38 27t28 33.5l-41 45q-14 -18 -30 -32t-33 -15q-23 -1 -38.5 10.5t-32 23.5t-42.5 12q-24 1 -46 -10.5t-39 -29.5t-27 -40z" />
    <glyph glyph-name="Umacron" unicode="&#x16a;" horiz-adv-x="608" 
d="M165 700l-81 -470q-8 -64 12 -118.5t67 -87.5t117 -33q72 0 128.5 32.5t93 86.5t47.5 120l80 470h-85l-81 -470q-8 -44 -31.5 -80.5t-60.5 -58t-86 -20.5q-48 1 -76 23t-37.5 58t-3.5 78l82 470h-85zM239 771h342l12 74h-342z" />
    <glyph glyph-name="umacron" unicode="&#x16b;" horiz-adv-x="509" 
d="M330 0h81l79 460h-80zM154 180l48 280h-78l-50 -290q-6 -50 5.5 -91t42 -64.5t80.5 -23.5t88.5 26.5t64 69.5t34.5 92h-28q-8 -30 -26.5 -56t-46 -42t-62.5 -15q-33 1 -49.5 16.5t-21 41t-1.5 56.5zM149 531h342l12 74h-342z" />
    <glyph glyph-name="Ubreve" unicode="&#x16c;" horiz-adv-x="608" 
d="M165 700l-81 -470q-8 -64 12 -118.5t67 -87.5t117 -33q72 0 128.5 32.5t93 86.5t47.5 120l80 470h-85l-81 -470q-8 -44 -31.5 -80.5t-60.5 -58t-86 -20.5q-48 1 -76 23t-37.5 58t-3.5 78l82 470h-85zM277 910q-2 -37 11.5 -68.5t44.5 -51t79 -19.5q49 0 84.5 19.5t58 51
t31.5 67.5l-72 1q-6 -16 -18 -33.5t-31 -29t-50 -11.5q-29 0 -44 11.5t-20 29t-4 33.5h-70z" />
    <glyph glyph-name="ubreve" unicode="&#x16d;" horiz-adv-x="509" 
d="M330 0h81l79 460h-80zM154 180l48 280h-78l-50 -290q-6 -50 5.5 -91t42 -64.5t80.5 -23.5t88.5 26.5t64 69.5t34.5 92h-28q-8 -30 -26.5 -56t-46 -42t-62.5 -15q-33 1 -49.5 16.5t-21 41t-1.5 56.5zM187 670q-2 -37 11.5 -68.5t44.5 -51t79 -19.5q49 0 84.5 19.5t58 51
t31.5 67.5l-72 1q-6 -16 -18 -33.5t-31.5 -29t-49.5 -11.5q-29 0 -44.5 11.5t-20.5 29t-4 33.5h-69z" />
    <glyph glyph-name="Uring" unicode="&#x16e;" horiz-adv-x="608" 
d="M165 700l-80 -470q-9 -64 10.5 -118.5t66 -87.5t116.5 -33q72 0 128.5 32.5t93.5 86.5t48 120l81 470h-84l-81 -470q-8 -44 -31.5 -80.5t-60.5 -57.5t-86 -21q-48 1 -76 23t-38 58t-4 78l81 470h-84zM326 871q-4 -27 6.5 -49.5t31 -36.5t46.5 -14q27 0 52 13t42.5 35.5
t20.5 49.5q4 28 -6.5 50.5t-31 36.5t-47.5 14q-26 0 -51 -13.5t-42 -35.5t-21 -50zM376 870q2 14 11.5 26.5t23 20t25.5 6.5q18 -1 29.5 -16.5t9.5 -35.5q-1 -14 -11 -26.5t-23.5 -20t-25.5 -6.5q-18 1 -29.5 16.5t-9.5 35.5z" />
    <glyph glyph-name="uring" unicode="&#x16f;" horiz-adv-x="509" 
d="M331 0h79l80 460h-80zM154 180l48 280h-77l-51 -290q-6 -50 5 -90.5t41 -64.5t80 -24q51 0 90 26.5t64.5 69.5t34.5 92h-27q-8 -30 -26.5 -56t-46 -42t-62.5 -15q-33 1 -50 16.5t-21.5 41t-1.5 56.5zM235 631q-3 -27 7 -49.5t31 -36.5t47 -14q27 0 51.5 13t42 35.5
t21.5 49.5q4 28 -6.5 50.5t-31 36.5t-47.5 14q-26 0 -51 -13.5t-42.5 -35.5t-21.5 -50zM285 630q2 14 11.5 26.5t23.5 20t26 6.5q18 -1 29.5 -16.5t9.5 -35.5q-1 -14 -11 -26.5t-23.5 -20t-26.5 -6.5q-18 1 -29.5 16.5t-9.5 35.5z" />
    <glyph glyph-name="Uhungarumlaut" unicode="&#x170;" horiz-adv-x="608" 
d="M327 771l159 191l-85 22l-129 -194zM491 771l161 191l-87 22l-128 -194zM165 700l-80 -470q-10 -64 10 -118.5t67 -87.5t117 -33q80 0 136 32t89 86.5t44 120.5l81 470h-84l-81 -470q-7 -45 -28.5 -81t-58.5 -57t-91 -21q-48 0 -76 22t-38 58.5t-4 78.5l81 470h-84z" />
    <glyph glyph-name="uhungarumlaut" unicode="&#x171;" horiz-adv-x="509" 
d="M237 530l159 191l-85 22l-129 -194zM401 530l161 191l-87 22l-128 -194zM154 180l48 280h-77l-51 -290q-7 -47 4 -88t41.5 -66t80.5 -25q46 0 81.5 21t60.5 58l-11 -70h79l80 460h-80l-50 -284q-5 -31 -23.5 -56t-46.5 -39.5t-63 -14.5q-33 0 -50 16t-22 42t-1 56z" />
    <glyph glyph-name="Uogonek" unicode="&#x172;" horiz-adv-x="608" 
d="M300 -133q-11 -7 -23.5 -13.5t-29.5 -5.5q-20 2 -29.5 14.5t-7.5 34.5q3 22 19.5 40.5t40 33.5t46.5 26l-38 25q-33 -16 -65.5 -37t-56 -47.5t-28.5 -59.5q-6 -46 23.5 -73.5t83.5 -26.5q29 0 51.5 12t38.5 26zM165 700l-80 -470q-10 -64 10 -118.5t67 -87.5t117 -33
q80 0 136 32t89 86.5t44 120.5l81 470h-84l-81 -470q-7 -45 -28.5 -81t-58.5 -57t-91 -21q-48 0 -76 22t-38 58.5t-4 78.5l81 470h-84z" />
    <glyph glyph-name="uogonek" unicode="&#x173;" horiz-adv-x="509" 
d="M394 -130q-11 -7 -23.5 -13.5t-29.5 -5.5q-20 2 -29.5 14.5t-7.5 34.5q3 22 19.5 40.5t40 33.5t46.5 26l-38 25q-33 -16 -65.5 -37t-56 -47.5t-28.5 -59.5q-6 -46 23.5 -73.5t83.5 -26.5q29 0 51.5 12t38.5 26zM154 180l48 280h-77l-51 -290q-7 -47 4 -88t41.5 -66
t80.5 -25q46 0 81.5 21t60.5 58l-11 -70h79l80 460h-80l-50 -284q-5 -31 -23.5 -56t-46.5 -39.5t-63 -14.5q-33 0 -50 16t-22 42t-1 56z" />
    <glyph glyph-name="Wcircumflex" unicode="&#x174;" horiz-adv-x="961" 
d="M681 179l-102 560l-295 -560l-89 521h-92l140 -738l298 544l110 -544l396 738h-98zM609 889l90 -94l53 39l-135 141l-177 -138l45 -41z" />
    <glyph glyph-name="wcircumflex" unicode="&#x175;" horiz-adv-x="660" 
d="M57 460l109 -498l186 335l76 -335l282 498h-93l-163 -297l-71 335l-180 -333l-59 295h-87zM413 649l90 -94l53 39l-135 141l-177 -138l45 -41z" />
    <glyph glyph-name="Ycircumflex" unicode="&#x176;" horiz-adv-x="544" 
d="M537 700l-230 -321l-118 321h-90l157 -394l-54 -306h85l51 299l298 401h-99zM397 864l90 -94l53 39l-136 141l-177 -138l46 -41z" />
    <glyph glyph-name="ycircumflex" unicode="&#x177;" horiz-adv-x="427" 
d="M482 460h-93l-198 -355l34 -5l-81 360h-92l104 -391l-176 -288h94zM297 624l90 -94l53 39l-135 141l-177 -138l45 -41z" />
    <glyph glyph-name="Ydieresis" unicode="&#x178;" horiz-adv-x="544" 
d="M236 826q-2 -20 10 -37t34 -18q21 -1 41 16t22 37q2 21 -11.5 38t-34.5 18t-40 -16.5t-21 -37.5zM430 826q-2 -20 10 -37t34 -18q21 -1 41.5 16t22.5 37q2 21 -12 38t-35 18t-40 -16.5t-21 -37.5zM538 700l-230 -322l-119 322h-91l158 -396l-53 -304h84l51 300l297 400
h-97z" />
    <glyph glyph-name="Zacute" unicode="&#x179;" horiz-adv-x="529" 
d="M112 620h337l-464 -620h479l14 80l-337 1l463 619h-478zM558 918l-69 42l-172 -158l42 -31z" />
    <glyph glyph-name="zacute" unicode="&#x17a;" horiz-adv-x="446" 
d="M328 385l-343 -385h401l14 75l-257 1l343 384h-391l-14 -75h247zM486 698l-68 42l-172 -158l41 -31z" />
    <glyph glyph-name="Zdotaccent" unicode="&#x17b;" horiz-adv-x="529" 
d="M112 620h337l-464 -620h479l14 80l-337 1l463 619h-478zM332 826q-2 -21 11 -37.5t34 -17.5t41 16t22 37q2 21 -11.5 38t-34.5 18t-40.5 -16.5t-21.5 -37.5z" />
    <glyph glyph-name="zdotaccent" unicode="&#x17c;" horiz-adv-x="446" 
d="M328 385l-343 -385h401l14 75l-257 1l343 384h-391l-14 -75h247zM262 616q-2 -21 11 -37.5t35 -17.5q20 -1 40 16t22 37q2 21 -11 38t-35 18q-20 1 -40 -16.5t-22 -37.5z" />
    <glyph glyph-name="Zcaron" unicode="&#x17d;" horiz-adv-x="529" 
d="M112 620h337l-464 -620h479l14 80l-337 1l463 619h-478zM388 856l-90 94l-54 -39l134 -141l178 139l-44 41z" />
    <glyph glyph-name="zcaron" unicode="&#x17e;" horiz-adv-x="446" 
d="M313 616l-90 94l-54 -39l134 -141l178 139l-44 41zM328 385l-343 -385h401l14 75l-257 1l343 384h-391l-14 -75h247z" />
    <glyph glyph-name="florin" unicode="&#x192;" horiz-adv-x="600" 
d="M159 -200q37 -1 67.5 19.5t52 57.5t31.5 85l93 423h78l16 75h-78l38 160q9 41 27 66t40 25q9 0 18.5 -5.5t25.5 -20.5l48 62q-25 23 -45.5 32t-43.5 10q-37 1 -67.5 -20t-51.5 -58t-32 -85l-37 -166h-62l-16 -75h62l-94 -417q-9 -41 -26.5 -65.5t-40.5 -24.5
q-9 0 -18.5 5.5t-25.5 20.5l-48 -62q26 -22 46.5 -31.5t42.5 -10.5z" />
    <glyph glyph-name="uni0212" unicode="&#x212;" horiz-adv-x="543" 
d="M231 345l176 -345h99l-184 345h-91zM169 700l-118 -700h82l121 700h-85zM202 625h143q42 -1 71.5 -18t43.5 -46.5t7 -70.5t-32 -71t-61.5 -46t-80.5 -18h-137l-13 -75h143q66 2 122.5 27.5t94.5 72.5t48 110q10 62 -14.5 109t-72.5 73.5t-112 27.5h-137zM217 770
q11 36 35 68t60.5 52.5t85.5 19.5q48 0 77 -20t41 -52t7 -68h-63q1 17 -5 34.5t-22 29t-46 11.5t-49 -12t-30 -29t-18 -33z" />
    <glyph glyph-name="uni0213" unicode="&#x213;" horiz-adv-x="333" 
d="M203 460h-79l-80 -460h80zM324 373l53 64q-18 17 -37.5 25t-43.5 8q-40 0 -73.5 -28t-56 -71t-31.5 -90h37q6 29 16.5 55t30 43t49.5 16q17 0 30 -6t26 -16zM110 530q11 36 35 68t60.5 52.5t85.5 19.5q48 0 77 -20t41 -52t7 -68h-63q1 17 -5 34.5t-22 29t-46 11.5
t-49 -12t-30 -29t-18 -33z" />
    <glyph glyph-name="uni0218" unicode="&#x218;" horiz-adv-x="532" 
d="M119 226l-76 -42q14 -54 42 -97.5t71 -69.5t100 -26q65 0 115.5 25t83 70.5t40.5 103.5q7 56 -12.5 95.5t-54 66.5t-73.5 44q-26 11 -51.5 23.5t-45.5 28t-30 35.5t-5 46q5 30 24 52.5t47 35t60 12.5q36 0 59 -17t37.5 -43t24.5 -55l74 45q-11 39 -35.5 73.5t-62.5 56
t-90 21.5q-54 0 -102.5 -22t-81.5 -61t-41 -91q-7 -53 13 -91t55.5 -64t72.5 -43q36 -15 68.5 -34.5t51 -48.5t10.5 -72q-6 -33 -24.5 -58.5t-47.5 -39.5t-67 -14q-33 0 -57 12.5t-41 34t-29.5 49.5t-21.5 59zM245 -71l-129 -257l55 -21l150 247z" />
    <glyph glyph-name="uni0219" unicode="&#x219;" horiz-adv-x="391" 
d="M88 161l-70 -37q5 -38 26 -68.5t54.5 -47.5t74.5 -17q47 0 87 15t66.5 46.5t31.5 77.5q5 33 -9 58.5t-39 45t-54 32.5q-20 9 -43.5 19.5t-38.5 24.5t-12 34q4 26 28 38t51 12q28 0 50.5 -16t37.5 -38l68 39q-14 42 -55.5 66.5t-93.5 24.5q-36 0 -72 -15t-61 -41.5
t-31 -63.5q-5 -36 10.5 -61.5t42 -42.5t55.5 -31q17 -7 33 -15.5t28.5 -19t18.5 -24.5t3 -32q-3 -19 -16.5 -32.5t-32.5 -19.5t-41 -6q-28 0 -48.5 12.5t-32.5 34.5t-16 48zM162 -71l-129 -257l56 -21l149 247z" />
    <glyph glyph-name="uni021A" unicode="&#x21a;" horiz-adv-x="451" 
d="M87 620h176l-107 -620h84l107 620h174l14 80h-433zM191 -60l-129 -257l55 -21l150 247z" />
    <glyph glyph-name="uni021B" unicode="&#x21b;" horiz-adv-x="233" 
d="M58 460l-14 -75h225l13 75h-224zM155 620l-104 -620h77l108 620h-81zM82 -60l-129 -257l56 -21l149 247z" />
    <glyph glyph-name="uni0237" unicode="&#x237;" horiz-adv-x="243" 
d="M-65 -114l-52 -64q14 -16 33.5 -28.5t47.5 -12.5q44 -1 76.5 19.5t52.5 57t27 82.5l88 520h-79l-88 -510q-3 -24 -11 -44.5t-21 -33t-31 -12.5q-13 0 -23.5 6.5t-19.5 19.5z" />
    <glyph glyph-name="circumflex" unicode="&#x2c6;" horiz-adv-x="466" 
d="M319 645l90 -94l54 38l-134 141l-178 -138l44 -41z" />
    <glyph glyph-name="caron" unicode="&#x2c7;" horiz-adv-x="466" 
d="M315 656l-90 94l-54 -39l134 -141l178 139l-44 41z" />
    <glyph glyph-name="breve" unicode="&#x2d8;" horiz-adv-x="530" 
d="M225 850q-2 -37 11.5 -68.5t44.5 -51t79 -19.5q49 0 84 19.5t57.5 51t31.5 67.5l-71 1q-6 -16 -17 -33.5t-30.5 -29t-49.5 -11.5q-29 0 -44.5 11.5t-21 29t-5.5 33.5h-69z" />
    <glyph glyph-name="dotaccent" unicode="&#x2d9;" horiz-adv-x="291" 
d="M200 791q0 -22 16.5 -38.5t38.5 -16.5q23 0 39 16.5t16 38.5q0 23 -16 39t-39 16q-22 0 -38.5 -16t-16.5 -39z" />
    <glyph glyph-name="ring" unicode="&#x2da;" horiz-adv-x="270" 
d="M142 786q-3 -27 7.5 -49.5t31 -36.5t46.5 -14q27 0 51.5 13t42 35.5t21.5 49.5q4 28 -6.5 50.5t-31 36.5t-47.5 14q-26 0 -51 -13.5t-42.5 -35.5t-21.5 -50zM192 785q2 14 11.5 26.5t23.5 20t26 6.5q18 -1 29.5 -16.5t9.5 -35.5q-1 -14 -11 -26.5t-23.5 -20t-26.5 -6.5
q-18 1 -29.5 16.5t-9.5 35.5z" />
    <glyph glyph-name="ogonek" unicode="&#x2db;" horiz-adv-x="252" 
d="M151 -130q-11 -7 -23.5 -13.5t-29.5 -5.5q-20 2 -29.5 14.5t-7.5 34.5q3 22 19.5 40.5t40 33.5t46.5 26l-38 25q-33 -16 -65.5 -37t-56 -47.5t-28.5 -59.5q-6 -46 23.5 -73.5t83.5 -26.5q29 0 51.5 12t38.5 26z" />
    <glyph glyph-name="tilde" unicode="&#x2dc;" horiz-adv-x="514" 
d="M175 627l49 -38q6 14 18 31.5t39 18.5q21 1 37 -10.5t33 -23t40 -12.5q25 -1 46 9.5t38.5 27.5t28.5 34l-41 44q-14 -19 -29.5 -32.5t-32.5 -14.5q-23 -1 -39 10.5t-32.5 23.5t-42.5 12q-24 1 -46 -10.5t-39 -29.5t-27 -40z" />
    <glyph glyph-name="hungarumlaut" unicode="&#x2dd;" horiz-adv-x="0" 
d="M55 509l159 191l-85 22l-129 -194zM219 509l161 191l-87 22l-128 -194z" />
    <glyph glyph-name="gravecomb" unicode="&#x300;" horiz-adv-x="0" 
d="M271 545l45 30l-123 160l-76 -40z" />
    <glyph glyph-name="acutecomb" unicode="&#x301;" horiz-adv-x="0" 
d="M161 540l206 150l-79 45l-177 -160z" />
    <glyph glyph-name="uni0302" unicode="&#x302;" horiz-adv-x="0" 
d="M138 546l145 107h-34l104 -106l49 49l-129 130l-173 -130z" />
    <glyph glyph-name="tildecomb" unicode="&#x303;" horiz-adv-x="0" 
d="M152 583q1 8 8 20t20.5 21.5t33.5 9.5q15 0 28 -7t25.5 -16.5t27 -16.5t33.5 -7q25 0 47 10.5t39 27.5t28 35l-39 48q-19 -24 -37 -36t-32 -12q-18 0 -30.5 7t-23.5 16.5t-25 16.5t-37 7q-22 0 -45 -10.5t-41 -28.5t-27 -43z" />
    <glyph glyph-name="uni0304" unicode="&#x304;" horiz-adv-x="0" 
d="M101 600h350l12 75h-350z" />
    <glyph glyph-name="uni0306" unicode="&#x306;" horiz-adv-x="0" 
d="M254 540q46 0 83.5 18t62 50t30.5 72h-71q-3 -21 -18.5 -38t-37 -27t-44.5 -10q-37 0 -58 21.5t-16 53.5h-71q-6 -40 10 -72t50 -50t80 -18z" />
    <glyph glyph-name="uni0307" unicode="&#x307;" horiz-adv-x="0" 
d="M160 570q23 0 39 16.5t16 38.5q0 23 -16 39t-39 16q-22 0 -38.5 -16t-16.5 -39q0 -22 16.5 -38.5t38.5 -16.5z" />
    <glyph glyph-name="uni0308" unicode="&#x308;" horiz-adv-x="0" 
d="M266 605q23 0 39 16t16 39q0 24 -16 39.5t-39 15.5q-24 0 -39.5 -15.5t-15.5 -39.5q0 -23 15.5 -39t39.5 -16zM266 605q23 0 39 16t16 39q0 24 -16 39.5t-39 15.5q-24 0 -39.5 -15.5t-15.5 -39.5q0 -23 15.5 -39t39.5 -16z" />
    <glyph glyph-name="uni030A" unicode="&#x30a;" horiz-adv-x="0" 
d="M199 520q31 0 59.5 15t48 40t24.5 55q8 46 -20 78t-75 32q-31 0 -59 -15t-47 -39.5t-24 -55.5q-7 -46 20 -78t73 -32zM208 572q-23 0 -36.5 17t-9.5 41t23 41t42 17t37 -17t10 -41t-23.5 -41t-42.5 -17z" />
    <glyph glyph-name="uni030B" unicode="&#x30b;" horiz-adv-x="0" 
d="M55 509l159 191l-85 22l-129 -194zM219 509l161 191l-87 22l-128 -194z" />
    <glyph glyph-name="uni030C" unicode="&#x30c;" horiz-adv-x="0" 
d="M243 547l173 131l-39 50l-144 -107h34l-105 105l-48 -48z" />
    <glyph glyph-name="uni0312" unicode="&#x312;" horiz-adv-x="0" 
d="M164 500l131 259l-54 21l-152 -250z" />
    <glyph glyph-name="uni0326" unicode="&#x326;" horiz-adv-x="0" 
d="M8 -224l142 170l-55 37l-128 -180z" />
    <glyph glyph-name="uni0327" unicode="&#x327;" horiz-adv-x="0" 
d="M52 -220q36 0 63 12.5t44 33.5t21 48q5 29 -14 54t-51 25q-19 0 -28 -5t-20 -20h24l97 132h-66l-105 -153q10 2 27.5 2.5t29.5 0.5q26 0 36.5 -9t7.5 -27q-3 -19 -18 -29.5t-39 -10.5q-19 0 -31 3.5t-31 15.5l-31 -45q19 -15 37.5 -21.5t46.5 -6.5z" />
    <glyph glyph-name="uni0328" unicode="&#x328;" horiz-adv-x="0" 
d="M86 -220q32 0 57 12.5t38 27.5l-24 50q-12 -10 -23 -15t-31 -5q-19 0 -31 11.5t-8 38.5q3 19 18.5 37.5t39.5 35t51 27.5l-42 25q-38 -18 -70.5 -40.5t-54 -48.5t-26.5 -56q-5 -29 6.5 -52t37 -35.5t62.5 -12.5z" />
    <glyph glyph-name="uni0394" unicode="&#x394;" horiz-adv-x="600" 
d="M-27 0l416 800l147 -800h-563zM106 76h324l-77 499z" />
    <glyph glyph-name="uni03A9" unicode="&#x3a9;" horiz-adv-x="600" 
d="M21 0l12 68h87q-20 36 -32 78t-14.5 86t3.5 85q12 69 51.5 123.5t97 86.5t123.5 32t112.5 -32t67.5 -86.5t9 -123.5q-6 -41 -23.5 -85t-43.5 -86t-58 -78h87l-12 -68h-193l13 78q24 17 47 43t41.5 57.5t32 65.5t18.5 67q9 51 -1.5 85.5t-38.5 52t-74 17.5t-80.5 -17.5
t-56.5 -52t-31 -85.5q-7 -43 -1 -88.5t22.5 -83.5t40.5 -61l-13 -78h-193z" />
    <glyph glyph-name="uni03BC" unicode="&#x3bc;" horiz-adv-x="525" 
d="M204 460h-81l-131 -779l77 -1l57 330q14 -9 33 -14t41 -5q43 0 78.5 19t61.5 50l-9 -60h79l80 460h-80l-50 -284q-5 -31 -23.5 -56t-46.5 -39.5t-63 -14.5q-30 0 -48 13.5t-24.5 37t-3.5 52.5z" />
    <glyph glyph-name="pi" unicode="&#x3c0;" horiz-adv-x="524" 
d="M132 430l-71 -430h77l75 430h-81zM80 460l-13 -75h458l13 75h-458zM376 430l-53 -309q-4 -36 0.5 -60t18 -38.5t36.5 -21.5t54 -9l13 79q-17 4 -27 10.5t-13 20t0 39.5l51 289h-80z" />
    <glyph glyph-name="uni0400" unicode="&#x400;" horiz-adv-x="534" 
d="M97 0h345l13 80h-345zM203 621h344l14 79h-346zM155 341h325l13 79h-325zM168 700l-117 -700h82l122 700h-87zM233 921l155 -151l47 29l-124 161z" />
    <glyph glyph-name="uni0401" unicode="&#x401;" horiz-adv-x="534" 
d="M97 0h345l13 80h-345zM203 621h344l14 79h-346zM155 341h325l13 79h-325zM168 700l-117 -700h82l122 700h-87zM440 826q-1 -21 12 -37.5t35 -18.5q20 -1 40 16.5t21 37.5q2 21 -11.5 37.5t-34.5 17.5q-21 2 -40.5 -15.5t-21.5 -37.5zM246 826q-1 -21 12 -37.5t35 -18.5
q20 -1 40 16.5t21 37.5q2 21 -11.5 37.5t-34.5 17.5q-21 2 -40.5 -15.5t-21.5 -37.5z" />
    <glyph glyph-name="uni0403" unicode="&#x403;" horiz-adv-x="422" 
d="M167 700l-116 -700h82l108 620h251l15 80h-340zM534 917l-69 42l-169 -158l41 -31z" />
    <glyph glyph-name="uni040C" unicode="&#x40c;" horiz-adv-x="548" 
d="M168 700l-117 -700h82l122 700h-87zM516 700l-345 -326l246 -374h98l-244 369l355 331h-110zM594 917l-70 43l-171 -157l43 -32z" />
    <glyph glyph-name="uni040D" unicode="&#x40d;" horiz-adv-x="752" 
d="M746 602l32 140l-706 -644l-32 -139zM255 700h-86l-129 -741l106 113zM778 742l-107 -113l-108 -629h85zM342 897l154 -152l46 29l-121 162z" />
    <glyph glyph-name="uni040E" unicode="&#x40e;" horiz-adv-x="548" 
d="M645 700h-99l-284 -465l50 -5l-121 470h-98l140 -489l-127 -211h99zM244 910q-2 -37 12 -69t45 -51.5t78 -19.5q49 0 84.5 19.5t58 51.5t30.5 68h-70q-6 -16 -17.5 -33t-30.5 -29t-50 -12q-29 1 -44.5 12.5t-21 29t-5.5 33.5h-69z" />
    <glyph glyph-name="uni0410" unicode="&#x410;" horiz-adv-x="640" 
d="M152 211l361 -1l-17 80h-303zM389 542l66 -282l4 -20l58 -240h91l-189 738l-445 -738h99l143 246l11 18z" />
    <glyph glyph-name="uni0411" unicode="&#x411;" horiz-adv-x="532" 
d="M152 340h145q42 -1 71.5 -16.5t43.5 -44t7 -69.5q-8 -41 -33 -70t-61.5 -44t-80.5 -16h-135l-15 -80h146q66 2 122 27.5t94 72.5t47 110q10 63 -15 109.5t-73.5 73t-112.5 27.5h-135zM167 700l-116 -700h82l108 620h281l14 80h-369z" />
    <glyph glyph-name="uni0412" unicode="&#x412;" horiz-adv-x="542" 
d="M179 371h113q57 1 105.5 18t80.5 51t40 85q7 43 -4 75.5t-35.5 54t-60 33t-78.5 12.5h-171l-120 -700h191q66 2 122 25t93.5 68.5t46.5 111.5q7 47 -6.5 82t-42.5 57.5t-69 34t-86 11.5h-117l-7 -46l123 -1q42 -1 72 -17.5t43.5 -45.5t6.5 -70q-8 -41 -33 -71t-62 -46
t-81 -17l-96 -1l94 550h95q49 -2 77 -30t20 -75q-6 -32 -26.5 -54.5t-50 -34.5t-63.5 -14h-107z" />
    <glyph glyph-name="uni0413" unicode="&#x413;" horiz-adv-x="422" 
d="M167 700l-116 -700h82l108 620h251l15 80h-340z" />
    <glyph glyph-name="uni0414" unicode="&#x414;" horiz-adv-x="772" 
d="M452 543l101 -513h84l-155 708l-400 -707h93zM630 0l-20 -109h73l34 189h-692l-33 -189h75l20 109h543z" />
    <glyph glyph-name="uni0415" unicode="&#x415;" horiz-adv-x="534" 
d="M97 0h345l13 80h-345zM203 621h344l14 79h-346zM155 341h325l13 79h-325zM168 700l-117 -700h82l122 700h-87z" />
    <glyph glyph-name="uni0416" unicode="&#x416;" horiz-adv-x="869" 
d="M212 700h-98l237 -324l-377 -376h109l367 367zM488 700l-116 -700h82l121 700h-87zM836 700l-335 -326l236 -374h98l-244 369l355 331h-110z" />
    <glyph glyph-name="uni0417" unicode="&#x417;" horiz-adv-x="588" 
d="M307 346q51 1 98.5 13t86.5 34.5t64.5 55t32.5 75.5q8 52 -15 94t-69 67t-108 25q-64 0 -115.5 -23t-85.5 -64t-46 -96h81q15 46 58.5 76.5t104.5 29.5q39 0 65.5 -14.5t38 -39.5t4.5 -58q-8 -37 -34.5 -63t-66 -40.5t-87.5 -17.5zM280 -9q70 0 127.5 23t95.5 66.5
t47 104.5q8 53 -9 89.5t-51.5 60t-80.5 34.5t-97 12l-9 -55q35 -1 67 -9t56 -23.5t35.5 -39.5t4.5 -59q-7 -39 -32 -67t-63 -42.5t-87 -14.5q-70 0 -104.5 30t-34.5 84h-84q-5 -58 20 -102t76 -68t123 -24z" />
    <glyph glyph-name="uni0418" unicode="&#x418;" horiz-adv-x="752" 
d="M746 602l32 140l-706 -644l-32 -139zM255 700h-86l-129 -741l106 113zM778 742l-107 -113l-108 -629h85z" />
    <glyph glyph-name="uni0419" unicode="&#x419;" horiz-adv-x="752" 
d="M746 602l32 140l-706 -644l-32 -139zM255 700h-86l-129 -741l106 113zM778 742l-107 -113l-108 -629h85zM357 906q-2 -37 11.5 -68.5t44.5 -51t79 -19.5q49 0 84 19.5t57.5 51t31.5 67.5l-71 1q-6 -16 -17 -33.5t-30.5 -29t-49.5 -11.5q-29 0 -44.5 11.5t-21 29
t-5.5 33.5h-69z" />
    <glyph glyph-name="uni041A" unicode="&#x41a;" horiz-adv-x="548" 
d="M168 700l-117 -700h82l122 700h-87zM516 700l-345 -326l246 -374h98l-244 369l355 331h-110z" />
    <glyph glyph-name="uni041B" unicode="&#x41b;" horiz-adv-x="639" 
d="M655 700h-464l-75 -440q-7 -46 -22 -86t-39.5 -67t-60.5 -34l-11 -72q61 5 104 38.5t69.5 86t37.5 114.5l64 380h298l-106 -620h85z" />
    <glyph glyph-name="uni041C" unicode="&#x41c;" horiz-adv-x="786" 
d="M227 472l151 -409l288 403l-30 -466h85l46 741l-364 -510l-184 506l-210 -737h87z" />
    <glyph glyph-name="uni041D" unicode="&#x41d;" horiz-adv-x="694" 
d="M155 341h468l13 79h-468zM624 700l-117 -700h83l121 700h-87zM168 700l-117 -700h82l122 700h-87z" />
    <glyph glyph-name="uni041E" unicode="&#x41e;" horiz-adv-x="767" 
d="M160 350q10 56 37 106t68.5 88t93 59.5t109.5 21.5q57 0 99.5 -23t68.5 -62t35.5 -88t0.5 -102q-9 -56 -36.5 -105.5t-68.5 -87.5t-92.5 -59.5t-109.5 -21.5q-57 0 -99.5 23t-68.5 62t-35.5 88t-1.5 101zM70 350q-10 -70 5.5 -135t53.5 -115.5t96.5 -80t133.5 -29.5
q77 0 145 28.5t122 78t89.5 115t46.5 138.5q10 71 -5.5 135.5t-53.5 115t-96.5 80t-133.5 29.5q-77 0 -145 -28t-122 -78t-89.5 -115t-46.5 -139z" />
    <glyph glyph-name="uni041F" unicode="&#x41f;" horiz-adv-x="694" 
d="M614 621l-107 -621h83l120 700h-541l-120 -700h85l107 620z" />
    <glyph glyph-name="uni0420" unicode="&#x420;" horiz-adv-x="532" 
d="M168 700l-117 -700h82l122 700h-87zM200 620h145q42 -1 71.5 -16.5t43.5 -44t7 -69.5q-8 -41 -33 -70t-61.5 -44t-80.5 -16h-135l-15 -80h145q66 2 122.5 27.5t94.5 72.5t47 110q10 63 -15 109.5t-73.5 73t-112.5 27.5h-135z" />
    <glyph glyph-name="uni0421" unicode="&#x421;" horiz-adv-x="665" 
d="M160 350q10 57 37.5 106.5t69 87.5t91.5 59.5t105 21.5q66 0 116.5 -27.5t81.5 -76.5l17 112q-43 40 -92.5 59t-117.5 18q-75 0 -142 -28t-120.5 -77.5t-89 -114.5t-46.5 -140q-10 -71 5.5 -135.5t53.5 -115t95 -80t130 -29.5q71 0 126 20t103 57l17 111
q-46 -43 -107 -73t-133 -29q-54 0 -95 23t-67 61.5t-36 87.5t-2 102z" />
    <glyph glyph-name="uni0422" unicode="&#x422;" horiz-adv-x="451" 
d="M87 620h175l-106 -620h85l106 620h175l14 80h-435z" />
    <glyph glyph-name="uni0423" unicode="&#x423;" horiz-adv-x="548" 
d="M645 700h-99l-284 -465l50 -5l-121 470h-98l140 -489l-127 -211h99z" />
    <glyph glyph-name="uni0424" unicode="&#x424;" horiz-adv-x="760" 
d="M429 700l-117 -700h83l121 700h-87zM671 350q-11 -60 -49 -101t-94 -62t-121 -22l-61 1q-62 1 -109 22t-70 62t-12 100q11 61 49 102t93.5 61.5t120.5 21.5h61q62 -1 109.5 -22t70.5 -62t12 -101zM755 350q9 62 -8 111.5t-54.5 84.5t-91 54t-116.5 20h-61
q-88 -1 -163.5 -33.5t-126.5 -92.5t-64 -144q-9 -62 8 -111.5t54.5 -84.5t91 -54t117.5 -20h61q66 1 125.5 20t107.5 53.5t79 84t41 112.5z" />
    <glyph glyph-name="uni0425" unicode="&#x425;" horiz-adv-x="539" 
d="M507 700l-188 -256l-96 256h-95l139 -329l-288 -371h104l214 291l109 -291h95l-152 363l262 337h-104z" />
    <glyph glyph-name="uni0426" unicode="&#x426;" horiz-adv-x="738" 
d="M145 80l107 620h-82l-121 -700h549l-19 -109h75l33 189h-83l107 620h-86l-106 -620h-374z" />
    <glyph glyph-name="uni0427" unicode="&#x427;" horiz-adv-x="597" 
d="M303 281h212l13 74h-213zM527 700l-117 -700h83l121 700h-87zM250 700h-81l-31 -182q-8 -62 7.5 -116.5t55 -87.5t102.5 -33l12 74q-40 0 -64.5 23.5t-32.5 60.5t-1 79z" />
    <glyph glyph-name="uni0428" unicode="&#x428;" horiz-adv-x="956" 
d="M781 80h-274l107 620h-86l-106 -620h-274l107 620h-86l-120 -700h804l120 700h-86z" />
    <glyph glyph-name="uni0429" unicode="&#x429;" horiz-adv-x="1000" 
d="M781 80h-274l107 620h-86l-106 -620h-274l107 620h-86l-120 -700h811l-19 -109h75l33 189h-83l107 620h-86z" />
    <glyph glyph-name="uni042A" unicode="&#x42a;" horiz-adv-x="639" 
d="M259 340h145q42 0 71.5 -16t43.5 -44.5t7 -69.5q-8 -41 -33 -70t-62 -44t-80 -16h-135l-15 -80h145q66 0 122.5 26t94.5 73.5t47 110.5q10 63 -15 110t-73.5 73.5t-112.5 26.5h-135zM265 621l-107 -621h82l121 700h-260l-14 -80z" />
    <glyph glyph-name="uni042B" unicode="&#x42b;" horiz-adv-x="742" 
d="M672 700l-116 -700h82l122 700h-88zM168 700l-117 -700h82l122 700h-87zM152 340h145q42 0 71.5 -16t43.5 -44.5t7 -69.5q-8 -41 -33 -70t-61.5 -44t-80.5 -16h-135l-15 -80h146q66 0 122 26t94 73.5t47 110.5q10 63 -15 110t-73.5 73.5t-112.5 26.5h-135z" />
    <glyph glyph-name="uni042C" unicode="&#x42c;" horiz-adv-x="532" 
d="M168 700l-117 -700h82l122 700h-87zM152 340h145q42 0 71.5 -16t43.5 -44.5t7 -69.5q-8 -41 -33 -70t-61.5 -44t-80.5 -16h-135l-15 -80h146q66 0 122 26t94 73.5t47 110.5q10 63 -15 110t-73.5 73.5t-112.5 26.5h-135z" />
    <glyph glyph-name="uni042D" unicode="&#x42d;" horiz-adv-x="665" 
d="M155 311h412l14 79h-414zM570 350q-9 -56 -37 -105.5t-69 -87.5t-91 -59.5t-105 -21.5q-67 0 -117 27t-82 76l-17 -111q43 -40 93 -59t117 -19q75 0 142 28.5t121 78t89 114.5t46 139q10 71 -5.5 135.5t-53.5 115t-95 80t-130 29.5q-70 1 -125 -19t-104 -57l-16 -112
q46 44 106.5 74t133.5 29q54 -1 95 -24t67 -61.5t35.5 -87.5t1.5 -102z" />
    <glyph glyph-name="uni042E" unicode="&#x42e;" horiz-adv-x="1000" 
d="M155 341h215l14 79h-216zM168 700l-117 -700h82l122 700h-87zM393 350q10 56 37 106t68.5 88t93 59.5t109.5 21.5q57 0 99.5 -23t68.5 -62t35.5 -88t0.5 -102q-9 -56 -36.5 -105.5t-68.5 -87.5t-92.5 -59.5t-109.5 -21.5q-57 0 -99.5 23t-68.5 62t-35.5 88t-1.5 101z
M303 350q-10 -70 5.5 -135t53.5 -115.5t96.5 -80t133.5 -29.5q77 0 145 28.5t122 78t89.5 115t46.5 138.5q10 71 -5.5 135.5t-53.5 115t-96.5 80t-133.5 29.5q-77 0 -145 -28t-122 -78t-89.5 -115t-46.5 -139z" />
    <glyph glyph-name="uni042F" unicode="&#x42f;" horiz-adv-x="543" 
d="M381 345h-100l-302 -345h109zM560 700h-85l-120 -700h85zM501 625l14 75h-145q-65 0 -122 -26t-94.5 -72.5t-47.5 -110.5q-9 -62 15.5 -109t73.5 -73.5t112 -28.5h135l14 75l-145 1q-42 2 -71.5 18.5t-43 46t-6.5 69.5q8 42 33 72.5t62.5 46.5t80.5 16h135z" />
    <glyph glyph-name="uni0430" unicode="&#x430;" horiz-adv-x="471" 
d="M104 135q5 30 23.5 49.5t47 30t62.5 10.5q40 0 72 -11.5t63 -34.5l7 46q-18 22 -52.5 41t-87.5 20q-55 0 -101 -18t-76 -52t-38 -83q-6 -43 10 -75t48 -49.5t75 -17.5q47 0 86 17t66 48t37 73l-7 51q-9 -38 -31 -64.5t-53.5 -40.5t-71.5 -13q-36 1 -60 19.5t-19 53.5z
M142 352q26 15 62 31.5t80 15.5q25 0 44.5 -8.5t30 -23.5t6.5 -37l-59 -330h80l56 330q6 33 -3.5 59t-30.5 44t-51 27.5t-66 9.5q-55 0 -99.5 -17.5t-78.5 -37.5z" />
    <glyph glyph-name="uni0431" unicode="&#x431;" horiz-adv-x="530" 
d="M308 395q45 0 76 -22t45 -59.5t6 -83.5q-7 -44 -32.5 -82t-64 -60t-84.5 -22q-43 0 -71 21t-41 52.5t-13 64.5l-75 30q0 -61 19.5 -117t63 -91.5t114.5 -35.5q68 0 124.5 32.5t94 87t46.5 120.5t-13.5 120.5t-69.5 87t-113 32.5zM94 231l35 -27q0 45 16 80.5t42.5 60
t58 37.5t62.5 13l12 75q-47 0 -85 -18t-66.5 -50t-47 -76t-27.5 -95zM54 234l70 -27v88q0 45 15.5 90.5t43.5 86.5t66 72t83 47q79 29 138.5 73.5t82.5 114.5l-80 1q-21 -41 -59.5 -71t-98.5 -53q-61 -22 -109.5 -62.5t-82.5 -96t-51.5 -122t-17.5 -141.5z" />
    <glyph glyph-name="uni0432" unicode="&#x432;" horiz-adv-x="440" 
d="M131 240l-6 -41l132 -1q18 0 32.5 -4.5t24 -12.5t13.5 -19.5t2 -25.5q-5 -30 -33.5 -48t-66.5 -18h-127l-11 -70l153 1q68 0 111 34.5t51 89.5q6 44 -14 69t-56 35.5t-78 10.5h-127zM129 221h123q40 1 77 13t62.5 37t31.5 64q7 43 -11.5 70.5t-52 41t-73.5 13.5h-118
l-10 -69l122 -1q20 0 35 -7.5t23 -20.5t5 -31q-3 -19 -16.5 -33.5t-32.5 -22.5t-41 -8h-117zM122 460l-76 -460h78l81 460h-83z" />
    <glyph glyph-name="uni0433" unicode="&#x433;" horiz-adv-x="320" 
d="M126 460l-75 -460h78l67 385h159l14 75h-243z" />
    <glyph glyph-name="uni0434" unicode="&#x434;" horiz-adv-x="636" 
d="M347 322l80 -292h84l-138 468l-301 -467h93zM490 0l-17 -90h77l30 165h-556l-30 -165h86l16 90h394z" />
    <glyph glyph-name="uni0435" unicode="&#x435;" horiz-adv-x="500" 
d="M99 210h383l2 12l2 12q7 65 -10.5 118t-59.5 85.5t-108 32.5q-59 0 -108.5 -25t-84.5 -68.5t-52 -97.5q-4 -12 -6.5 -24t-4.5 -25q-7 -62 11 -116.5t60.5 -88t106.5 -34.5q54 0 95 14.5t73.5 41t60.5 59.5l-61 43q-19 -23 -42 -42t-50 -30t-60 -11q-46 0 -73.5 22.5
t-37.5 60t-4 81.5l7 30q8 40 31.5 71.5t57.5 50.5t75 18q39 0 62.5 -16.5t33.5 -44t8 -61.5h-297z" />
    <glyph glyph-name="uni0436" unicode="&#x436;" horiz-adv-x="655" 
d="M587 460l-223 -186l169 -274h93l-177 257l243 203h-105zM416 460h-74l-78 -460l74 1zM165 460h-92l168 -196l-272 -264h104l257 267z" />
    <glyph glyph-name="uni0437" unicode="&#x437;" horiz-adv-x="459" 
d="M245 231q45 1 84.5 12.5t66 35t32.5 60.5t-12 66.5t-51.5 47t-74.5 17.5q-46 0 -83.5 -19.5t-62 -52t-33.5 -70.5l81 -1q7 17 19 33t31 27t46 10q20 0 34 -7t21.5 -19.5t5.5 -29.5q-5 -29 -32 -44t-65 -17zM215 -9q46 0 89 17.5t73 50t36 76.5q7 45 -15.5 71.5t-62 39.5
t-86.5 14l-8 -50q29 -1 51.5 -9t34.5 -24t7 -42q-4 -23 -20.5 -40t-41.5 -25.5t-53 -8.5q-46 1 -63.5 25.5t-22.5 58.5h-78q2 -67 43 -110.5t117 -43.5z" />
    <glyph glyph-name="uni0438" unicode="&#x438;" horiz-adv-x="529" 
d="M485 377l29 125l-445 -419l-29 -124zM209 460h-81l-88 -501l101 113zM514 502l-102 -113l-67 -389h80z" />
    <glyph glyph-name="uni0439" unicode="&#x439;" horiz-adv-x="529" 
d="M485 377l29 125l-445 -419l-29 -124zM209 460h-81l-88 -501l101 113zM514 502l-102 -113l-67 -389h80zM198 686q-2 -37 11.5 -68.5t44.5 -51t79 -19.5q49 0 84 19.5t57.5 51t31.5 67.5l-71 1q-6 -16 -17 -33.5t-30.5 -29t-49.5 -11.5q-29 0 -44.5 11.5t-21 29t-5.5 33.5
h-69z" />
    <glyph glyph-name="uni043A" unicode="&#x43a;" horiz-adv-x="427" 
d="M117 460l-75 -460h77l81 460h-83zM358 460l-222 -186l169 -274h93l-166 267l232 193h-106z" />
    <glyph glyph-name="uni043B" unicode="&#x43b;" horiz-adv-x="542" 
d="M517 460h-386l-52 -300q-7 -43 -29.5 -62.5t-55.5 -24.5l-11 -72q51 3 87.5 21t59 52t31.5 86l38 225h225l-67 -385h81z" />
    <glyph glyph-name="uni043C" unicode="&#x43c;" horiz-adv-x="589" 
d="M469 0h88l-30 500l-68 -130zM249 74l12 -107l247 364l19 169zM261 -33l46 98l-127 434l-38 -159zM-25 0h92l133 360l-20 139z" />
    <glyph glyph-name="uni043D" unicode="&#x43d;" horiz-adv-x="548" 
d="M127 206h332l12 74h-332zM447 460l-75 -460h77l81 460h-83zM122 460l-76 -460h78l81 460h-83z" />
    <glyph glyph-name="uni043E" unicode="&#x43e;" horiz-adv-x="530" 
d="M45 230q-9 -64 13 -118.5t69 -87.5t114 -33q68 0 125 32.5t95.5 86.5t48.5 120q9 64 -13 118.5t-69 88t-114 33.5q-68 0 -125.5 -32.5t-95.5 -86.5t-48 -121zM126 230q8 45 34 82.5t65 60.5t85 22q45 0 73.5 -24t40.5 -61.5t5 -79.5q-8 -44 -34.5 -82t-65 -60t-84.5 -22
q-45 1 -74 24.5t-40.5 61t-4.5 78.5z" />
    <glyph glyph-name="uni043F" unicode="&#x43f;" horiz-adv-x="509" 
d="M490 460h-367l-79 -460h80l67 385h206l-67 -385h81z" />
    <glyph glyph-name="uni0440" unicode="&#x440;" 
d="M84 -219l113 679h-78l-118 -680zM533 230q9 66 -11.5 120.5t-65 87.5t-109.5 32q-46 0 -84.5 -19t-67.5 -52t-48 -76.5t-25 -92.5q-6 -46 -0.5 -89t24 -77t50.5 -54t78 -20q65 0 120.5 31.5t92.5 86.5t46 122zM452 230q-7 -47 -34 -84.5t-66 -59t-84 -20.5
q-29 1 -51.5 14.5t-37 36t-20 52t-0.5 61.5q6 35 22.5 65t40.5 52.5t52.5 35t58.5 12.5q45 0 73.5 -22.5t40.5 -60t5 -82.5z" />
    <glyph glyph-name="uni0441" unicode="&#x441;" horiz-adv-x="464" 
d="M121 230q8 45 34 82.5t65 60t85 22.5q50 0 87 -23t52 -61l15 100q-26 29 -65.5 44t-84.5 15q-67 0 -124.5 -32.5t-96 -86.5t-48.5 -121q-9 -64 13 -118.5t69 -87.5t114 -34q47 0 89.5 15.5t73.5 43.5l14 99q-27 -33 -73 -58t-100 -24q-45 1 -74 24.5t-40.5 60.5t-4.5 79z
" />
    <glyph glyph-name="uni0442" unicode="&#x442;" horiz-adv-x="272" 
d="M55 460l-13 -75h265l13 75h-265zM143 440l-72 -440h77l77 440h-82z" />
    <glyph glyph-name="uni0443" unicode="&#x443;" horiz-adv-x="427" 
d="M482 460h-93l-198 -355l34 -5l-81 360h-92l104 -391l-176 -288h94z" />
    <glyph glyph-name="uni0444" unicode="&#x444;" horiz-adv-x="569" 
d="M312 560l-110 -659h77l115 659h-82zM45 230q-9 -66 15 -120.5t76 -86.5t124 -33q75 0 136.5 31.5t101.5 86t50 122.5q10 67 -14 121.5t-76 86.5t-125 32q-74 1 -135.5 -30.5t-101.5 -86t-51 -123.5zM126 230q9 47 37 84.5t71 59.5t95 21q52 0 85.5 -22.5t47.5 -60
t6 -82.5q-8 -46 -36.5 -83.5t-71.5 -59t-96 -21.5q-51 1 -84.5 23t-47.5 59t-6 82z" />
    <glyph glyph-name="uni0445" unicode="&#x445;" horiz-adv-x="408" 
d="M359 460l-133 -158l-79 158h-84l113 -219l-207 -241h94l146 172l86 -172h84l-121 234l196 226h-95z" />
    <glyph glyph-name="uni0446" unicode="&#x446;" horiz-adv-x="548" 
d="M422 75l66 385h-77l-68 -385h-206l67 385h-80l-80 -460h375l-15 -89h70l29 164h-81z" />
    <glyph glyph-name="uni0447" unicode="&#x447;" horiz-adv-x="471" 
d="M221 141h154l13 74h-155zM369 460l-75 -460h77l81 460h-83zM180 460h-81l-22 -132q-9 -61 0.5 -102.5t44.5 -63t99 -21.5l12 74q-55 0 -70.5 29.5t-6.5 83.5z" />
    <glyph glyph-name="uni0448" unicode="&#x448;" horiz-adv-x="757" 
d="M402 75l67 385h-78l-67 -385h-187l67 385h-80l-80 -460h614l80 460h-81l-66 -385h-189z" />
    <glyph glyph-name="uni0449" unicode="&#x449;" horiz-adv-x="796" 
d="M402 75l67 385h-78l-67 -385h-187l67 385h-80l-80 -460h623l-16 -89h70l28 164h-78l67 385h-81l-66 -385h-189z" />
    <glyph glyph-name="uni044A" unicode="&#x44a;" horiz-adv-x="561" 
d="M220 217l142 -1q38 -1 57 -20t13 -52q-7 -35 -34.5 -54.5t-66.5 -19.5h-137l-10 -70h142q46 0 85.5 16t66.5 48t33 79q7 47 -11 79t-53 48.5t-80 15.5h-136zM205 386l-66 -386h77l80 460h-241l-13 -75z" />
    <glyph glyph-name="uni044B" unicode="&#x44b;" horiz-adv-x="626" 
d="M525 460l-76 -460h77l81 460h-82zM122 460l-76 -460h78l81 460h-83zM128 217l142 -1q25 0 42 -9t24.5 -25t3.5 -38q-4 -23 -18.5 -40t-35.5 -25.5t-47 -8.5h-137l-11 -70h143q46 0 85.5 16t66 48t33.5 79t-11 79t-53 48.5t-80 15.5h-136z" />
    <glyph glyph-name="uni044C" unicode="&#x44c;" horiz-adv-x="469" 
d="M122 460l-76 -460h78l81 460h-83zM128 217l142 -1q25 0 42 -9t24.5 -25t3.5 -38q-7 -35 -34.5 -54.5t-66.5 -19.5h-137l-11 -70h143q46 0 85.5 16t66 48t33.5 79t-11 79t-53 48.5t-80 15.5h-136z" />
    <glyph glyph-name="uni044D" unicode="&#x44d;" horiz-adv-x="464" 
d="M150 267l-11 -73h227l81 73h-297zM368 230q-8 -45 -34 -82t-65 -59.5t-85 -22.5q-50 -1 -87 22.5t-52 60.5l-15 -99q26 -30 65.5 -45t84.5 -14q68 0 125 32t95.5 86.5t47.5 120.5q9 64 -12.5 118.5t-68.5 88t-114 33.5q-46 0 -89 -16t-74 -42l-14 -100q27 33 72.5 58
t99.5 24q45 0 74 -23.5t41 -60.5t5 -80z" />
    <glyph glyph-name="uni044E" unicode="&#x44e;" horiz-adv-x="724" 
d="M127 206h167l13 74h-168zM122 460l-76 -460h78l81 460h-83zM239 230q-9 -64 13 -118.5t69 -87.5t114 -33q68 0 125.5 32.5t95.5 86.5t48 120q9 64 -13 118.5t-69 88t-114 33.5q-68 0 -125.5 -32.5t-95.5 -86.5t-48 -121zM320 230q8 45 34 82.5t65 60.5t85 22q45 0 74 -24
t40.5 -61.5t4.5 -79.5q-8 -44 -34.5 -82t-65 -60t-84.5 -22q-45 1 -74 24.5t-40.5 61t-4.5 78.5z" />
    <glyph glyph-name="uni044F" unicode="&#x44f;" horiz-adv-x="469" 
d="M114 0l202 239h-88l-208 -239h94zM396 0l75 460h-77l-81 -460h83zM391 254l-142 1q-24 0 -41 7.5t-25 22.5t-4 37q4 23 18 38t35.5 22.5t46.5 7.5l137 1l10 69h-142q-45 -1 -84.5 -15.5t-66 -44.5t-33.5 -77q-6 -47 12 -78t53 -46t79 -15l137 1z" />
    <glyph glyph-name="uni0450" unicode="&#x450;" horiz-adv-x="500" 
d="M99 210h383l2 12l2 12q7 65 -10.5 118t-59.5 85.5t-108 32.5q-59 0 -108.5 -25t-84.5 -68.5t-52 -97.5q-4 -12 -6.5 -24t-4.5 -25q-7 -62 11 -116.5t60.5 -88t106.5 -34.5q54 0 95 14.5t73.5 41t60.5 59.5l-61 43q-19 -23 -42 -42t-50 -30t-60 -11q-46 0 -73.5 22.5
t-37.5 60t-4 81.5l7 30q8 40 31.5 71.5t57.5 50.5t75 18q39 0 62.5 -16.5t33.5 -44t8 -61.5h-297zM178 680l154 -150l47 28l-123 161z" />
    <glyph glyph-name="uni0451" unicode="&#x451;" horiz-adv-x="500" 
d="M99 210h383l2 12l2 12q7 65 -10.5 118t-59.5 85.5t-108 32.5q-59 0 -108.5 -25t-84.5 -68.5t-52 -97.5q-4 -12 -6.5 -24t-4.5 -25q-7 -62 11 -116.5t60.5 -88t106.5 -34.5q54 0 95 14.5t73.5 41t60.5 59.5l-61 43q-19 -23 -42 -42t-50 -30t-60 -11q-46 0 -73.5 22.5
t-37.5 60t-4 81.5l7 30q8 40 31.5 71.5t57.5 50.5t75 18q39 0 62.5 -16.5t33.5 -44t8 -61.5h-297zM369 585q-1 -21 12 -37.5t35 -17.5q20 -1 40 16t21 37q2 21 -11.5 38t-34.5 18t-40.5 -16.5t-21.5 -37.5zM175 585q-1 -21 12 -37.5t35 -17.5q20 -1 40 16t21 37
q2 21 -11.5 38t-34.5 18t-40.5 -16.5t-21.5 -37.5z" />
    <glyph glyph-name="uni0453" unicode="&#x453;" horiz-adv-x="320" 
d="M126 460l-75 -460h78l67 385h159l14 75h-243zM461 677l-70 43l-171 -157l43 -32z" />
    <glyph glyph-name="uni045C" unicode="&#x45c;" horiz-adv-x="427" 
d="M117 460l-75 -460h77l81 460h-83zM358 460l-222 -186l169 -274h93l-166 267l232 193h-106zM502 677l-70 43l-170 -157l43 -32z" />
    <glyph glyph-name="uni045D" unicode="&#x45d;" horiz-adv-x="529" 
d="M485 377l29 125l-445 -419l-29 -124zM209 460h-81l-88 -501l101 113zM514 502l-102 -113l-67 -389h80zM179 697l155 -150l47 28l-124 161z" />
    <glyph glyph-name="uni045E" unicode="&#x45e;" horiz-adv-x="427" 
d="M482 460h-93l-198 -355l34 -5l-81 360h-92l104 -391l-176 -288h94zM146 670q-2 -37 11.5 -68.5t44.5 -51t79 -19.5q49 0 84.5 19.5t58 51t31.5 67.5l-72 1q-6 -16 -18 -33.5t-31.5 -29t-49.5 -11.5t-45 11.5t-20 29t-4 33.5h-69z" />
    <glyph glyph-name="Wgrave" unicode="&#x1e80;" horiz-adv-x="961" 
d="M587 797l45 30l-123 160l-76 -40zM690 183l-113 554l-286 -554l-98 517h-92l153 -737l289 544l119 -544l382 737h-95z" />
    <glyph glyph-name="wgrave" unicode="&#x1e81;" horiz-adv-x="660" 
d="M393 557l45 30l-123 160l-76 -40zM57 460l109 -497l186 335l76 -335l281 497h-91l-164 -298l-71 335l-180 -333l-59 296h-87z" />
    <glyph glyph-name="Wacute" unicode="&#x1e82;" horiz-adv-x="961" 
d="M587 797l206 150l-79 45l-177 -160zM690 183l-113 554l-286 -554l-98 517h-92l153 -737l289 544l119 -544l382 737h-95z" />
    <glyph glyph-name="wacute" unicode="&#x1e83;" horiz-adv-x="660" 
d="M393 557l206 150l-79 45l-177 -160zM57 460l109 -497l186 335l76 -335l281 497h-91l-164 -298l-71 335l-180 -333l-59 296h-87z" />
    <glyph glyph-name="Wdieresis" unicode="&#x1e84;" horiz-adv-x="961" 
d="M640 853q-2 -21 11.5 -37.5t34.5 -17.5t40.5 16t21.5 37q2 21 -11.5 38t-35.5 18q-20 1 -39.5 -16.5t-21.5 -37.5zM446 853q-2 -21 11.5 -37.5t34.5 -17.5t40.5 16t21.5 37q2 21 -11.5 38t-35.5 18q-20 1 -39.5 -16.5t-21.5 -37.5zM690 183l-113 554l-286 -554l-98 517
h-92l153 -737l289 544l119 -544l382 737h-95z" />
    <glyph glyph-name="wdieresis" unicode="&#x1e85;" horiz-adv-x="660" 
d="M446 613q-2 -21 11.5 -37.5t34.5 -17.5t40.5 16t21.5 37q2 21 -11.5 38t-35.5 18q-20 1 -39.5 -16.5t-21.5 -37.5zM252 613q-2 -21 11.5 -37.5t34.5 -17.5t40.5 16t21.5 37q2 21 -11.5 38t-35.5 18q-20 1 -39.5 -16.5t-21.5 -37.5zM57 460l109 -497l186 335l76 -335
l281 497h-91l-164 -298l-71 335l-180 -333l-59 296h-87z" />
    <glyph glyph-name="uni1E86" unicode="&#x1e86;" horiz-adv-x="961" 
d="M542 852q0 -22 16.5 -38.5t38.5 -16.5q23 0 39 16.5t16 38.5q0 23 -16 39t-39 16q-22 0 -38.5 -16t-16.5 -39zM690 183l-113 554l-286 -554l-98 517h-92l153 -737l289 544l119 -544l382 737h-95z" />
    <glyph glyph-name="uni1E87" unicode="&#x1e87;" horiz-adv-x="660" 
d="M348 612q0 -22 16.5 -38.5t38.5 -16.5q23 0 39 16.5t16 38.5q0 23 -16 39t-39 16q-22 0 -38.5 -16t-16.5 -39zM57 460l109 -497l186 335l76 -335l281 497h-91l-164 -298l-71 335l-180 -333l-59 296h-87z" />
    <glyph glyph-name="uni1E88" unicode="&#x1e88;" horiz-adv-x="961" 
d="M384 -152q0 -22 16.5 -38.5t38.5 -16.5q23 0 39 16.5t16 38.5q0 23 -16 39t-39 16q-22 0 -38.5 -16t-16.5 -39zM690 183l-113 554l-286 -554l-98 517h-92l153 -737l289 544l119 -544l382 737h-95z" />
    <glyph glyph-name="uni1E89" unicode="&#x1e89;" horiz-adv-x="660" 
d="M223 -152q0 -22 16.5 -38.5t38.5 -16.5q23 0 39 16.5t16 38.5q0 23 -16 39t-39 16q-22 0 -38.5 -16t-16.5 -39zM57 460l109 -497l186 335l76 -335l281 497h-91l-164 -298l-71 335l-180 -333l-59 296h-87z" />
    <glyph glyph-name="uni1E9E" unicode="&#x1e9e;" horiz-adv-x="716" 
d="M422 -12q-43 0 -77 8.5t-62 23.5t-53 34l40 72q35 -23 70.5 -37.5t87.5 -14.5q41 0 77 10t58.5 32.5t22.5 59.5q0 32 -16.5 50t-40.5 29t-48.5 22.5t-41 29t-16.5 48.5q0 32 17.5 52.5t43.5 35t52 27.5t43.5 30.5t17.5 43.5q0 21 -12.5 40.5t-41 31.5t-75.5 12
q-65 0 -121.5 -27.5t-95.5 -82t-52 -136.5l-63 -384h-86l65 391q12 80 45.5 139.5t82 100t107 60.5t121.5 20q64 0 112.5 -16.5t76 -49.5t27.5 -81q0 -42 -17 -70.5t-41.5 -47t-49 -31t-41.5 -23.5t-17 -25q0 -17 16 -26.5t39.5 -18.5t46.5 -24t39 -42t16 -72
q0 -57 -32.5 -100.5t-90.5 -68.5t-133 -25z" />
    <glyph glyph-name="Ygrave" unicode="&#x1ef2;" horiz-adv-x="544" 
d="M359 770l45 30l-123 160l-76 -40zM538 700l-230 -322l-119 322h-91l158 -396l-53 -304h84l51 300l297 400h-97z" />
    <glyph glyph-name="ygrave" unicode="&#x1ef3;" horiz-adv-x="427" 
d="M259 530l45 30l-123 160l-76 -40zM481 460h-91l-198 -355l32 -5l-84 360h-88l104 -392l-174 -287h91z" />
    <glyph glyph-name="uni2010" unicode="&#x2010;" horiz-adv-x="204" 
d="M12 201h196l13 74h-196z" />
    <glyph glyph-name="figuredash" unicode="&#x2012;" horiz-adv-x="573" 
d="M76 201l438 -1l12 75h-438z" />
    <glyph glyph-name="endash" unicode="&#x2013;" horiz-adv-x="718" 
d="M76 201l583 -1l13 75h-584z" />
    <glyph glyph-name="emdash" unicode="&#x2014;" horiz-adv-x="864" 
d="M76 201l729 -1l12 75h-729z" />
    <glyph glyph-name="quoteleft" unicode="&#x2018;" horiz-adv-x="267" 
d="M215 471l97 228h-56l-138 -228h97z" />
    <glyph glyph-name="quoteright" unicode="&#x2019;" horiz-adv-x="267" 
d="M198 700l-97 -229h55l138 229h-96z" />
    <glyph glyph-name="quotesinglbase" unicode="&#x201a;" horiz-adv-x="267" 
d="M102 80l-97 -229h55l138 229h-96z" />
    <glyph glyph-name="quotedblleft" unicode="&#x201c;" horiz-adv-x="461" 
d="M215 471l97 228h-56l-138 -228h97zM409 471l97 228h-56l-138 -228h97z" />
    <glyph glyph-name="quotedblright" unicode="&#x201d;" horiz-adv-x="461" 
d="M198 700l-97 -229h55l138 229h-96zM392 700l-97 -229h56l138 229h-97z" />
    <glyph glyph-name="quotedblbase" unicode="&#x201e;" horiz-adv-x="461" 
d="M97 80l-97 -229h55l138 229h-96zM291 80l-97 -229h56l138 229h-97z" />
    <glyph glyph-name="dagger" unicode="&#x2020;" 
d="M153 540l-12 -75h380l12 75h-380zM327 700l-129 -849l77 -1l133 850h-81z" />
    <glyph glyph-name="daggerdbl" unicode="&#x2021;" 
d="M88 120l-12 -75h380l13 75h-381zM153 540l-12 -75h380l12 75h-380zM327 700l-129 -849l77 -1l133 850h-81z" />
    <glyph glyph-name="bullet" unicode="&#x2022;" horiz-adv-x="291" 
d="M135 417q0 -15 7.5 -27.5t20 -20t27.5 -7.5t27.5 7.5t19.5 20t7 27.5t-7 27.5t-19.5 19.5t-27.5 7t-27.5 -7t-20 -19.5t-7.5 -27.5z" />
    <glyph glyph-name="ellipsis" unicode="&#x2026;" horiz-adv-x="873" 
d="M72 41q-1 -14 4.5 -26.5t16 -20t24.5 -8.5t27.5 6.5t23.5 20.5t11 26q2 14 -4 26.5t-16.5 20.5t-24.5 9t-27.5 -7t-23 -20.5t-11.5 -26.5zM363 41q-1 -14 4.5 -26.5t16 -20t24.5 -8.5t28 6.5t24 20.5t11 26q2 14 -4 26.5t-17 20.5t-25 9t-27.5 -7t-23 -20.5t-11.5 -26.5z
M654 41q-2 -21 11 -37.5t35 -17.5q14 -1 27.5 6.5t23.5 20.5t11 26q2 14 -4 26.5t-17 20.5t-25 9t-27.5 -7t-23 -20.5t-11.5 -26.5z" />
    <glyph glyph-name="perthousand" unicode="&#x2030;" horiz-adv-x="1098" 
d="M755 151q-6 -42 7.5 -78.5t44.5 -59t77 -22.5q47 0 85 22t63 58t31 79q6 42 -7.5 78.5t-44.5 59t-77 22.5t-84.5 -22t-63 -58t-31.5 -79zM825 150q4 24 18.5 46t36.5 36t48 13t41.5 -15t21.5 -35.5t2 -44.5q-4 -24 -18.5 -46t-36 -35.5t-48.5 -12.5q-26 1 -41.5 15
t-21 35.5t-2.5 43.5zM100 551q-6 -42 8 -78.5t45 -59t77 -22.5t84 22t63.5 58t31.5 79q6 42 -8 78.5t-45 59t-77 22.5t-84.5 -22t-63 -58t-31.5 -79zM170 550q4 24 18.5 46t36.5 36t48 13q27 -1 42.5 -15t21.5 -35.5t2 -44.5q-4 -24 -18.5 -46t-36 -35.5t-48.5 -12.5
q-26 1 -42 15t-21.5 35.5t-2.5 43.5zM386 151q-6 -42 8 -78.5t45 -59t77 -22.5t84 22t63 58t31 79q6 42 -7.5 78.5t-44.5 59t-77 22.5t-84.5 -22t-63 -58t-31.5 -79zM456 150q4 24 18.5 46t36.5 36t48 13t42 -15t22 -35.5t2 -44.5q-4 -24 -18.5 -46t-36 -35.5t-48.5 -12.5
q-26 1 -42 15t-21.5 35.5t-2.5 43.5zM637 700l-555 -700h75l558 700h-78z" />
    <glyph glyph-name="uni2031" unicode="&#x2031;" horiz-adv-x="1466" 
d="M1124 151q-6 -42 7.5 -78.5t44.5 -59t77 -22.5q47 0 85 22t63 58t31 79q6 42 -8 78.5t-45 59t-77 22.5t-84 -22t-62.5 -58t-31.5 -79zM1193 150q4 24 18.5 46t36.5 36t48 13q27 -1 42.5 -15t21.5 -35.5t2 -44.5q-4 -24 -18.5 -46t-36 -35.5t-48.5 -12.5q-26 1 -42 15
t-21.5 35.5t-2.5 43.5zM755 151q-6 -42 7.5 -78.5t44.5 -59t77 -22.5q47 0 85 22t63 58t31 79q6 42 -7.5 78.5t-44.5 59t-77 22.5t-84.5 -22t-63 -58t-31.5 -79zM825 150q4 24 18.5 46t36.5 36t48 13t41.5 -15t21.5 -35.5t2 -44.5q-4 -24 -18.5 -46t-36 -35.5t-48.5 -12.5
q-26 1 -41.5 15t-21 35.5t-2.5 43.5zM100 551q-6 -42 8 -78.5t45 -59t77 -22.5t84 22t63.5 58t31.5 79q6 42 -8 78.5t-45 59t-77 22.5t-84.5 -22t-63 -58t-31.5 -79zM170 550q4 24 18.5 46t36.5 36t48 13q27 -1 42.5 -15t21.5 -35.5t2 -44.5q-4 -24 -18.5 -46t-36 -35.5
t-48.5 -12.5q-26 1 -42 15t-21.5 35.5t-2.5 43.5zM386 151q-6 -42 8 -78.5t45 -59t77 -22.5t84 22t63 58t31 79q6 42 -7.5 78.5t-44.5 59t-77 22.5t-84.5 -22t-63 -58t-31.5 -79zM456 150q4 24 18.5 46t36.5 36t48 13t42 -15t22 -35.5t2 -44.5q-4 -24 -18.5 -46t-36 -35.5
t-48.5 -12.5q-26 1 -42 15t-21.5 35.5t-2.5 43.5zM637 700l-555 -700h75l558 700h-78z" />
    <glyph glyph-name="guilsinglleft" unicode="&#x2039;" horiz-adv-x="340" 
d="M143 259l179 185l-44 46l-223 -232l146 -238l56 44z" />
    <glyph glyph-name="guilsinglright" unicode="&#x203a;" horiz-adv-x="340" 
d="M229 252l-178 -185l44 -46l223 231l-147 238l-55 -44z" />
    <glyph glyph-name="uni203D" unicode="&#x203d;" horiz-adv-x="541" 
d="M462 500q-9 -43 -39 -77t-75 -54t-99 -23l41 -56q45 3 86.5 19t76.5 43.5t58.5 65t30.5 82.5q6 42 -4 80t-34 67t-60.5 46t-81.5 17q-53 1 -94.5 -14.5t-74.5 -41.5t-61 -59l59 -42q29 34 67 58t87 24q43 0 71 -17.5t40.5 -47.5t5.5 -70zM253 510l-38 -339h60l78 339
h-100zM169 41q-2 -21 11 -37.5t34 -17.5t40.5 16t21.5 37q2 21 -11 38t-34 18t-40.5 -16.5t-21.5 -37.5z" />
    <glyph glyph-name="fraction" unicode="&#x2044;" horiz-adv-x="684" 
d="M653 699l-622 -699h65l623 699h-66z" />
    <glyph glyph-name="uni2070" unicode="&#x2070;" horiz-adv-x="361" 
d="M136 490q5 30 15.5 60t27.5 54.5t39.5 39t50.5 14.5q27 -1 43 -16.5t22.5 -40.5t7 -54.5t-2.5 -56.5q-4 -30 -15.5 -60t-28.5 -54.5t-39.5 -39t-49.5 -13.5q-28 0 -43.5 16t-22.5 40.5t-7 54t3 56.5zM85 490q-5 -38 -1.5 -76t17 -69.5t39 -50.5t63.5 -19t69.5 18t56 48.5
t40 69.5t21.5 79q5 38 1 76t-17.5 69.5t-38.5 51t-64 19.5q-37 0 -69 -18.5t-56.5 -49t-40 -69t-20.5 -79.5z" />
    <glyph glyph-name="uni2074" unicode="&#x2074;" horiz-adv-x="375" 
d="M64 365h312l7 44h-86h-10l-177 -1zM119 365l179 217l-33 -190v-6l-18 -105h50l71 419l-22 -1l-282 -333z" />
    <glyph glyph-name="uni2075" unicode="&#x2075;" horiz-adv-x="345" 
d="M361 416q5 37 -5 69t-34 52.5t-61 20.5q-28 0 -55 -12t-48 -32l-34 -38q29 17 55.5 27.5t57.5 8.5q26 -1 43.5 -14.5t25 -34.5t3.5 -47q-4 -27 -19.5 -48.5t-38.5 -34t-52 -12.5q-34 0 -56 21t-34 48l-46 -29q19 -38 50 -63t83 -25q41 0 76.5 17.5t59 50t29.5 75.5z
M248 653l153 1l7 44h-193l-97 -228l77 57z" />
    <glyph glyph-name="uni2076" unicode="&#x2076;" horiz-adv-x="336" 
d="M127 416q4 27 20 49.5t39.5 36.5t50.5 13t44.5 -15t24.5 -36t3 -48t-20 -48.5t-39.5 -36t-50.5 -12.5t-44.5 14.5t-24.5 35.5t-3 47zM288 697l-170 -194q-14 -17 -25 -39t-15 -47q-5 -39 8 -72t41.5 -52.5t68.5 -19.5t74.5 19t58 51.5t28.5 72.5q5 34 -6 65t-34.5 51
t-58.5 20q-19 1 -35 -4.5t-30 -16.5l4 -5l157 171h-66z" />
    <glyph glyph-name="uni2077" unicode="&#x2077;" horiz-adv-x="344" 
d="M113 653l210 -1l-235 -371h54l267 419h-288z" />
    <glyph glyph-name="uni2078" unicode="&#x2078;" horiz-adv-x="312" 
d="M118 600q-4 -31 7 -55t35 -37.5t56 -13.5q33 0 60.5 13t46 37t22.5 55q4 29 -7.5 53t-35 39t-54.5 15t-59 -14.5t-47 -38.5t-24 -53zM165 593q3 18 15 33.5t29 25.5t35 9q28 -1 42 -21t10 -46q-3 -18 -15 -33.5t-29 -25t-35 -8.5q-17 1 -30 10t-18.5 24t-3.5 32zM69 395
q-5 -32 8 -59.5t40 -44t62 -16.5q36 0 67 16t52.5 43.5t26.5 59.5q5 36 -9 63t-40.5 42t-60.5 15t-66 -15t-53.5 -41.5t-26.5 -62.5zM118 400q4 22 18.5 40.5t35.5 30t42 10.5q32 -1 50 -25.5t13 -55.5q-5 -34 -34 -57.5t-62 -22.5q-31 1 -49.5 24t-13.5 56z" />
    <glyph glyph-name="uni2079" unicode="&#x2079;" horiz-adv-x="336" 
d="M340 564q-4 -26 -20 -49t-39.5 -36.5t-50.5 -12.5t-44.5 15t-24.5 36t-3 47q4 27 20 49t39.5 36t50.5 13q27 0 44.5 -14t24.5 -36t3 -48zM178 283l170 194q15 18 26 40t15 47q6 39 -7.5 72t-42 52.5t-68.5 19.5t-75 -19t-57.5 -51.5t-28.5 -72.5q-4 -34 6.5 -65t34 -51
t58.5 -21q20 0 35.5 5.5t29.5 16.5l-5 5l-156 -171z" />
    <glyph glyph-name="uni2080" unicode="&#x2080;" horiz-adv-x="361" 
d="M88 210q5 30 16 60t28 54.5t39.5 39t49.5 14.5q28 -1 43.5 -16.5t22 -40.5t7 -54.5t-2.5 -56.5q-4 -30 -15.5 -60t-28.5 -54.5t-39.5 -39t-49.5 -13.5q-28 0 -43.5 16t-22.5 40.5t-7 54t3 56.5zM37 210q-4 -38 -0.5 -76t17 -69.5t38.5 -50.5t63 -19t69.5 18t56 48.5
t40 69.5t21.5 79q5 38 1 76t-17.5 69.5t-38.5 51t-63 19.5t-69.5 -18.5t-56 -49t-40 -69t-21.5 -79.5z" />
    <glyph glyph-name="uni2081" unicode="&#x2081;" horiz-adv-x="305" 
d="M118 339l93 26l-60 -363h50l74 426l-149 -37z" />
    <glyph glyph-name="uni2082" unicode="&#x2082;" horiz-adv-x="336" 
d="M-2 3h288l7 47l-182 1l151 135q26 25 47 53.5t26 62.5q5 30 -5 59t-35 48.5t-66 19.5q-44 1 -77.5 -20t-54.5 -55t-30 -75h51q7 27 21.5 51t36.5 38.5t50 12.5q23 -1 37 -12t19.5 -28t2.5 -35q-4 -27 -22 -49.5t-39 -42.5z" />
    <glyph glyph-name="uni2083" unicode="&#x2083;" horiz-adv-x="303" 
d="M145 208q37 3 69.5 15.5t55 35t27.5 55.5q5 29 -5.5 54.5t-33.5 41.5t-57 16q-52 1 -87 -31t-46 -77l49 -1q8 25 29.5 45t51.5 18q29 -1 41 -21t7 -46q-4 -21 -17.5 -36.5t-33.5 -24.5t-45 -12zM129 -5q36 0 67 14.5t52 41t26 60.5q5 30 -4 52t-27 35.5t-42.5 21
t-52.5 8.5l-6 -33q25 -2 45 -10t30.5 -24.5t6.5 -42.5q-5 -32 -31.5 -54t-60.5 -21t-50 20.5t-16 47.5h-50q-2 -32 10 -58.5t38 -42t65 -15.5z" />
    <glyph glyph-name="uni2084" unicode="&#x2084;" horiz-adv-x="375" 
d="M16 85h312l7 44h-86h-10l-176 -1zM71 85l179 217l-32 -190l-1 -6l-18 -106h50l72 420l-22 -1l-283 -333z" />
    <glyph glyph-name="uni2085" unicode="&#x2085;" horiz-adv-x="345" 
d="M314 136q5 37 -5 69t-34 52.5t-62 20.5q-27 0 -54.5 -12t-48.5 -32l-34 -38q29 17 55.5 27.5t57.5 8.5q26 -1 43.5 -14.5t25 -34.5t3.5 -47q-4 -27 -19.5 -48.5t-38.5 -34t-52 -12.5q-34 0 -56 21t-34 48l-46 -29q19 -38 50 -63t83 -25q41 0 76.5 17.5t59.5 50t30 75.5z
M201 373l152 1l7 44h-193l-96 -228l76 57z" />
    <glyph glyph-name="uni2086" unicode="&#x2086;" horiz-adv-x="336" 
d="M78 136q4 27 20 49.5t39.5 36.5t50.5 13t44.5 -15t24.5 -36t3 -48t-20 -48.5t-39.5 -36t-50.5 -12.5t-44.5 14.5t-24.5 35.5t-3 47zM240 417l-170 -194q-15 -17 -26 -39t-15 -47q-5 -39 8 -72t41.5 -52.5t68.5 -19.5q41 0 75.5 19t57.5 51.5t28 72.5q5 34 -6 65t-34.5 51
t-58.5 20q-19 1 -35 -4.5t-30 -16.5l5 -5l156 171h-65z" />
    <glyph glyph-name="uni2087" unicode="&#x2087;" horiz-adv-x="344" 
d="M65 373l210 -1l-235 -372h54l268 420h-289z" />
    <glyph glyph-name="uni2088" unicode="&#x2088;" horiz-adv-x="312" 
d="M70 320q-4 -31 7 -55t35 -37.5t56 -13.5q33 0 60.5 13t46 37t22.5 55q4 29 -7.5 53t-35 39t-54.5 15t-59.5 -14.5t-47 -38.5t-23.5 -53zM118 313q3 18 14.5 33.5t28.5 25.5t35 9q28 -1 42 -21t10 -46q-3 -18 -15 -33.5t-29 -25t-35 -8.5q-17 1 -29.5 10t-18 24t-3.5 32z
M21 115q-5 -32 8 -59.5t40 -44t62 -16.5q36 0 67 16t52.5 43.5t26.5 59.5q5 36 -9 63t-40.5 42t-60.5 15t-66 -15t-53.5 -41.5t-26.5 -62.5zM70 120q4 22 18.5 40.5t35.5 30t42 10.5q32 -1 50.5 -25.5t13.5 -55.5q-5 -34 -34.5 -57.5t-61.5 -22.5t-50.5 24t-13.5 56z" />
    <glyph glyph-name="uni2089" unicode="&#x2089;" horiz-adv-x="336" 
d="M276 284q-4 -26 -20.5 -49t-40 -36.5t-50.5 -12.5q-26 1 -43.5 15t-24.5 36t-4 47q5 27 21 49t39.5 36t50.5 13q27 0 44 -14t24.5 -36t3.5 -48zM114 3l170 194q15 18 25.5 40t14.5 47q6 39 -7 72t-41.5 52.5t-68.5 19.5t-75 -19t-58 -51.5t-29 -72.5q-4 -34 6.5 -65
t34.5 -51t59 -21q19 0 35 5.5t30 16.5l-5 5l-156 -171z" />
    <glyph glyph-name="Euro" unicode="&#x20ac;" horiz-adv-x="563" 
d="M57 408h487l8 47h-487zM36 288h462l8 47h-462zM184 350q8 54 30 104.5t56 90t77.5 62.5t95.5 23q41 0 73.5 -16.5t59.5 -45.5l16 101q-32 19 -67.5 30t-73.5 11q-69 0 -128.5 -29.5t-106 -80t-76.5 -115t-40 -135.5q-9 -66 0.5 -130t38 -116t77 -82.5t117.5 -30.5
q41 0 79 11t72 29l16 100q-34 -26 -74.5 -43.5t-84.5 -16.5q-52 0 -85.5 25t-51.5 66t-22.5 90t2.5 98z" />
    <glyph glyph-name="ruble" unicode="&#x20bd;" horiz-adv-x="618" 
d="M223 700l-120 -700h83l120 700h-83zM265 620h123q83 0 116 -36t27 -89q-5 -39 -28.5 -67t-64 -43t-95.5 -15h-138v-80h133q68 0 127.5 22t99 67.5t46.5 115.5q11 104 -51.5 154.5t-171.5 50.5h-123v-80zM203 106h196l13 74h-196zM48 294h196l13 74h-196zM15 106h196
l13 74h-196z" />
    <glyph glyph-name="trademark" unicode="&#x2122;" horiz-adv-x="645" 
d="M117 661l86 -1l-52 -309h42l53 309l88 1l6 39h-217zM620 602l-15 -251l41 -1l25 373zM396 717l-104 -366h42l70 248zM672 722l-185 -256l-91 251l-14 -82l93 -254l179 248z" />
    <glyph glyph-name="uni2150" unicode="&#x2150;" horiz-adv-x="817" 
d="M642 699l-623 -699h66l622 699h-65zM107 612l93 26l-61 -363h51l73 426l-148 -37zM539 373l210 -1l-235 -372h54l267 420h-288z" />
    <glyph glyph-name="uni2151" unicode="&#x2151;" horiz-adv-x="761" 
d="M642 699l-623 -699h66l622 699h-65zM107 612l93 26l-61 -363h51l73 426l-148 -37zM717 284q-4 -26 -20 -49t-39.5 -36.5t-50.5 -12.5t-44.5 15t-24.5 36t-3 47q4 27 20 49t39.5 36t50.5 13q27 0 44.5 -14t24.5 -36t3 -48zM556 3l170 194q14 18 25 40t15 47q6 39 -7.5 72
t-41.5 52.5t-69 19.5q-40 0 -74.5 -19t-57.5 -51.5t-29 -72.5q-4 -34 6.5 -65t34 -51t58.5 -21q20 0 36 5.5t29 16.5l-4 5l-157 -171z" />
    <glyph glyph-name="uni2152" unicode="&#x2152;" horiz-adv-x="1048" 
d="M642 699l-623 -699h66l622 699h-65zM107 612l93 26l-61 -363h51l73 426l-148 -37zM505 339l93 26l-61 -363h50l74 426l-148 -37zM775 210q5 30 16 60t28 54.5t39.5 39t49.5 14.5q28 -1 43.5 -16.5t22.5 -40.5t7 -54.5t-3 -56.5q-4 -30 -15 -60t-28 -54.5t-39.5 -39
t-50.5 -13.5q-27 0 -43 16t-22.5 40.5t-7 54t2.5 56.5zM724 210q-4 -38 -0.5 -76t17 -69.5t38.5 -50.5t63 -19t69.5 18t56 48.5t40 69.5t21.5 79q5 38 1 76t-17.5 69.5t-38.5 51t-63 19.5t-69.5 -18.5t-56 -49t-40 -69t-21.5 -79.5z" />
    <glyph glyph-name="onethird" unicode="&#x2153;" horiz-adv-x="733" 
d="M642 699l-623 -699h66l622 699h-65zM107 612l93 26l-61 -363h51l73 426l-148 -37zM570 208q37 3 69.5 15.5t55 35t27.5 55.5q5 29 -5.5 54.5t-33.5 41.5t-57 16q-52 1 -87 -31t-46 -77l49 -1q8 25 29.5 45t51.5 18q29 -1 41 -21t7 -46q-4 -21 -17.5 -36.5t-33.5 -24.5
t-45 -12zM554 -5q36 0 67 14.5t52 41t26 60.5q5 30 -3.5 52t-26.5 35.5t-43 21t-53 8.5l-6 -33q25 -2 45 -10t30.5 -24.5t6.5 -42.5q-5 -32 -31 -54t-61 -21q-34 1 -50 20.5t-16 47.5h-50q-2 -32 10 -58.5t38 -42t65 -15.5z" />
    <glyph glyph-name="twothirds" unicode="&#x2154;" horiz-adv-x="856" 
d="M765 699l-623 -699h66l623 699h-66zM50 283h288l8 47l-183 1l152 135q26 25 46.5 53.5t26.5 62.5q5 30 -5 59t-35 48.5t-66 19.5q-44 1 -77.5 -20t-54.5 -55t-30 -75h51q7 27 21.5 50.5t36.5 38t50 12.5q23 -1 36.5 -12t19 -27.5t2.5 -34.5q-4 -27 -21.5 -49.5
t-38.5 -42.5zM693 208q37 3 69.5 15.5t55 35t27.5 55.5q5 29 -5.5 54.5t-33.5 41.5t-57 16q-52 1 -87 -31t-46 -77l50 -1q8 25 29 45t51 18q29 -1 41 -21t8 -46q-4 -21 -17.5 -36.5t-33.5 -24.5t-45 -12zM677 -5q36 0 67.5 14.5t52.5 41t26 60.5q5 30 -4 52t-27 35.5t-43 21
t-53 8.5l-5 -33q24 -2 44 -10t30.5 -24.5t6.5 -42.5q-5 -32 -31 -54t-61 -21q-34 1 -50 20.5t-16 47.5h-50q-2 -32 10.5 -58.5t38.5 -42t64 -15.5z" />
    <glyph glyph-name="uni2155" unicode="&#x2155;" horiz-adv-x="722" 
d="M642 699l-623 -699h66l622 699h-65zM107 612l93 26l-61 -363h51l73 426l-148 -37zM690 136q5 37 -5 69t-34 52.5t-61 20.5q-28 0 -55 -12t-48 -32l-34 -38q29 17 55.5 27.5t56.5 8.5q27 -1 44.5 -14.5t25 -34.5t3.5 -47q-4 -27 -19.5 -48.5t-38.5 -34t-52 -12.5
q-34 0 -56.5 21t-34.5 48l-45 -29q18 -38 49.5 -63t83.5 -25q41 0 76.5 17.5t59 50t29.5 75.5zM577 373l153 1l7 44h-193l-97 -228l76 57z" />
    <glyph glyph-name="uni2156" unicode="&#x2156;" horiz-adv-x="845" 
d="M765 699l-623 -699h66l623 699h-66zM50 283h288l8 47l-183 1l152 135q26 25 46.5 53.5t26.5 62.5q5 30 -5 59t-35 48.5t-66 19.5q-44 1 -77.5 -20t-54.5 -55t-30 -75h51q7 27 21.5 50.5t36.5 38t50 12.5q23 -1 36.5 -12t19 -27.5t2.5 -34.5q-4 -27 -21.5 -49.5
t-38.5 -42.5zM813 136q5 37 -5 69t-34 52.5t-61 20.5q-28 0 -55 -12t-48 -32l-34 -38q29 17 55.5 27.5t57.5 8.5q26 -1 43.5 -14.5t25 -34.5t3.5 -47q-4 -27 -19.5 -48.5t-38.5 -34t-52 -12.5q-34 0 -56 21t-34 48l-46 -29q19 -38 50 -63t83 -25q41 0 76.5 17.5t59 50
t29.5 75.5zM700 373l153 1l7 44h-193l-97 -228l77 57z" />
    <glyph glyph-name="uni2157" unicode="&#x2157;" horiz-adv-x="806" 
d="M726 699l-622 -699h65l623 699h-66zM198 488q37 3 69.5 15.5t54.5 35t28 55.5q5 29 -6 54.5t-34 41.5t-57 16q-52 1 -86.5 -31t-45.5 -77l49 -1q8 25 29.5 45t50.5 18q29 -1 41 -21t8 -46q-4 -21 -17.5 -36.5t-33.5 -24.5t-45 -12zM182 275q36 0 67 14.5t52 41t26 60.5
q5 30 -4 52t-27 35.5t-42.5 21t-52.5 8.5l-6 -33q25 -2 45 -10t30.5 -24.5t5.5 -42.5q-4 -32 -30.5 -54t-60.5 -21t-50 20.5t-16 47.5h-51q-1 -32 11 -58.5t38 -42t65 -15.5zM775 136q5 37 -5 69t-34 52.5t-62 20.5q-27 0 -54.5 -12t-48.5 -32l-34 -38q29 17 55.5 27.5
t57.5 8.5q26 -1 43.5 -14.5t25 -34.5t3.5 -47q-4 -27 -19.5 -48.5t-38.5 -34t-52 -12.5q-34 0 -56 21t-34 48l-46 -29q19 -38 50 -63t83 -25q41 0 76.5 17.5t59.5 50t30 75.5zM661 373l153 1l7 44h-193l-96 -228l76 57z" />
    <glyph glyph-name="uni2158" unicode="&#x2158;" horiz-adv-x="840" 
d="M760 699l-622 -699h65l623 699h-66zM64 365h312l7 44h-86h-10l-177 -1zM119 365l179 217l-33 -190v-6l-18 -105h50l71 419l-22 -1l-282 -333zM809 136q5 37 -5 69t-34 52.5t-62 20.5q-27 0 -54.5 -12t-48.5 -32l-34 -38q29 17 55.5 27.5t57.5 8.5q26 -1 43.5 -14.5
t25 -34.5t3.5 -47q-4 -27 -19.5 -48.5t-38.5 -34t-52 -12.5q-34 0 -56 21t-34 48l-46 -29q19 -38 50 -63t83 -25q41 0 76.5 17.5t59.5 50t30 75.5zM695 373l153 1l7 44h-193l-96 -228l76 57z" />
    <glyph glyph-name="uni2159" unicode="&#x2159;" horiz-adv-x="712" 
d="M642 699l-623 -699h66l622 699h-65zM107 612l93 26l-61 -363h51l73 426l-148 -37zM455 136q5 27 21 49.5t39.5 36.5t50.5 13t44 -15t24.5 -36t3.5 -48t-20.5 -48.5t-40 -36t-50.5 -12.5q-26 1 -43.5 14.5t-24.5 35.5t-4 47zM617 417l-170 -194q-14 -17 -25 -39t-15 -47
q-6 -39 7 -72t42 -52.5t69 -19.5t74.5 19t58 51.5t28.5 72.5q5 34 -6 65t-35 51t-59 20q-19 1 -34.5 -4.5t-29.5 -16.5l4 -5l157 171h-66z" />
    <glyph glyph-name="uni215A" unicode="&#x215a;" horiz-adv-x="831" 
d="M760 699l-622 -699h65l623 699h-66zM361 416q5 37 -5 69t-34 52.5t-61 20.5q-28 0 -55 -12t-48 -32l-34 -38q29 17 55.5 27.5t57.5 8.5q26 -1 43.5 -14.5t25 -34.5t3.5 -47q-4 -27 -19.5 -48.5t-38.5 -34t-52 -12.5q-34 0 -56 21t-34 48l-46 -29q19 -38 50 -63t83 -25
q41 0 76.5 17.5t59 50t29.5 75.5zM248 653l153 1l7 44h-193l-97 -228l77 57zM574 136q4 27 20 49.5t39.5 36.5t50.5 13t44.5 -15t24.5 -36t3 -48t-20 -48.5t-39.5 -36t-50.5 -12.5t-44.5 14.5t-24.5 35.5t-3 47zM735 417l-170 -194q-14 -17 -25 -39t-15 -47q-5 -39 8 -72
t41.5 -52.5t68.5 -19.5q41 0 75.5 19t57.5 51.5t28 72.5q5 34 -6 65t-34.5 51t-58.5 20q-19 1 -35 -4.5t-30 -16.5l5 -5l156 171h-66z" />
    <glyph glyph-name="oneeighth" unicode="&#x215b;" horiz-adv-x="738" 
d="M642 699l-623 -699h66l622 699h-65zM107 612l93 26l-61 -363h51l73 426l-148 -37zM496 320q-4 -31 7 -55t34.5 -37.5t55.5 -13.5q33 0 60.5 13t46 37t22.5 55q4 29 -7.5 53t-35 39t-54.5 15t-59 -14.5t-46.5 -38.5t-23.5 -53zM543 313q3 18 14.5 33.5t28.5 25.5t36 9
q28 -1 41.5 -21t9.5 -46q-3 -18 -15 -33.5t-29 -25t-35 -8.5q-17 1 -29.5 10t-18 24t-3.5 32zM446 115q-5 -32 8 -59.5t40 -44t62 -16.5q36 0 67 16t52.5 43.5t26.5 59.5q4 27 -3 49t-22.5 38t-37 24.5t-47.5 8.5q-34 0 -66 -15t-53.5 -41.5t-26.5 -62.5zM495 120
q4 22 18.5 40.5t35.5 30t42 10.5q32 -1 50.5 -25.5t13.5 -55.5q-5 -34 -34.5 -57.5t-61.5 -22.5t-50.5 24t-13.5 56z" />
    <glyph glyph-name="threeeighths" unicode="&#x215c;" horiz-adv-x="822" 
d="M726 699l-622 -699h65l623 699h-66zM198 488q37 3 69.5 15.5t54.5 35t28 55.5q5 29 -6 54.5t-34 41.5t-57 16q-52 1 -86.5 -31t-45.5 -77l49 -1q8 25 29.5 45t50.5 18q29 -1 41 -21t8 -46q-4 -21 -17.5 -36.5t-33.5 -24.5t-45 -12zM182 275q36 0 67 14.5t52 41t26 60.5
q5 30 -4 52t-27 35.5t-42.5 21t-52.5 8.5l-6 -33q25 -2 45 -10t30.5 -24.5t5.5 -42.5q-4 -32 -30.5 -54t-60.5 -21t-50 20.5t-16 47.5h-51q-1 -32 11 -58.5t38 -42t65 -15.5zM580 320q-4 -31 7 -55t34.5 -37.5t55.5 -13.5q33 0 60.5 13t46.5 37t23 55q4 29 -7.5 53t-35 39
t-55.5 15q-31 0 -59 -14.5t-46.5 -38.5t-23.5 -53zM627 313q3 18 14.5 33.5t28.5 25.5t36 9q28 -1 41.5 -21t9.5 -46q-2 -18 -14 -33.5t-29 -25t-35 -8.5q-17 1 -30 10t-18.5 24t-3.5 32zM530 115q-4 -32 9 -59.5t39.5 -44t61.5 -16.5q36 0 67.5 16t52.5 43.5t26 59.5
q5 36 -8.5 63t-40 42t-61.5 15q-34 0 -66 -15t-53.5 -41.5t-26.5 -62.5zM580 120q4 22 18.5 40.5t35.5 30t42 10.5q32 -1 50 -25.5t13 -55.5q-5 -34 -34 -57.5t-62 -22.5q-31 1 -49.5 24t-13.5 56z" />
    <glyph glyph-name="fiveeighths" unicode="&#x215d;" horiz-adv-x="856" 
d="M760 699l-622 -699h65l623 699h-66zM361 416q5 37 -5 69t-34 52.5t-61 20.5q-28 0 -55 -12t-48 -32l-34 -38q29 17 55.5 27.5t57.5 8.5q26 -1 43.5 -14.5t25 -34.5t3.5 -47q-4 -27 -19.5 -48.5t-38.5 -34t-52 -12.5q-34 0 -56 21t-34 48l-46 -29q19 -38 50 -63t83 -25
q41 0 76.5 17.5t59 50t29.5 75.5zM248 653l153 1l7 44h-193l-97 -228l77 57zM614 320q-4 -31 7 -55t34.5 -37.5t55.5 -13.5q33 0 60.5 13t46.5 37t23 55q4 29 -7.5 53t-35 39t-55.5 15q-31 0 -59 -14.5t-46.5 -38.5t-23.5 -53zM661 313q3 18 14.5 33.5t28.5 25.5t36 9
q28 -1 41.5 -21t9.5 -46q-2 -18 -14 -33.5t-29 -25t-35 -8.5q-17 1 -30 10t-18.5 24t-3.5 32zM564 115q-4 -32 9 -59.5t39.5 -44t61.5 -16.5q36 0 67.5 16t52.5 43.5t26 59.5q4 27 -3 49t-22.5 38t-37 24.5t-47.5 8.5q-34 0 -66 -15t-53.5 -41.5t-26.5 -62.5zM614 120
q4 22 18.5 40.5t35 30t41.5 10.5q32 -1 50.5 -25.5t13.5 -55.5q-5 -34 -34 -57.5t-62 -22.5q-31 1 -49.5 24t-13.5 56z" />
    <glyph glyph-name="seveneighths" unicode="&#x215e;" horiz-adv-x="749" 
d="M653 699l-622 -699h65l623 699h-66zM113 653l210 -1l-235 -371h54l267 419h-288zM507 320q-4 -31 7 -55t35 -37.5t56 -13.5q33 0 60.5 13t46 37t22.5 55q4 29 -7.5 53t-35 39t-54.5 15t-59 -14.5t-47 -38.5t-24 -53zM554 313q3 18 15 33.5t29 25.5t35 9q28 -1 42 -21
t10 -46q-3 -18 -15 -33.5t-29 -25t-35 -8.5q-17 1 -30 10t-18.5 24t-3.5 32zM458 115q-5 -32 8 -59.5t39.5 -44t61.5 -16.5q36 0 67.5 16t52.5 43.5t26 59.5q5 36 -8.5 63t-40 42t-60.5 15t-66 -15t-53.5 -41.5t-26.5 -62.5zM507 120q4 22 18.5 40.5t35.5 30t42 10.5
q32 -1 50 -25.5t13 -55.5q-5 -34 -34 -57.5t-62 -22.5q-31 1 -49.5 24t-13.5 56z" />
    <glyph glyph-name="partialdiff" unicode="&#x2202;" horiz-adv-x="561" 
d="M256 -10q62 0 110.5 24t82.5 64.5t52 91.5t18 105q0 40 -9 80.5t-28.5 82.5t-50.5 87.5t-75 95t-102 104.5l-48 -56q43 -37 75.5 -71.5t57.5 -68.5t43.5 -69t33.5 -74h41q-43 35 -82.5 53t-84.5 18t-89 -18.5t-79.5 -52.5t-57 -80t-21.5 -101q0 -65 26.5 -113.5t74.5 -75
t112 -26.5zM256 67q-58 0 -95 37.5t-37 100.5q0 39 15.5 73.5t41.5 60.5t58.5 41t66.5 15q38 0 67 -16t45.5 -47.5t16.5 -76.5q0 -35 -13 -68.5t-36.5 -60.5t-56.5 -43t-73 -16z" />
    <glyph glyph-name="emptyset" unicode="&#x2205;" horiz-adv-x="600" 
d="M275 28q54 0 98.5 19.5t77 53t50.5 75.5t18 86q0 52 -23.5 96t-66 71t-99.5 27q-48 0 -92 -18.5t-78 -50.5t-54 -74.5t-20 -90.5q0 -51 23.5 -95.5t66.5 -71.5t99 -27zM275 90q-39 0 -67.5 18.5t-44 49t-15.5 64.5q0 47 26 86t67.5 62.5t88.5 23.5q40 0 68 -18.5
t43.5 -48.5t15.5 -65q0 -40 -22.5 -79.5t-63.5 -66t-96 -26.5zM109 40l420 368l-38 36l-419 -368z" />
    <glyph glyph-name="product" unicode="&#x220f;" horiz-adv-x="600" 
d="M130 0h80l110 630h120l-110 -630h80l110 630h85l10 70h-450l-10 -70h85z" />
    <glyph glyph-name="summation" unicode="&#x2211;" horiz-adv-x="600" 
d="M55 0h400l12 72h-279l181 280l-93 276h284l12 72h-400l114 -343z" />
    <glyph glyph-name="minus" unicode="&#x2212;" horiz-adv-x="573" 
d="M76 201l438 -1l12 75h-438z" />
    <glyph glyph-name="uni2215" unicode="&#x2215;" horiz-adv-x="500" 
d="M498 700l-536 -849h79l539 849h-82z" />
    <glyph glyph-name="uni2219" unicode="&#x2219;" horiz-adv-x="291" 
d="M136 416q-1 -14 4.5 -26.5t16 -20t24.5 -8.5t27.5 6.5t23.5 20.5t11 26q2 14 -4 26.5t-16.5 20.5t-24.5 9t-27.5 -7t-23 -20.5t-11.5 -26.5z" />
    <glyph glyph-name="radical" unicode="&#x221a;" horiz-adv-x="600" 
d="M165 -200l-62 404l70 -28l-134 -32l-4 57l138 33l29 -281l-38 20l250 727h158l-10 -72h-152l79 54z" />
    <glyph glyph-name="infinity" unicode="&#x221e;" horiz-adv-x="750" 
d="M154 48q91 0 205 120q37 -60 77.5 -90t86.5 -30q45 0 87.5 25.5t73 67t38.5 89.5q8 49 -8.5 89.5t-50.5 65.5t-79 25q-91 0 -204 -120q-73 120 -165 120q-45 0 -87.5 -25t-73 -65.5t-38.5 -89.5q-8 -48 8.5 -89.5t50.5 -67t79 -25.5zM178 126q-25 0 -44.5 15t-28.5 38.5
t-5 50.5q5 28 22 51t41.5 37.5t49.5 14.5q33 0 62.5 -26.5t51.5 -76.5q-40 -50 -78 -77t-71 -27zM525 126q-33 0 -62 27.5t-51 76.5q38 50 76.5 76.5t71.5 26.5q25 0 44.5 -14.5t29 -37.5t4.5 -51q-4 -27 -21.5 -50.5t-42 -38.5t-49.5 -15z" />
    <glyph glyph-name="integral" unicode="&#x222b;" horiz-adv-x="600" 
d="M126 -200q37 -1 68 18.5t54.5 56t34.5 87.5l147 658q10 44 28 67.5t40 23.5q9 0 18 -5.5t22 -20.5l53 62q-22 23 -40.5 32t-41.5 10q-37 1 -68.5 -18.5t-54 -56.5t-34.5 -88l-147 -658q-10 -43 -27.5 -66.5t-40.5 -23.5q-9 0 -17.5 5.5t-22.5 20.5l-53 -62
q22 -22 41 -31.5t41 -10.5z" />
    <glyph glyph-name="approxequal" unicode="&#x2248;" horiz-adv-x="600" 
d="M416 372q-25 0 -52.5 12t-58.5 36q-22 17 -40 25t-41 8q-22 0 -37.5 -10t-22.5 -27.5t-4 -39.5l-73 5q-4 35 15.5 68.5t54.5 55.5t75 22q29 0 58 -13.5t57 -34.5q23 -16 40.5 -24t32.5 -8q27 0 42 23t8 53l78 -5q3 -37 -15 -70.5t-49 -54.5t-68 -21zM375 122
q-25 0 -53 12t-59 36q-22 17 -40 25t-41 8q-22 0 -37.5 -10t-22.5 -27.5t-4 -39.5l-73 5q-4 35 16 68.5t55 55.5t75 22q29 0 60.5 -13.5t59.5 -34.5q22 -16 37 -24t30 -8q27 0 42 23t8 53l78 -5q3 -37 -14.5 -70.5t-48.5 -54.5t-68 -21z" />
    <glyph glyph-name="notequal" unicode="&#x2260;" horiz-adv-x="600" 
d="M180 34l-59 38l313 420l58 -38zM44 140l12 75h485l-12 -75h-485zM69 290l12 75h485l-12 -75h-485z" />
    <glyph glyph-name="lessequal" unicode="&#x2264;" horiz-adv-x="600" 
d="M-5 0l14 80h510l-14 -80h-510zM524 115l-473 220l8 45l547 220l-14 -80l-404 -158l350 -167z" />
    <glyph glyph-name="greaterequal" unicode="&#x2265;" horiz-adv-x="600" 
d="M20 0l14 80h510l-14 -80h-510zM39 115l14 80l404 158l-350 167l14 80l473 -220l-8 -45z" />
    <glyph glyph-name="lozenge" unicode="&#x25ca;" horiz-adv-x="600" 
d="M264 15l-149 341l263 340l137 -340zM287 172l137 184l-75 184l-143 -184z" />
    <glyph glyph-name="uniFF10" unicode="&#xff10;" horiz-adv-x="563" 
d="M145 350q8 51 25.5 101t45.5 90.5t65.5 64.5t83.5 24q37 -1 61 -18t37.5 -46t19 -65.5t5 -75t-4.5 -75.5q-7 -51 -25 -101t-45.5 -90.5t-65 -64.5t-83.5 -23q-37 0 -61 17.5t-38 46.5t-19.5 65t-5 75t4.5 75zM61 350q-6 -50 -4 -101t14.5 -97.5t36 -82.5t60 -57t88.5 -21
q63 0 116 30t93.5 81.5t66.5 115.5t35 132q6 50 4 101.5t-14 97.5t-35.5 82.5t-60.5 57.5t-88 21q-64 0 -117 -30t-93 -81.5t-66 -116t-36 -132.5z" />
    <glyph glyph-name="uniFF11" unicode="&#xff11;" horiz-adv-x="563" 
d="M179 562l159 45l-104 -607h84l122 711l-245 -60z" />
    <glyph glyph-name="uniFF12" unicode="&#xff12;" horiz-adv-x="563" 
d="M-2 0h481l14 80l-310 1l256 226q44 41 77.5 88.5t43.5 103.5q9 50 -7.5 98.5t-58 81t-109.5 32.5q-73 1 -129 -33t-92 -91t-49 -126h83q10 47 34 86t61 62t84 22q39 -1 62.5 -19.5t33 -46.5t4.5 -59q-5 -29 -20 -55.5t-36 -50.5t-45 -47z" />
    <glyph glyph-name="uniFF13" unicode="&#xff13;" horiz-adv-x="563" 
d="M294 346q47 2 89 14.5t76.5 35t57.5 55t30 73.5q8 49 -10 91t-56.5 68.5t-94.5 26.5q-57 0 -102.5 -24t-76 -65.5t-41.5 -93.5h81q8 29 27 53t46 39t60 14q34 0 53 -16t26 -41t2 -55q-7 -35 -29 -61.5t-55 -41.5t-75 -18zM266 -9q61 0 112.5 24.5t86 68t43.5 101.5
q8 50 -6 86.5t-44 60t-71 35.5t-88 13l-9 -55q31 -2 57.5 -10.5t46 -24t28 -39.5t2.5 -56q-6 -36 -27 -64t-53 -44t-71 -16q-38 0 -63.5 15t-37.5 41t-10 58h-84q-5 -54 16 -98t65 -70t107 -26z" />
    <glyph glyph-name="uniFF14" unicode="&#xff14;" horiz-adv-x="563" 
d="M12 141l521 -1l13 75h-143h-17h-293zM104 141l300 365l-54 -319l-2 -11l-31 -176h84l120 700l-36 -1l-473 -558h92z" />
    <glyph glyph-name="uniFF15" unicode="&#xff15;" horiz-adv-x="563" 
d="M530 230q8 61 -8.5 114.5t-56 87.5t-102.5 34q-46 0 -91.5 -19t-80.5 -54l-57 -64q50 29 93 46t94 15q45 -1 74.5 -23t42 -58t5.5 -79q-8 -45 -32.5 -81t-62.5 -57t-87 -21q-55 0 -94 34.5t-57 80.5l-77 -48q29 -64 81.5 -105.5t138.5 -41.5q52 0 98.5 17t84 48.5
t62 75.5t32.5 98zM341 625l255 1l12 74h-322l-158 -377l123 93z" />
    <glyph glyph-name="uniFF16" unicode="&#xff16;" horiz-adv-x="563" 
d="M142 230q8 45 33.5 82.5t64.5 60t85 22.5q45 0 74 -24t41.5 -61t5.5 -80q-7 -44 -33 -81.5t-65 -59t-85 -21.5q-45 0 -74.5 23t-41.5 60t-5 79zM413 700l-285 -325q-25 -29 -42 -66t-24 -79q-9 -65 12 -119.5t68 -87t114 -32.5q68 0 125.5 31.5t96 85.5t48.5 122
q8 57 -10 108.5t-57.5 84.5t-98.5 34q-32 0 -59 -9t-50 -29l7 -7l263 288h-108z" />
    <glyph glyph-name="uniFF17" unicode="&#xff17;" horiz-adv-x="563" 
d="M134 620h351l-394 -620h89l447 700h-479z" />
    <glyph glyph-name="uniFF18" unicode="&#xff18;" horiz-adv-x="563" 
d="M157 532q-6 -39 3.5 -71t31 -55.5t54 -36.5t72.5 -13q41 0 77.5 12.5t65.5 35.5t47.5 55.5t24.5 71.5q5 36 -4.5 68t-31.5 57t-53.5 39.5t-70.5 14.5q-53 0 -99.5 -24t-77.5 -64.5t-39 -89.5zM235 521q5 31 24 57t47 42t60 15q32 0 52.5 -16.5t29.5 -42t4 -55.5
t-24.5 -55.5t-47 -40t-58.5 -14.5q-30 1 -51 16t-30.5 40t-5.5 54zM75 191q-6 -40 5 -76t35.5 -64t60.5 -44t80 -16q45 0 86 15t74 42.5t55 64t28 77.5q6 44 -5 81t-36.5 63.5t-61 41t-78.5 14.5t-84 -14t-74.5 -40.5t-56 -63t-28.5 -81.5zM156 200q6 36 30 67t58.5 50
t70.5 18q36 0 61.5 -19.5t38 -50t7.5 -65.5q-6 -39 -30 -69.5t-58 -47.5t-71 -17q-36 1 -62.5 18.5t-38.5 48t-6 67.5z" />
    <glyph glyph-name="uniFF19" unicode="&#xff19;" horiz-adv-x="563" 
d="M487 470q-7 -44 -33.5 -81.5t-65 -60t-84.5 -22.5q-45 0 -74.5 23.5t-41.5 61t-5 79.5q8 45 33.5 82t64.5 59t85 22q45 0 74 -23t41.5 -60t5.5 -80zM216 0l284 325q25 29 42.5 66.5t24.5 78.5q9 66 -12 120.5t-67.5 87t-114.5 32.5t-125.5 -31.5t-96 -85.5t-48.5 -122
q-8 -57 9.5 -109t57.5 -84.5t99 -33.5q32 -1 59 8.5t50 29.5l-8 7l-263 -289h109z" />
    <glyph glyph-name="a.alt" horiz-adv-x="469" 
d="M104 139q5 28 22.5 46.5t45.5 28.5t62 10q38 0 71.5 -11t64.5 -34l7 46q-18 22 -53.5 41t-92.5 20q-53 0 -97 -18t-73 -51.5t-37 -80.5q-6 -43 10.5 -76t49 -51t73.5 -18q43 0 82 15.5t67 45.5t38 72l-7 56q-14 -52 -54.5 -86t-98.5 -33q-38 1 -61.5 21t-18.5 57z
M136 353q17 10 38.5 21t48 18.5t56.5 6.5q20 0 36 -4.5t28 -13.5t17.5 -22.5t2.5 -33.5l-59 -325h80l56 330q8 44 -11 75t-56 48t-85 17q-56 0 -101 -17.5t-80 -37.5z" />
    <glyph glyph-name="agrave.alt" horiz-adv-x="471" 
d="M104 135q5 29 23.5 49t47 30.5t62.5 10.5q40 0 72 -11.5t63 -34.5l7 46q-18 22 -52.5 41.5t-87.5 19.5t-99.5 -18.5t-78 -54t-38.5 -87.5q-6 -41 10 -71.5t48.5 -47t75.5 -16.5q47 0 86 17t66 48t37 73l-7 51q-9 -38 -30.5 -64.5t-53 -40.5t-72.5 -13q-40 1 -62.5 19
t-16.5 54zM142 352q26 15 62 31.5t80 15.5q25 0 43 -8t28 -23t10 -38l-59 -330h80l56 330q6 45 -12.5 76t-54.5 47.5t-84 16.5q-55 0 -99.5 -17.5t-78.5 -37.5zM174 681l152 -151l47 29l-120 161z" />
    <glyph glyph-name="aacute.alt" horiz-adv-x="471" 
d="M104 135q5 29 23.5 49t47 30.5t62.5 10.5q40 0 72 -11.5t63 -34.5l7 46q-18 22 -52.5 41.5t-87.5 19.5t-99.5 -18.5t-78 -54t-38.5 -87.5q-6 -41 10 -71.5t48.5 -47t75.5 -16.5q47 0 86 17t66 48t37 73l-7 51q-9 -38 -30.5 -64.5t-53 -40.5t-72.5 -13q-40 1 -62.5 19
t-16.5 54zM142 352q26 15 62 31.5t80 15.5q25 0 43 -8t28 -23t10 -38l-59 -330h80l56 330q6 45 -12.5 76t-54.5 47.5t-84 16.5q-55 0 -99.5 -17.5t-78.5 -37.5zM486 678l-69 42l-172 -158l42 -31z" />
    <glyph glyph-name="acircumflex.alt" horiz-adv-x="471" 
d="M104 135q5 29 23.5 49t47 30.5t62.5 10.5q40 0 72 -11.5t63 -34.5l7 46q-18 22 -52.5 41.5t-87.5 19.5t-99.5 -18.5t-78 -54t-38.5 -87.5q-6 -41 10 -71.5t48.5 -47t75.5 -16.5q47 0 86 17t66 48t37 73l-7 51q-9 -38 -30.5 -64.5t-53 -40.5t-72.5 -13q-40 1 -62.5 19
t-16.5 54zM142 352q26 15 62 31.5t80 15.5q25 0 43 -8t28 -23t10 -38l-59 -330h80l56 330q6 45 -12.5 76t-54.5 47.5t-84 16.5q-55 0 -99.5 -17.5t-78.5 -37.5zM323 625l90 -94l54 38l-134 141l-178 -138l44 -41z" />
    <glyph glyph-name="atilde.alt" horiz-adv-x="471" 
d="M104 135q5 29 23.5 49t47 30.5t62.5 10.5q40 0 72 -11.5t63 -34.5l7 46q-18 22 -52.5 41.5t-87.5 19.5t-99.5 -18.5t-78 -54t-38.5 -87.5q-6 -41 10 -71.5t48.5 -47t75.5 -16.5q47 0 86 17t66 48t37 73l-7 51q-9 -38 -30.5 -64.5t-53 -40.5t-72.5 -13q-40 1 -62.5 19
t-16.5 54zM142 352q26 15 62 31.5t80 15.5q25 0 43 -8t28 -23t10 -38l-59 -330h80l56 330q6 45 -12.5 76t-54.5 47.5t-84 16.5q-55 0 -99.5 -17.5t-78.5 -37.5zM150 569l47 -38q7 14 19.5 31.5t39.5 18.5q21 1 36.5 -10.5t32.5 -23t40 -12.5q25 -1 46 10t38.5 27.5
t28.5 33.5l-39 44q-15 -19 -30.5 -32.5t-33.5 -14.5q-23 -1 -38 10.5t-31.5 23.5t-42.5 12q-24 1 -46.5 -10.5t-39.5 -30t-27 -39.5z" />
    <glyph glyph-name="adieresis.alt" horiz-adv-x="471" 
d="M104 135q5 29 23.5 49t47 30.5t62.5 10.5q40 0 72 -11.5t63 -34.5l7 46q-18 22 -52.5 41.5t-87.5 19.5t-99.5 -18.5t-78 -54t-38.5 -87.5q-6 -41 10 -71.5t48.5 -47t75.5 -16.5q47 0 86 17t66 48t37 73l-7 51q-9 -38 -30.5 -64.5t-53 -40.5t-72.5 -13q-40 1 -62.5 19
t-16.5 54zM142 352q26 15 62 31.5t80 15.5q25 0 43 -8t28 -23t10 -38l-59 -330h80l56 330q6 45 -12.5 76t-54.5 47.5t-84 16.5q-55 0 -99.5 -17.5t-78.5 -37.5zM357 586q-2 -21 11 -37.5t34 -17.5t41 16t22 37q2 21 -11.5 38t-34.5 18t-40.5 -16.5t-21.5 -37.5zM163 586
q-2 -21 11 -37.5t34 -17.5t40.5 16t21.5 37q2 21 -11 38t-34 18t-40.5 -16.5t-21.5 -37.5z" />
    <glyph glyph-name="aring.alt" horiz-adv-x="471" 
d="M104 135q5 29 23.5 49t47 30.5t62.5 10.5q40 0 72 -11.5t63 -34.5l7 46q-18 22 -52.5 41.5t-87.5 19.5t-99.5 -18.5t-78 -54t-38.5 -87.5q-6 -41 10 -71.5t48.5 -47t75.5 -16.5q47 0 86 17t66 48t37 73l-7 51q-9 -38 -30.5 -64.5t-53 -40.5t-72.5 -13q-40 1 -62.5 19
t-16.5 54zM142 352q26 15 62 31.5t80 15.5q25 0 43 -8t28 -23t10 -38l-59 -330h80l56 330q6 45 -12.5 76t-54.5 47.5t-84 16.5q-55 0 -99.5 -17.5t-78.5 -37.5zM222 631q-6 -40 19 -70t65 -30q27 0 52 13t42.5 35.5t20.5 49.5q4 28 -6.5 50.5t-31 36.5t-47.5 14
q-26 0 -51 -13.5t-42 -35.5t-21 -50zM272 630q2 14 11.5 26.5t23 20t25.5 6.5q18 -1 29.5 -16.5t9.5 -35.5q-1 -14 -11 -26.5t-23.5 -20t-26.5 -6.5q-18 1 -29 16.5t-9 35.5z" />
    <glyph glyph-name="amacron.alt" horiz-adv-x="471" 
d="M104 135q5 29 23.5 49t47 30.5t62.5 10.5q40 0 72 -11.5t63 -34.5l7 46q-18 22 -52.5 41.5t-87.5 19.5t-99.5 -18.5t-78 -54t-38.5 -87.5q-6 -41 10 -71.5t48.5 -47t75.5 -16.5q47 0 86 17t66 48t37 73l-7 51q-9 -38 -30.5 -64.5t-53 -40.5t-72.5 -13q-40 1 -62.5 19
t-16.5 54zM142 352q26 15 62 31.5t80 15.5q25 0 43 -8t28 -23t10 -38l-59 -330h80l56 330q6 45 -12.5 76t-54.5 47.5t-84 16.5q-55 0 -99.5 -17.5t-78.5 -37.5zM138 551l341 -1l13 75h-341z" />
    <glyph glyph-name="abreve.alt" horiz-adv-x="471" 
d="M104 135q5 29 23.5 49t47 30.5t62.5 10.5q40 0 72 -11.5t63 -34.5l7 46q-18 22 -52.5 41.5t-87.5 19.5t-99.5 -18.5t-78 -54t-38.5 -87.5q-6 -41 10 -71.5t48.5 -47t75.5 -16.5q47 0 86 17t66 48t37 73l-7 51q-9 -38 -30.5 -64.5t-53 -40.5t-72.5 -13q-40 1 -62.5 19
t-16.5 54zM142 352q26 15 62 31.5t80 15.5q25 0 43 -8t28 -23t10 -38l-59 -330h80l56 330q6 45 -12.5 76t-54.5 47.5t-84 16.5q-55 0 -99.5 -17.5t-78.5 -37.5zM174 670q-3 -36 10.5 -68t44 -51.5t78.5 -19.5q49 0 84.5 19.5t58.5 51t32 67.5l-71 1q-6 -16 -18 -33.5
t-31 -29t-50 -11.5q-29 0 -44.5 11.5t-20.5 29t-4 33.5h-69z" />
    <glyph glyph-name="aogonek.alt" horiz-adv-x="471" 
d="M104 135q5 30 23.5 49.5t47 30t62.5 10.5q40 0 72 -11.5t63 -34.5l7 46q-18 22 -52.5 41t-87.5 20q-55 0 -101 -18t-76 -52t-38 -83q-6 -43 10 -75t48 -49.5t75 -17.5q47 0 86 17t66 48t37 73l-7 51q-9 -38 -31 -64.5t-53.5 -40.5t-71.5 -13q-36 1 -60 19.5t-19 53.5z
M142 352q26 15 62 31.5t80 15.5q25 0 43 -8t28 -23t10 -38l-59 -330h80l56 330q6 45 -12.5 76t-54.5 47.5t-84 16.5q-55 0 -99.5 -17.5t-78.5 -37.5zM367 -130q-10 -7 -22.5 -13.5t-29.5 -5.5q-21 2 -30 14.5t-7 34.5q4 22 21 40.5t40.5 33.5t46.5 26l-38 25
q-33 -16 -66 -37t-56.5 -47.5t-29.5 -59.5q-7 -46 22.5 -73.5t83.5 -26.5q29 0 51.5 11.5t38.5 26.5z" />
    </font>
</defs>
</svg>
