<?xml version="1.0" standalone="no"?>
<!DOCTYPE svg PUBLIC "-//W3C//DTD SVG 1.1//EN" "http://www.w3.org/Graphics/SVG/1.1/DTD/svg11.dtd" >
<svg xmlns="http://www.w3.org/2000/svg" xmlns:xlink="http://www.w3.org/1999/xlink" version="1.1">
<metadata>
Created by FontForge 20201107 at Fri Sep 10 18:37:55 2021
 By 
Copyright 2020 The Jost Project Authors (https://github.com/indestructible-type/Jost)
</metadata>
<defs>
<font id="Jost-SemiBold" horiz-adv-x="602" >
  <font-face 
    font-family="Jost SemiBold"
    font-weight="600"
    font-stretch="normal"
    units-per-em="1000"
    panose-1="0 0 0 0 0 0 0 0 0 0"
    ascent="800"
    descent="-200"
    x-height="460"
    cap-height="700"
    bbox="-147 -360 1703 1041"
    underline-thickness="50"
    underline-position="-125"
    unicode-range="U+000D-FF19"
  />
<missing-glyph horiz-adv-x="500" 
 />
    <glyph glyph-name=".notdef" horiz-adv-x="500" 
 />
    <glyph glyph-name="uni0000" horiz-adv-x="300" 
 />
    <glyph glyph-name="uni0000" horiz-adv-x="300" 
 />
    <glyph glyph-name="uni000D" unicode="&#xd;" horiz-adv-x="300" 
 />
    <glyph glyph-name="space" unicode=" " horiz-adv-x="300" 
 />
    <glyph glyph-name="exclam" unicode="!" horiz-adv-x="330" 
d="M85 700l29 -479h102l29 479h-160zM83 55q0 -33 23.5 -54.5t58.5 -21.5q36 0 59 21.5t23 54.5t-23 54.5t-59 21.5q-35 0 -58.5 -21.5t-23.5 -54.5z" />
    <glyph glyph-name="quotedbl" unicode="&#x22;" horiz-adv-x="501" 
d="M113 700l-46 -313h85l101 313h-140zM314 700l-45 -313h85l100 313h-140z" />
    <glyph glyph-name="numbersign" unicode="#" horiz-adv-x="648" 
d="M75 421h140l23 4h200l25 -4h150v103h-538v-103zM35 181h538v103h-126l-26 -4h-221l-27 4h-138v-103zM468 700l-53 -216l-2 -26l-50 -209l-11 -24l-54 -225h113l170 700h-113zM236 700l-170 -700h114l55 226l1 23l51 210l11 27l52 214h-114z" />
    <glyph glyph-name="dollar" unicode="$" horiz-adv-x="609" 
d="M261 818l4 -171h100l4 171h-108zM265 57l-4 -169h108l-4 169h-100zM446 497l109 65q-18 37 -49.5 71t-78.5 55.5t-115 21.5q-67 0 -120 -25t-83 -66.5t-30 -91.5t18.5 -86t47.5 -61t61 -41t58 -25q41 -15 75 -31t55 -37.5t21 -54.5q0 -27 -10.5 -45.5t-32 -28t-53.5 -9.5
q-39 0 -70 15.5t-56 45.5t-48 74l-105 -71q22 -51 63 -92t95 -65.5t116 -24.5q78 0 134 24.5t86.5 70.5t30.5 109q0 47 -15 81.5t-41 59.5t-57.5 43t-64.5 30q-42 16 -79 30.5t-59.5 34.5t-22.5 52q0 23 9.5 39t29.5 25.5t51 9.5t54.5 -13.5t42 -36.5t33.5 -52z" />
    <glyph glyph-name="percent" unicode="%" horiz-adv-x="867" 
d="M26 539q0 -48 23.5 -88.5t64.5 -64.5t92 -24q52 0 92.5 24t63.5 64.5t23 88.5q0 50 -23 90t-63.5 63.5t-92.5 23.5q-51 0 -92 -23.5t-64.5 -63.5t-23.5 -90zM134 539q0 21 9 38t25 27.5t38 10.5t37.5 -10.5t24.5 -27.5t9 -38q0 -20 -9 -37.5t-24.5 -27.5t-37.5 -10
t-38 10t-25 27.5t-9 37.5zM481 161q0 -49 23.5 -89t64.5 -64t92 -24q52 0 92.5 24t63.5 64t23 89t-23 89.5t-63.5 64t-92.5 23.5q-51 0 -92 -23.5t-64.5 -64t-23.5 -89.5zM589 161q0 21 9 38t25 27t38 10t37.5 -10t24.5 -27t9 -38q0 -20 -9 -37.5t-24.5 -27.5t-37.5 -10
t-38 10t-25 27.5t-9 37.5zM623 700l-510 -700h131l510 700h-131z" />
    <glyph glyph-name="ampersand" unicode="&#x26;" horiz-adv-x="728" 
d="M223 375l338 -375h149l-370 408q-37 41 -63.5 71.5t-26.5 61.5q0 28 19 48.5t55 20.5q23 0 39 -9.5t24.5 -25.5t8.5 -35q0 -29 -30 -60.5t-86 -60.5q-21 -10 -51.5 -22.5t-63.5 -29.5t-61 -41.5t-46 -58.5t-18 -81q0 -61 33 -105.5t87 -68.5t118 -24q72 0 133 25
t112.5 65.5t94 90.5t77.5 99l-89 65q-32 -47 -68 -89.5t-75.5 -75t-82 -51t-86.5 -18.5q-36 0 -62.5 12.5t-41 35t-14.5 50.5q0 33 17 55t44 38t57.5 30.5t57.5 31.5q40 26 70 48t51 45t32 48t11 57q0 42 -22 79.5t-65 61.5t-104 24q-62 0 -107 -23t-70 -61.5t-25 -83.5
q0 -36 16.5 -66t39.5 -56t44 -50z" />
    <glyph glyph-name="quotesingle" unicode="'" horiz-adv-x="300" 
d="M113 700l-46 -313h85l101 313h-140z" />
    <glyph glyph-name="parenleft" unicode="(" horiz-adv-x="331" 
d="M194 780q-60 -112 -89.5 -237t-29.5 -253q0 -127 29.5 -252t89.5 -238h118q-52 113 -79 238t-27 252q0 128 27 253t79 237h-118z" />
    <glyph glyph-name="parenright" unicode=")" horiz-adv-x="331" 
d="M137 -200q60 113 89.5 238t29.5 252q0 128 -29.5 253t-89.5 237h-118q53 -112 80 -237t27 -253q0 -127 -27 -252t-80 -238h118z" />
    <glyph glyph-name="asterisk" unicode="*" horiz-adv-x="592" 
d="M490 602l-205 -93l22 -64l219 45zM475 332l-152 165l-54 -40l110 -194zM213 263l110 194l-54 40l-152 -165zM66 490l219 -45l22 64l-205 93zM237 700l25 -223h68l25 223h-118z" />
    <glyph glyph-name="plus" unicode="+" horiz-adv-x="656" 
d="M65 202h526v125h-526v-125zM261 528v-527h134v527h-134z" />
    <glyph glyph-name="comma" unicode="," horiz-adv-x="319" 
d="M129 110l-88 -259l96 -23l121 250z" />
    <glyph glyph-name="hyphen" unicode="-" horiz-adv-x="219" 
d="M5 181h209v113h-209v-113z" />
    <glyph glyph-name="period" unicode="." horiz-adv-x="315" 
d="M76 59q0 -32 23.5 -56t58.5 -24q36 0 59 24t23 56q0 34 -23 57.5t-59 23.5q-35 0 -58.5 -23.5t-23.5 -57.5z" />
    <glyph glyph-name="slash" unicode="/" horiz-adv-x="579" 
d="M439 700l-424 -850h129l420 850h-125z" />
    <glyph glyph-name="zero" unicode="0" horiz-adv-x="643" 
d="M179 350q0 53 10 96.5t29 75t45 48.5t58 17q33 0 59 -17t45 -48.5t29 -75t10 -96.5t-10 -96.5t-29 -75t-45 -48.5t-59 -17q-32 0 -58 17t-45 48.5t-29 75t-10 96.5zM40 350q0 -111 35.5 -192t99 -125.5t146.5 -44.5q86 0 149 44.5t98 125.5t35 192t-35 192t-98 125.5
t-149 44.5q-83 0 -146.5 -44.5t-99 -125.5t-35.5 -192z" />
    <glyph glyph-name="one" unicode="1" horiz-adv-x="491" 
d="M71 518l168 44v-562h139v712l-307 -65v-129z" />
    <glyph glyph-name="two" unicode="2" horiz-adv-x="629" 
d="M20 0h563v131h-293l182 172q44 40 71 89t27 105q0 38 -15.5 76t-47 69.5t-79 51t-110.5 19.5q-85 0 -143.5 -35.5t-88.5 -95.5t-30 -135h140q0 42 14.5 74t41 49.5t63.5 17.5q26 0 46 -8.5t34 -22.5t21 -32t7 -37q0 -27 -10 -52t-29 -50t-46 -54z" />
    <glyph glyph-name="three" unicode="3" horiz-adv-x="597" 
d="M268 341q79 0 141 21t98 61.5t36 97.5q0 53 -27 96t-78.5 69t-124.5 26q-69 0 -121 -27t-81.5 -73.5t-29.5 -106.5h133q0 39 28.5 64.5t70.5 25.5q30 0 49 -10t29 -29t10 -44q0 -20 -9.5 -38.5t-26.5 -33t-41.5 -22.5t-55.5 -8v-69zM307 -14q78 0 135.5 25.5t89 71.5
t31.5 106q0 53 -22 90.5t-62 62t-93.5 35.5t-117.5 11v-76q37 0 65.5 -7.5t48 -21.5t29.5 -34.5t10 -44.5q0 -33 -14 -55t-38.5 -33.5t-57.5 -11.5q-32 0 -59 12.5t-43 36.5t-16 58h-142q0 -45 18 -85.5t51 -72t80 -49.5t107 -18z" />
    <glyph glyph-name="four" unicode="4" horiz-adv-x="662" 
d="M16 129h608v122h-143l-17 -15h-250l165 236v-285l-12 -11v-176h147v700h-97z" />
    <glyph glyph-name="five" unicode="5" horiz-adv-x="620" 
d="M580 226q0 72 -29.5 123.5t-77.5 79.5t-105 28q-31 0 -60.5 -5.5t-55.5 -19.5l42 144h275v124h-381l-96 -394q36 20 68.5 30.5t63.5 15t59 4.5q38 0 70.5 -13.5t52 -39.5t19.5 -64q0 -39 -17 -65.5t-48.5 -40.5t-76.5 -14q-29 0 -61 11.5t-61.5 31.5t-54.5 45l-67 -111
q29 -29 67 -53.5t88.5 -39.5t114.5 -15q51 0 99 14t87 43t62 74t23 107z" />
    <glyph glyph-name="six" unicode="6" horiz-adv-x="640" 
d="M190 241q0 39 17 69.5t46.5 47t66.5 16.5t66.5 -16.5t46.5 -47t17 -69.5q0 -40 -17 -69.5t-46.5 -46t-66.5 -16.5t-66.5 16.5t-46.5 46t-17 69.5zM332 698l-212 -278q-30 -38 -50 -82.5t-20 -96.5q0 -82 36.5 -139t97.5 -86.5t136 -29.5t136 29.5t97.5 86.5t36.5 139
q0 51 -18 93t-48 72t-68.5 46t-78.5 16q-37 0 -62.5 -8t-51.5 -35l26 9l224 264h-181z" />
    <glyph glyph-name="seven" unicode="7" horiz-adv-x="579" 
d="M30 566h336l-281 -566h154l337 700h-546v-134z" />
    <glyph glyph-name="eight" unicode="8" 
d="M78 531q0 -46 18.5 -80.5t50 -57.5t71.5 -35t83 -12t83 12t71.5 35t50 57.5t18.5 80.5q0 56 -30.5 97t-81 63.5t-111.5 22.5q-62 0 -112.5 -22.5t-80.5 -63.5t-30 -97zM212 517q0 26 11.5 47t31.5 32t46 11t46 -11t31 -32t11 -47q0 -27 -11.5 -47t-31.5 -31.5t-45 -11.5
t-45 11.5t-32 31.5t-12 47zM53 190q0 -46 19.5 -83.5t54.5 -64.5t79.5 -41.5t94.5 -14.5t94.5 14.5t79 41.5t54.5 64.5t20 83.5q0 53 -22 91.5t-58.5 63.5t-80.5 37t-87 12t-87 -12t-80.5 -37t-58.5 -63.5t-22 -91.5zM194 211q0 29 14.5 53t39 38t53.5 14q28 0 52.5 -14
t39.5 -38t15 -53q0 -35 -15 -58.5t-39.5 -36t-52.5 -12.5q-29 0 -53.5 12.5t-39 36t-14.5 58.5z" />
    <glyph glyph-name="nine" unicode="9" horiz-adv-x="640" 
d="M450 459q0 -39 -17 -69t-46.5 -47t-66.5 -17t-66.5 17t-46.5 47t-17 69q0 40 17 69.5t46.5 46t66.5 16.5t66.5 -16.5t46.5 -46t17 -69.5zM308 2l213 278q29 38 49 82.5t20 96.5q0 82 -36.5 139t-97.5 86.5t-136 29.5t-136 -29.5t-97.5 -86.5t-36.5 -139q0 -51 18 -93
t48.5 -72t68.5 -46t78 -16q37 0 63 8.5t51 34.5l-25 -9l-225 -264h181z" />
    <glyph glyph-name="colon" unicode=":" horiz-adv-x="315" 
d="M76 59q0 -32 23.5 -56t58.5 -24q36 0 59 24t23 56q0 34 -23 57.5t-59 23.5q-35 0 -58.5 -23.5t-23.5 -57.5zM76 435q0 -33 23.5 -57t58.5 -24q36 0 59 24t23 57t-23 57t-59 24q-35 0 -58.5 -24t-23.5 -57z" />
    <glyph glyph-name="semicolon" unicode=";" horiz-adv-x="373" 
d="M121 431q0 -33 23.5 -57t58.5 -24q36 0 59 24t23 57t-23 56.5t-59 23.5q-35 0 -58.5 -23.5t-23.5 -56.5zM144 110l-88 -259l96 -23l121 250z" />
    <glyph glyph-name="less" unicode="&#x3c;" horiz-adv-x="640" 
d="M254 266l321 126v127l-510 -215v-84l510 -216v127z" />
    <glyph glyph-name="equal" unicode="=" horiz-adv-x="623" 
d="M59 101h505v114h-505v-114zM59 290h505v114h-505v-114z" />
    <glyph glyph-name="greater" unicode="&#x3e;" horiz-adv-x="640" 
d="M386 258l-321 -127v-127l510 216v84l-510 215v-127z" />
    <glyph glyph-name="question" unicode="?" horiz-adv-x="605" 
d="M419 500q0 -29 -20 -59.5t-60.5 -51t-100.5 -20.5h-31l20 -178h103l6 96q54 7 103 34.5t79.5 73t30.5 105.5q0 50 -19.5 89.5t-54 68t-78 43.5t-91.5 15q-59 0 -105 -15t-82 -43t-68 -68l91 -71q27 41 67 63.5t87 22.5q38 0 65.5 -12.5t42.5 -35.5t15 -57zM198 53
q0 -30 23.5 -52t58.5 -22q36 0 59 22t23 52t-23 52t-59 22q-35 0 -58.5 -22t-23.5 -52z" />
    <glyph glyph-name="at" unicode="@" horiz-adv-x="770" 
d="M300 320q0 34 12 61.5t31.5 43.5t41.5 16q18 0 31 -8.5t20.5 -25t7.5 -41.5q0 -40 -13.5 -67t-33.5 -40.5t-40 -13.5q-28 0 -42.5 19.5t-14.5 55.5zM194 314q0 -49 17.5 -84.5t47.5 -54.5t69 -19q44 0 80 24.5t58 72.5t22 117q0 42 -14.5 78.5t-42 59t-66.5 22.5
q-40 0 -79.5 -25t-65.5 -73t-26 -118zM24 320q0 -99 39 -176t115 -121t187 -44q80 0 135 15t100 41l-37 80q-45 -25 -90.5 -36t-98.5 -11q-82 0 -138 31t-85 87.5t-29 133.5q0 67 20.5 123.5t58.5 98t92.5 65t121.5 23.5q58 0 101.5 -19.5t73 -52.5t44 -76.5t14.5 -91.5
q0 -61 -14 -95t-32.5 -48t-31.5 -14q-11 0 -18 5.5t-9.5 15t-2.5 21.5q0 6 0.5 14t1.5 13l31 218h-104l-27 -233l11 -21q-5 -33 8 -60t39 -43.5t58 -16.5q33 0 66 13.5t61 42t44.5 75.5t16.5 113q0 61 -21.5 120t-64 106t-104 75t-141.5 28q-86 0 -157.5 -31t-124 -85
t-81 -126.5t-28.5 -156.5z" />
    <glyph glyph-name="A" unicode="A" horiz-adv-x="711" 
d="M173 159h370l-17 113h-336zM356 473l105 -243l-2 -36l90 -194h162l-355 741l-355 -741h161l92 200l-3 32z" />
    <glyph glyph-name="B" unicode="B" horiz-adv-x="631" 
d="M183 355h126q70 0 123 19.5t83 57.5t30 91q0 60 -30 99t-83 58.5t-123 19.5h-233v-700h248q78 0 137 21t91.5 65t32.5 113q0 52 -21.5 89t-58.5 60.5t-83.5 34.5t-97.5 11h-141v-78h128q27 0 50 -5.5t40.5 -18t27 -31t9.5 -44.5q0 -36 -16.5 -59t-45.5 -33.5t-65 -10.5
h-92v472h77q47 0 74.5 -21t27.5 -61q0 -26 -12.5 -45t-35.5 -29t-54 -10h-113v-65z" />
    <glyph glyph-name="C" unicode="C" horiz-adv-x="696" 
d="M191 350q0 70 31.5 121t82.5 78.5t111 27.5q50 0 89 -13t70.5 -35t54.5 -48v161q-43 34 -93.5 53t-127.5 19q-80 0 -148.5 -26t-119 -75t-78 -115.5t-27.5 -147.5t27.5 -147.5t78 -115.5t119 -75t148.5 -26q77 0 127.5 19t93.5 53v161q-23 -26 -54.5 -48t-70.5 -35
t-89 -13q-60 0 -111 27.5t-82.5 79t-31.5 120.5z" />
    <glyph glyph-name="D" unicode="D" horiz-adv-x="716" 
d="M76 700v-700h146v700h-146zM314 0q110 0 192.5 43t128.5 121.5t46 185.5t-46 185.5t-128.5 121.5t-192.5 43h-146v-130h141q46 0 87 -12.5t72 -39.5t48.5 -68.5t17.5 -99.5t-17.5 -99.5t-48.5 -68.5t-72 -39.5t-87 -12.5h-141v-130h146z" />
    <glyph glyph-name="E" unicode="E" horiz-adv-x="586" 
d="M168 0h353v121h-353v-121zM168 579h353v121h-353v-121zM168 312h333v119h-333v-119zM76 700v-700h138v700h-138z" />
    <glyph glyph-name="F" unicode="F" horiz-adv-x="536" 
d="M168 575h313v125h-313v-125zM168 299h303v119h-303v-119zM76 700v-700h138v700h-138z" />
    <glyph glyph-name="G" unicode="G" horiz-adv-x="802" 
d="M416 260h201q-9 -32 -26 -59t-41.5 -48t-58.5 -32.5t-77 -11.5q-65 0 -116.5 30t-81.5 84.5t-30 126.5q0 73 30.5 126t82.5 81.5t115 28.5q67 0 113.5 -28.5t72.5 -74.5l122 71q-32 49 -76.5 84.5t-102 55.5t-129.5 20q-81 0 -150 -26t-120 -74t-79.5 -115.5
t-28.5 -148.5t27.5 -149t78 -117t119 -76t149.5 -27q86 0 153 31t112.5 85.5t67 125.5t18.5 151h-345v-114z" />
    <glyph glyph-name="H" unicode="H" horiz-adv-x="764" 
d="M123 308h514v129h-514v-129zM546 700v-700h143v700h-143zM76 700v-700h143v700h-143z" />
    <glyph glyph-name="I" unicode="I" horiz-adv-x="296" 
d="M76 700v-700h145v700h-145z" />
    <glyph glyph-name="J" unicode="J" horiz-adv-x="302" 
d="M-70 -76l-77 -103q16 -12 41.5 -24t58 -21t67.5 -9q43 0 80.5 10t66 31.5t44 55t15.5 80.5v756h-150v-726q0 -46 -21.5 -65t-44.5 -19q-24 0 -45 9.5t-35 24.5z" />
    <glyph glyph-name="K" unicode="K" horiz-adv-x="658" 
d="M76 700v-700h147v700h-147zM472 700l-291 -332l302 -368h174l-305 372l290 328h-170z" />
    <glyph glyph-name="L" unicode="L" horiz-adv-x="504" 
d="M76 700v-700h422v125h-279v575h-143z" />
    <glyph glyph-name="M" unicode="M" horiz-adv-x="866" 
d="M230 393l203 -328l203 328l45 -393h149l-104 735l-293 -452l-293 452l-104 -735h149z" />
    <glyph glyph-name="N" unicode="N" horiz-adv-x="788" 
d="M574 700v-434l-498 469v-735h138v434l498 -469v735h-138z" />
    <glyph glyph-name="O" unicode="O" horiz-adv-x="811" 
d="M187 350q0 67 28 119t77 82t114 30q66 0 115 -30t76 -82t27 -119t-27.5 -119t-76.5 -82t-114 -30t-114 30t-77 82t-28 119zM36 350q0 -79 27 -146.5t77 -117.5t117.5 -77.5t148.5 -27.5t148.5 27.5t117 77.5t77 117.5t27.5 146.5q0 80 -27.5 146.5t-78 115.5t-117.5 75.5
t-147 26.5q-79 0 -146.5 -26.5t-117.5 -75.5t-78 -115.5t-28 -146.5z" />
    <glyph glyph-name="P" unicode="P" horiz-adv-x="599" 
d="M76 700v-700h143v700h-143zM163 579h139q57 0 90 -25.5t33 -76.5q0 -50 -33 -76t-90 -26h-139v-121h139q83 0 141.5 27t89.5 77.5t31 118.5q0 69 -31 119t-89.5 77t-141.5 27h-139v-121z" />
    <glyph glyph-name="Q" unicode="Q" horiz-adv-x="841" 
d="M187 350q0 67 28.5 119t78 82t114.5 30q70 0 121.5 -33t79.5 -88t28 -123q0 -67 -28 -118t-78 -79.5t-115 -28.5q-64 0 -116 30t-82.5 84t-30.5 125zM36 350q0 -79 27.5 -146.5t78 -117.5t118.5 -77.5t148 -27.5q81 0 148 27.5t116.5 77.5t76.5 117.5t27 146.5
q0 80 -27.5 146.5t-77 115.5t-116.5 75.5t-147 26.5q-79 0 -146.5 -26.5t-118.5 -75.5t-79 -115.5t-28 -146.5zM364 300l321 -309h159l-325 309h-155z" />
    <glyph glyph-name="R" unicode="R" horiz-adv-x="620" 
d="M235 326l210 -326h169l-228 326h-151zM76 700v-700h143v700h-143zM163 578h139q38 0 65.5 -12.5t42.5 -36t15 -56.5t-15 -56.5t-42.5 -36t-65.5 -12.5h-139v-114h148q83 0 141 28t89 78.5t31 116.5q0 67 -31 117t-89 78t-141 28h-148v-122z" />
    <glyph glyph-name="S" unicode="S" horiz-adv-x="601" 
d="M137 235l-102 -72q23 -49 64 -91t96.5 -66.5t119.5 -24.5q48 0 91.5 14.5t78.5 42t55 67.5t20 91q0 45 -14.5 79.5t-40 60t-57 43.5t-65.5 30q-53 18 -88 35.5t-52 37t-17 45.5t21 45.5t63 19.5q32 0 57 -12.5t44.5 -33t33.5 -45.5l112 62q-18 37 -50.5 71.5t-81 57
t-115.5 22.5q-65 0 -117.5 -23.5t-83 -67t-30.5 -103.5q0 -50 19 -85.5t48 -60t61.5 -40t57.5 -24.5q47 -18 79.5 -33.5t49 -35.5t16.5 -53q0 -38 -27 -60t-70 -22q-37 0 -69 16t-58.5 45t-48.5 68z" />
    <glyph glyph-name="T" unicode="T" horiz-adv-x="531" 
d="M6 571h188v-571h143v571h189v129h-520v-129z" />
    <glyph glyph-name="U" unicode="U" horiz-adv-x="677" 
d="M71 700v-470q0 -62 20 -109t56 -79t85 -48.5t107 -16.5q57 0 106 16.5t85.5 48.5t56.5 79t20 109v470h-143v-461q0 -60 -31.5 -96.5t-93.5 -36.5t-93.5 36.5t-31.5 96.5v461h-143z" />
    <glyph glyph-name="V" unicode="V" horiz-adv-x="711" 
d="M356 244l-190 456h-165l355 -741l355 741h-166z" />
    <glyph glyph-name="W" unicode="W" horiz-adv-x="1041" 
d="M718 265l-197 470l-195 -470l-152 435h-168l294 -739l221 460l220 -460l295 739h-168z" />
    <glyph glyph-name="X" unicode="X" horiz-adv-x="645" 
d="M449 700l-123 -220l-120 220h-175l211 -339l-236 -361h175l144 251l139 -251h175l-230 361l215 339h-175z" />
    <glyph glyph-name="Y" unicode="Y" horiz-adv-x="629" 
d="M465 700l-151 -282l-150 282h-163l241 -411v-289h145v290l241 410h-163z" />
    <glyph glyph-name="Z" unicode="Z" horiz-adv-x="596" 
d="M50 571h300l-339 -571h539v125h-312l343 575h-531v-129z" />
    <glyph glyph-name="bracketleft" unicode="[" horiz-adv-x="343" 
d="M222 666h101v114h-229v-1000h229v114h-101v772z" />
    <glyph glyph-name="backslash" unicode="\" horiz-adv-x="536" 
d="M15 700l379 -700h127l-378 700h-128z" />
    <glyph glyph-name="bracketright" unicode="]" horiz-adv-x="343" 
d="M121 -106h-101v-114h229v1000h-229v-114h101v-772z" />
    <glyph glyph-name="asciicircum" unicode="^" horiz-adv-x="510" 
d="M255 593l89 -142h118l-170 259h-74l-170 -259h118z" />
    <glyph glyph-name="underscore" unicode="_" horiz-adv-x="521" 
d="M0 -147h521v83h-521v-83z" />
    <glyph glyph-name="grave" unicode="`" horiz-adv-x="375" 
d="M60 656l180 -150l73 38l-150 160z" />
    <glyph glyph-name="a" unicode="a" horiz-adv-x="521" 
d="M156 143q0 20 9 33.5t28 21t49 7.5q37 0 70.5 -10t60.5 -30v60q-10 12 -33 25t-56.5 22t-77.5 9q-86 0 -133 -39t-47 -106q0 -47 22.5 -79.5t59.5 -49.5t80 -17q42 0 80.5 15t63 45t24.5 74l-16 60q0 -33 -15 -56.5t-39 -36t-54 -12.5q-21 0 -38.5 7.5t-27.5 22t-10 34.5
zM106 330q10 7 31 17t50 17t61 7q21 0 38 -4t29.5 -13t18.5 -22.5t6 -32.5v-299h125v326q0 47 -26 79.5t-72 49.5t-105 17q-64 0 -116 -17.5t-88 -36.5z" />
    <glyph glyph-name="b" unicode="b" 
d="M191 780h-130v-780h130v780zM569 230q0 77 -31 130.5t-81.5 81.5t-108.5 28q-57 0 -101.5 -29t-70.5 -82.5t-26 -128.5q0 -74 26 -128t70.5 -83t101.5 -29q58 0 108.5 28t81.5 82t31 130zM435 230q0 -41 -17 -71t-45.5 -46t-62.5 -16q-29 0 -56.5 15.5t-45 45.5t-17.5 72
t17.5 72t45 45.5t56.5 15.5q34 0 62.5 -16t45.5 -46t17 -71z" />
    <glyph glyph-name="c" unicode="c" horiz-adv-x="489" 
d="M162 230q0 39 18 69t48.5 47.5t67.5 17.5q28 0 56 -9t51.5 -25.5t35.5 -38.5v133q-24 21 -62.5 33.5t-89.5 12.5q-73 0 -131.5 -30t-92 -84t-33.5 -126q0 -71 33.5 -125.5t92 -84.5t131.5 -30q51 0 89.5 12.5t62.5 34.5v133q-12 -22 -34.5 -38.5t-50.5 -26t-58 -9.5
q-37 0 -67.5 17t-48.5 47t-18 70z" />
    <glyph glyph-name="d" unicode="d" 
d="M411 780v-780h130v780h-130zM33 230q0 -76 31 -130t82 -82t108 -28q58 0 102.5 29t70 83t25.5 128q0 75 -25.5 128.5t-70 82.5t-102.5 29q-57 0 -108 -28t-82 -81.5t-31 -130.5zM167 230q0 41 17 71t46 46t62 16q29 0 56.5 -15.5t45 -45.5t17.5 -72t-17.5 -72t-45 -45.5
t-56.5 -15.5q-33 0 -62 16t-46 46t-17 71z" />
    <glyph glyph-name="e" unicode="e" horiz-adv-x="555" 
d="M281 -10q83 0 142.5 32.5t95.5 97.5l-113 35q-20 -33 -50.5 -49.5t-73.5 -16.5q-38 0 -65 17t-40.5 49t-13.5 78q1 48 14.5 80.5t39 49t63.5 16.5q31 0 54 -14t35.5 -38t12.5 -58q0 -7 -3.5 -17.5t-7.5 -16.5l35 46h-299v-80h412q1 6 1.5 16t0.5 19q0 74 -28 126.5
t-81.5 80t-129.5 27.5t-132 -29.5t-86.5 -83t-30.5 -127.5q0 -73 30.5 -126.5t86.5 -83.5t131 -30z" />
    <glyph glyph-name="f" unicode="f" horiz-adv-x="326" 
d="M25 460v-109h288v109h-288zM299 650l55 97q-9 10 -24.5 21t-37.5 18.5t-53 7.5q-52 0 -88 -19.5t-54 -55.5t-18 -89v-630h125v601q0 26 6 43t16.5 24.5t25.5 7.5q12 0 24.5 -5.5t22.5 -20.5z" />
    <glyph glyph-name="g" unicode="g" horiz-adv-x="598" 
d="M42 -32q4 -60 32.5 -106.5t82.5 -72t134 -25.5q66 0 122 25.5t89.5 80.5t33.5 140v450h-125v-450q0 -47 -17.5 -78t-46 -46t-60.5 -15q-35 0 -61 12t-41 33.5t-16 51.5h-127zM33 234q0 -76 31 -128.5t82 -79.5t108 -27q58 0 102.5 27.5t70 80.5t25.5 127
q0 75 -25.5 127.5t-70 80.5t-102.5 28q-57 0 -108 -27t-82 -79.5t-31 -129.5zM167 234q0 42 17 70.5t46 43.5t62 15q22 0 43 -8.5t38.5 -24.5t27.5 -40t10 -56q0 -42 -17.5 -70.5t-45 -43t-56.5 -14.5q-33 0 -62 15t-46 43.5t-17 69.5z" />
    <glyph glyph-name="h" unicode="h" horiz-adv-x="555" 
d="M194 780h-130v-780h130v780zM361 280v-280h130v299q0 57 -17 96.5t-52 59.5t-89 20t-91 -26t-55.5 -70t-18.5 -99h26q0 29 11 50t32 32.5t48 11.5q41 0 58.5 -24t17.5 -70z" />
    <glyph glyph-name="i" unicode="i" horiz-adv-x="271" 
d="M58 638q0 -31 23 -52t55 -21t54.5 21t22.5 52q0 32 -22.5 52.5t-54.5 20.5t-55 -20.5t-23 -52.5zM72 460v-460h126v460h-126z" />
    <glyph glyph-name="j" unicode="j" horiz-adv-x="265" 
d="M50 638q0 -31 23 -52t55 -21t54.5 21t22.5 52q0 32 -22.5 52.5t-54.5 20.5t-55 -20.5t-23 -52.5zM-28 -89l-56 -97q12 -11 27.5 -22t37 -18t50.5 -7q53 0 89 20.5t54 57.5t18 86v529h-125v-499q0 -26 -5 -42.5t-16 -24.5t-27 -8q-15 0 -26.5 7t-20.5 18z" />
    <glyph glyph-name="k" unicode="k" horiz-adv-x="534" 
d="M61 780v-780h125v780h-125zM355 460l-198 -190l219 -270h154l-218 270l198 190h-155z" />
    <glyph glyph-name="l" unicode="l" horiz-adv-x="258" 
d="M64 780v-780h130v780h-130z" />
    <glyph glyph-name="m" unicode="m" horiz-adv-x="808" 
d="M744 294q0 56 -15.5 95.5t-47.5 60t-83 20.5q-47 0 -83.5 -20t-61.5 -59q-15 39 -48 59t-84 20q-46 0 -79 -20t-53 -58v68h-125v-460h125v280q0 30 10 51.5t28 32t42 10.5q36 0 52 -23.5t16 -70.5v-280h129v280q0 30 10 51.5t28 32t42 10.5q36 0 52 -23.5t16 -70.5v-280
h130v294z" />
    <glyph glyph-name="n" unicode="n" horiz-adv-x="559" 
d="M361 280v-280h134v294q0 83 -40 129.5t-122 46.5q-49 0 -83.5 -20.5t-55.5 -59.5v70h-130v-460h130v280q0 29 11 50t32 32.5t48 11.5q40 0 58 -24t18 -70z" />
    <glyph glyph-name="o" unicode="o" horiz-adv-x="576" 
d="M33 230q0 -71 33.5 -125.5t91 -84.5t130.5 -30t130.5 30t91 84.5t33.5 125.5q0 72 -33.5 126t-91 84t-130.5 30t-130.5 -30t-91 -84t-33.5 -126zM165 230q0 39 16.5 69t44.5 46t62 16t62 -16t44.5 -46t16.5 -69t-16.5 -68.5t-44.5 -46t-62 -16.5t-62 16.5t-44.5 46
t-16.5 68.5z" />
    <glyph glyph-name="p" unicode="p" 
d="M191 -220v680h-130v-680h130zM569 230q0 79 -31 133.5t-81.5 82.5t-108.5 28q-59 0 -102.5 -30t-67 -84.5t-23.5 -129.5q0 -74 23.5 -129t67 -85t102.5 -30q58 0 108.5 28t81.5 83t31 133zM435 230q0 -41 -17 -70t-45.5 -44t-62.5 -15q-29 0 -56.5 14.5t-45 43.5
t-17.5 71t17.5 71t45 43.5t56.5 14.5q34 0 62.5 -15t45.5 -44t17 -70z" />
    <glyph glyph-name="q" unicode="q" 
d="M411 -220h130v680h-130v-680zM33 230q0 -78 31 -133t82 -83t108 -28q61 0 104 30t66 85t23 129q0 75 -23 129.5t-66 84.5t-104 30q-57 0 -108 -28t-82 -82.5t-31 -133.5zM167 230q0 41 17 70t46 44t62 15q29 0 56.5 -14.5t45 -43.5t17.5 -71t-17.5 -71t-45 -43.5
t-56.5 -14.5q-33 0 -62 15t-46 44t-17 70z" />
    <glyph glyph-name="r" unicode="r" horiz-adv-x="390" 
d="M191 460h-127v-460h127v460zM326 325l59 110q-14 18 -36.5 27t-47.5 9q-36 0 -70 -25.5t-55 -68t-21 -97.5l36 -36q0 33 8.5 56.5t25.5 36.5t41 13q20 0 33.5 -6.5t26.5 -18.5z" />
    <glyph glyph-name="s" unicode="s" horiz-adv-x="439" 
d="M87 159l-63 -81q26 -25 58.5 -46.5t73 -34.5t89.5 -13q79 0 124 38.5t45 107.5q0 42 -19 68t-50.5 43.5t-68.5 31.5q-30 13 -53.5 22t-36 20.5t-12.5 26.5q0 17 12.5 25.5t34.5 8.5q33 0 67.5 -17t59.5 -44l57 80q-22 22 -51 38.5t-63 26.5t-73 10q-46 0 -83.5 -14.5
t-59.5 -43t-22 -69.5q0 -43 19.5 -70.5t49.5 -44t62 -28.5q34 -11 56 -21t33.5 -22.5t11.5 -30.5q0 -20 -14 -31.5t-40 -11.5q-20 0 -42.5 8t-47.5 24.5t-54 43.5z" />
    <glyph glyph-name="t" unicode="t" horiz-adv-x="294" 
d="M5 460v-109h284v109h-284zM84 620v-620h125v620h-125z" />
    <glyph glyph-name="u" unicode="u" horiz-adv-x="559" 
d="M198 180v280h-134v-294q0 -82 40.5 -129t122.5 -47q49 0 83 20.5t56 59.5v-70h129v460h-129v-280q0 -29 -11.5 -50t-32 -32.5t-48.5 -11.5q-40 0 -58 24.5t-18 69.5z" />
    <glyph glyph-name="v" unicode="v" horiz-adv-x="500" 
d="M-2 460l252 -508l252 508h-139l-113 -277l-113 277h-139z" />
    <glyph glyph-name="w" unicode="w" horiz-adv-x="736" 
d="M-4 460l226 -491l144 293l148 -293l225 491h-137l-102 -256l-135 291l-130 -290l-101 255h-138z" />
    <glyph glyph-name="x" unicode="x" horiz-adv-x="497" 
d="M344 460l-94 -133l-92 133h-148l172 -223l-182 -237h148l102 146l104 -146h143l-180 237l170 223h-143z" />
    <glyph glyph-name="y" unicode="y" horiz-adv-x="496" 
d="M502 460h-135l-145 -364l64 -2l-148 366h-144l191 -414l-116 -266h133z" />
    <glyph glyph-name="z" unicode="z" horiz-adv-x="503" 
d="M270 342l-255 -342h444v118h-218l247 342h-434v-118h216z" />
    <glyph glyph-name="braceleft" unicode="{" horiz-adv-x="371" 
d="M238 626q0 20 13 35t35 15h35v104h-81q-35 0 -67.5 -14.5t-53.5 -45t-21 -80.5v-193q0 -57 -13.5 -79.5t-43.5 -30.5v-94q30 -7 43.5 -30t13.5 -80v-193q0 -49 21 -80t53.5 -45.5t67.5 -14.5h81v104h-35q-22 0 -35 15.5t-13 34.5v136q0 33 -3 70t-15.5 68.5t-39.5 51.5
t-76 20v-20q49 0 76 20t39.5 51.5t15.5 68.5t3 70v136z" />
    <glyph glyph-name="bar" unicode="|" horiz-adv-x="328" 
d="M100 785v-1000h128v1000h-128z" />
    <glyph glyph-name="braceright" unicode="}" horiz-adv-x="371" 
d="M138 -46q0 -19 -12.5 -34.5t-35.5 -15.5h-35v-104h82q34 0 67 14.5t53.5 45.5t20.5 80v193q0 57 14 80t43 30v94q-29 8 -43 30.5t-14 79.5v193q0 50 -20.5 80.5t-53.5 45t-67 14.5h-82v-104h35q23 0 35.5 -15t12.5 -35v-136q0 -33 3 -70t15.5 -68.5t39.5 -51.5t77 -20v20
q-50 0 -77 -20t-39.5 -51.5t-15.5 -68.5t-3 -70v-136z" />
    <glyph glyph-name="asciitilde" unicode="~" horiz-adv-x="575" 
d="M152 167q-2 6 -3.5 12t-1.5 15q0 19 10.5 33.5t35.5 14.5q13 0 26.5 -4t27.5 -11t30 -19q35 -24 64 -36.5t57 -12.5q37 0 62 13t45 38q16 20 21 43.5t5 45.5q0 8 -1 15t-3 13l-108 5q3 -7 5 -15.5t2 -16.5q0 -19 -8.5 -30.5t-27.5 -11.5q-13 0 -30.5 8.5t-41.5 24.5
q-23 16 -43 27t-39.5 16.5t-41.5 5.5q-44 0 -72.5 -15t-48.5 -41q-17 -21 -23 -43t-6 -45q0 -13 3 -24z" />
    <glyph glyph-name="uni00A0" unicode="&#xa0;" horiz-adv-x="300" 
 />
    <glyph glyph-name="exclamdown" unicode="&#xa1;" horiz-adv-x="330" 
d="M245 -234l-29 478h-102l-29 -478h160zM247 411q0 33 -23 54.5t-59 21.5q-35 0 -58.5 -21.5t-23.5 -54.5t23.5 -55t58.5 -22q36 0 59 22t23 55z" />
    <glyph glyph-name="cent" unicode="&#xa2;" horiz-adv-x="580" 
d="M250 38l-6 -150h109l-7 150h-96zM192 230q0 39 18 69.5t48.5 47.5t66.5 17q50 0 87 -22t56 -52v134q-24 21 -64 33.5t-87 12.5q-74 0 -132 -30t-91.5 -84t-33.5 -126q0 -71 33.5 -125.5t91.5 -84.5t132 -30q47 0 87 12.5t64 33.5v134q-19 -30 -56 -52t-87 -22
q-36 0 -66.5 16.5t-48.5 46t-18 71.5zM244 578l6 -150h96l7 150h-109z" />
    <glyph glyph-name="sterling" unicode="&#xa3;" horiz-adv-x="601" 
d="M67 370v-92h373v92h-373zM439 470l116 44q-2 32 -17.5 66t-44.5 63.5t-71 48t-97 18.5q-63 0 -115.5 -22.5t-83.5 -65t-31 -102.5q0 -37 10 -64t25.5 -48.5t31 -41t26 -41.5t10.5 -50q0 -49 -15.5 -92.5t-47 -87.5t-80.5 -95h477v121h-352l-37 -71q28 8 59.5 27.5t59 49
t45 65.5t17.5 76q0 34 -9.5 59t-23 45t-28 39t-23.5 41t-9 51q0 31 14 51t36.5 29t48.5 9q29 0 49 -10.5t33 -28t19.5 -39t7.5 -44.5z" />
    <glyph glyph-name="currency" unicode="&#xa4;" horiz-adv-x="578" 
d="M28 503l98 -97l57 57l-97 99zM86 38l97 99l-57 57l-98 -97zM452 406l98 97l-58 59l-98 -99zM394 137l98 -99l58 59l-98 97zM51 300q0 -69 31.5 -123.5t85.5 -85.5t121 -31q68 0 121.5 31t85 85.5t31.5 123.5q0 70 -31.5 124t-85 85t-121.5 31q-67 0 -121 -31t-85.5 -85
t-31.5 -124zM171 300q0 36 15 64t42 43t61 15t61 -15t42.5 -43t15.5 -64t-15.5 -64t-42.5 -43t-61 -15t-61 15t-42 43t-15 64z" />
    <glyph glyph-name="yen" unicode="&#xa5;" horiz-adv-x="641" 
d="M45 273h547v92h-547v-92zM45 123h547v92h-547v-92zM471 700l-151 -282l-150 282h-164l242 -410v-290h146v293l240 407h-163z" />
    <glyph glyph-name="brokenbar" unicode="&#xa6;" horiz-adv-x="328" 
d="M100 695v-257h128v257h-128zM228 262h-128v-257h128v257z" />
    <glyph glyph-name="section" unicode="&#xa7;" horiz-adv-x="524" 
d="M372 558l69 81q-12 23 -40 41t-64.5 28.5t-75.5 10.5q-42 0 -82 -15.5t-66.5 -46t-26.5 -75.5q0 -31 11.5 -53.5t29.5 -38.5t40 -28t45 -20q27 -10 53.5 -21.5t44.5 -28t18 -42.5q0 -20 -11 -37t-28.5 -28t-38.5 -13v-40q39 0 75 8t64 25.5t43.5 44.5t15.5 66
q0 36 -18 63t-48 46t-67 30q-20 7 -39 13t-33.5 12.5t-23 15.5t-8.5 19q0 12 6.5 19t19.5 11.5t31 4.5q17 0 36 -6t37.5 -17.5t30.5 -28.5zM118 170l-70 -80q17 -30 48 -55t73 -39.5t93 -14.5q37 0 71 9t60.5 27t42 46t15.5 67q0 38 -18 65.5t-47 47t-62 32.5q-19 8 -41 15
t-41 16.5t-31 24.5t-12 38q0 21 10.5 34.5t28.5 24t42 17.5v35q-43 0 -79.5 -9t-64.5 -27t-43.5 -43t-15.5 -59q0 -38 21 -66t54.5 -46t68.5 -29q28 -8 50.5 -17t36 -21t13.5 -31q0 -13 -7 -22.5t-21 -14t-35 -4.5t-47 9t-50 26.5t-43 43.5z" />
    <glyph glyph-name="dieresis" unicode="&#xa8;" horiz-adv-x="498" 
d="M286 641q0 -32 23 -53t55 -21q33 0 55.5 21t22.5 53t-22.5 52.5t-55.5 20.5q-32 0 -55 -20.5t-23 -52.5zM56 641q0 -32 23 -53t55 -21q33 0 55.5 21t22.5 53t-22.5 52.5t-55.5 20.5q-32 0 -55 -20.5t-23 -52.5z" />
    <glyph glyph-name="copyright" unicode="&#xa9;" horiz-adv-x="800" 
d="M273 350q0 42 18 72.5t49 47t69 16.5q44 0 75.5 -16.5t52.5 -40.5v96q-26 21 -56.5 32.5t-76.5 11.5q-64 0 -114.5 -28t-80 -77t-29.5 -114q0 -64 29.5 -113.5t80 -77.5t114.5 -28q46 0 76.5 11.5t56.5 32.5v96q-21 -24 -52.5 -40.5t-75.5 -16.5q-38 0 -69 16.5t-49 47
t-18 72.5zM95 350q0 67 23 123.5t64.5 98.5t97 65t120.5 23t120.5 -23t97 -65t64.5 -98.5t23 -123.5t-23 -123.5t-64.5 -98.5t-97 -65t-120.5 -23t-120.5 23t-97 65t-64.5 98.5t-23 123.5zM40 350q0 -78 27.5 -144t76 -114.5t114.5 -75t142 -26.5q77 0 142.5 26.5t114 75
t76 114.5t27.5 144t-27.5 144t-76 114.5t-114 75t-142.5 26.5q-76 0 -142 -26.5t-114.5 -75t-76 -114.5t-27.5 -144z" />
    <glyph glyph-name="ordfeminine" unicode="&#xaa;" horiz-adv-x="260" 
d="M84 531q0 16 12.5 27t33.5 11q20 0 35.5 -5.5t28.5 -15.5v32q-7 8 -28 17t-49 9q-40 0 -69.5 -21t-29.5 -56t24 -54.5t59 -19.5q36 0 60.5 18.5t24.5 51.5l-8 27q0 -29 -17.5 -40.5t-38.5 -11.5q-20 0 -29 9t-9 22zM63 631q8 6 27.5 14t44.5 8q19 0 31 -9.5t12 -25.5
v-158h62v172q0 35 -28 54t-73 19q-31 0 -56.5 -9t-43.5 -18z" />
    <glyph glyph-name="guillemotleft" unicode="&#xab;" horiz-adv-x="531" 
d="M333 259l150 186l-80 58l-182 -248l182 -248l80 58zM143 259l150 186l-80 58l-182 -248l182 -248l80 58z" />
    <glyph glyph-name="logicalnot" unicode="&#xac;" horiz-adv-x="641" 
d="M65 281h415v-106h96v219h-511v-113z" />
    <glyph glyph-name="uni00AD" unicode="&#xad;" horiz-adv-x="210" 
d="M5 200h200v75h-200v-75z" />
    <glyph glyph-name="registered" unicode="&#xae;" horiz-adv-x="800" 
d="M368 337l109 -187h102l-129 187h-82zM260 570v-420h86v420h-86zM312 497h84q34 0 54 -15t20 -46q0 -30 -20 -45.5t-54 -15.5h-84v-68h89q74 0 115.5 37t41.5 97q0 56 -41.5 92.5t-115.5 36.5h-89v-73zM95 350q0 67 23 123.5t64.5 98.5t97 65t120.5 23t120.5 -23t97 -65
t64.5 -98.5t23 -123.5t-23 -123.5t-64.5 -98.5t-97 -65t-120.5 -23t-120.5 23t-97 65t-64.5 98.5t-23 123.5zM40 350q0 -78 27.5 -144t76 -114.5t114.5 -75t142 -26.5q77 0 142.5 26.5t114 75t76 114.5t27.5 144t-27.5 144t-76 114.5t-114 75t-142.5 26.5q-76 0 -142 -26.5
t-114.5 -75t-76 -114.5t-27.5 -144z" />
    <glyph glyph-name="macron" unicode="&#xaf;" horiz-adv-x="525" 
d="M80 581h365v113h-365v-113z" />
    <glyph glyph-name="degree" unicode="&#xb0;" horiz-adv-x="291" 
d="M18 598q0 -53 36 -87.5t91 -34.5t91.5 34.5t36.5 87.5q0 54 -36.5 88t-91.5 34t-91 -34t-36 -88zM81 598q0 29 18.5 47.5t45.5 18.5q28 0 46 -18.5t18 -47.5q0 -30 -18 -48t-46 -18t-46 18t-18 48z" />
    <glyph glyph-name="plusminus" unicode="&#xb1;" horiz-adv-x="628" 
d="M65 4h498v115h-498v-115zM65 336h498v119h-498v-119zM248 620v-449h132v449h-132z" />
    <glyph glyph-name="uni00B2" unicode="&#xb2;" horiz-adv-x="389" 
d="M25 282h337v79h-175l109 102q26 25 42.5 53t16.5 61q0 32 -16.5 62.5t-49 50.5t-83.5 20q-50 0 -86 -21t-55 -57.5t-19 -81.5h85q0 39 20.5 62t52.5 23q22 0 35.5 -8.5t20.5 -22t7 -29.5q0 -25 -13.5 -46.5t-37.5 -46.5z" />
    <glyph glyph-name="uni00B3" unicode="&#xb3;" horiz-adv-x="348" 
d="M150 484q47 0 84.5 13t59 37.5t21.5 57.5q0 47 -36 81t-102 34q-62 0 -100.5 -35t-38.5 -89h80q0 24 17 39t42 15q27 0 40 -13.5t13 -35.5q0 -17 -10 -31t-28 -22.5t-42 -8.5v-42zM173 271q71 0 112.5 34.5t41.5 88.5q0 42 -23 68t-63 38.5t-91 12.5v-46q30 0 50.5 -7.5
t31 -22t10.5 -35.5q0 -29 -18.5 -44t-47.5 -15t-50 16.5t-21 46.5h-85q0 -35 18.5 -66t53 -50t81.5 -19z" />
    <glyph glyph-name="acute" unicode="&#xb4;" horiz-adv-x="375" 
d="M313 656l-103 48l-150 -160l73 -38z" />
    <glyph glyph-name="mu" unicode="&#xb5;" horiz-adv-x="559" 
d="M198 460h-134v-780h125v333q19 -11 35.5 -15t34.5 -4q34 0 61.5 17t45.5 45v-56h129v460h-129v-263q0 -29 -11.5 -50t-32 -32.5t-48.5 -11.5q-40 0 -58 24t-18 70v263z" />
    <glyph glyph-name="paragraph" unicode="&#xb6;" horiz-adv-x="642" 
d="M288 270v-490h113v836h68v-836h113v920h-294q-62 0 -114 -25t-83 -72.5t-31 -117.5q0 -69 31 -117t83 -73t114 -25z" />
    <glyph glyph-name="periodcentered" unicode="&#xb7;" horiz-adv-x="315" 
d="M76 259q0 -32 23.5 -56t58.5 -24q36 0 59 24t23 56q0 34 -23 57.5t-59 23.5q-35 0 -58.5 -23.5t-23.5 -57.5z" />
    <glyph glyph-name="cedilla" unicode="&#xb8;" horiz-adv-x="380" 
d="M187 68l-86 -187q23 11 45 14t29 3q24 0 40.5 -7t16.5 -26q0 -18 -13.5 -27.5t-39.5 -9.5q-16 0 -35 6t-36 19l-42 -60q31 -22 60 -30.5t67 -8.5q30 0 58.5 12t47 35.5t18.5 57.5q0 30 -14 50t-33.5 30t-38.5 10q-8 0 -15 -0.5t-13 -2.5l79 119z" />
    <glyph glyph-name="uni00B9" unicode="&#xb9;" horiz-adv-x="479" 
d="M139 584l101 27v-337h83v427l-184 -39v-78z" />
    <glyph glyph-name="ordmasculine" unicode="&#xba;" horiz-adv-x="278" 
d="M19 580q0 -53 36 -86.5t91 -33.5t91.5 33.5t36.5 86.5q0 54 -36.5 87t-91.5 33t-91 -33t-36 -87zM85 580q0 30 17.5 47.5t43.5 17.5t44 -17.5t18 -47.5t-18 -47.5t-44 -17.5t-43.5 17.5t-17.5 47.5z" />
    <glyph glyph-name="guillemotright" unicode="&#xbb;" horiz-adv-x="531" 
d="M199 251l-150 -186l80 -58l181 248l-181 248l-80 -58zM389 251l-150 -186l80 -58l181 248l-181 248l-80 -58z" />
    <glyph glyph-name="onequarter" unicode="&#xbc;" horiz-adv-x="801" 
d="M627 700l-520 -700h86l520 700h-86zM26 584l100 27v-337h84v427l-184 -39v-78zM404 78h365v73h-100l-10 -9h-185zM491 98l131 186v-178l-7 -6v-100h88v420h-58l-241 -342z" />
    <glyph glyph-name="onehalf" unicode="&#xbd;" horiz-adv-x="870" 
d="M627 700l-520 -700h86l520 700h-86zM26 584l100 27v-337h84v427l-184 -39v-78zM502 2h337v79h-175l108 102q27 25 43 53t16 61q0 32 -16 62.5t-49 50.5t-83 20q-51 0 -86.5 -21t-54.5 -57.5t-19 -81.5h84q0 39 21 62t53 23q22 0 35.5 -8.5t20 -22t6.5 -29.5
q0 -25 -13.5 -46.5t-37.5 -46.5z" />
    <glyph glyph-name="threequarters" unicode="&#xbe;" horiz-adv-x="861" 
d="M691 700l-520 -700h87l520 700h-87zM157 484q48 0 85 13t58.5 37.5t21.5 57.5q0 47 -36 81t-101 34q-63 0 -101.5 -35t-38.5 -89h80q0 24 17 39t42 15q27 0 40 -13.5t13 -35.5q0 -17 -10 -31t-27.5 -22.5t-42.5 -8.5v-42zM180 271q71 0 112.5 34.5t41.5 88.5q0 42 -23 68
t-63 38.5t-91 12.5v-46q30 0 50.5 -7.5t31 -22t10.5 -35.5q0 -29 -18.5 -44t-47.5 -15t-50 16.5t-21 46.5h-85q0 -35 18.5 -66t53 -50t81.5 -19zM465 78h365v73h-101l-10 -9h-184zM552 98l131 186v-178l-8 -6v-100h89v420h-59l-240 -342z" />
    <glyph glyph-name="questiondown" unicode="&#xbf;" horiz-adv-x="605" 
d="M186 200q0 29 20.5 59.5t60.5 51t100 20.5h31l-20 178h-103l-6 -96q-53 -6 -102.5 -34t-80 -73t-30.5 -106q0 -50 19.5 -89.5t54 -68t78 -43.5t91.5 -15q60 0 105.5 15t81.5 43t68 68l-91 71q-27 -41 -67 -63.5t-87 -22.5q-38 0 -65.5 12.5t-42.5 36t-15 56.5zM407 647
q0 30 -23 52t-59 22q-35 0 -58.5 -22t-23.5 -52t23.5 -52t58.5 -22q36 0 59 22t23 52z" />
    <glyph glyph-name="Agrave" unicode="&#xc0;" horiz-adv-x="711" 
d="M173 159h370l-17 113h-336zM356 473l105 -243l-2 -36l90 -194h162l-355 741l-355 -741h161l92 200l-3 32zM204 951l180 -150l73 39l-150 160z" />
    <glyph glyph-name="Aacute" unicode="&#xc1;" horiz-adv-x="711" 
d="M173 159h370l-17 113h-336zM356 473l105 -243l-2 -36l90 -194h162l-355 741l-355 -741h161l92 200l-3 32zM505 951l-103 49l-150 -160l73 -39z" />
    <glyph glyph-name="Acircumflex" unicode="&#xc2;" horiz-adv-x="711" 
d="M173 159h370l-17 113h-336zM356 473l105 -243l-2 -36l90 -194h162l-355 741l-355 -741h161l92 200l-3 32zM356 867l97 -88l88 61l-185 140l-186 -140l89 -61z" />
    <glyph glyph-name="Atilde" unicode="&#xc3;" horiz-adv-x="711" 
d="M173 159h370l-17 113h-336zM356 473l105 -243l-2 -36l90 -194h162l-355 741l-355 -741h161l92 200l-3 32zM169 847l66 -54q0 8 4 20t14.5 21.5t29.5 9.5q24 0 44 -13t41.5 -26t48.5 -13q29 0 54.5 13t44 32t26.5 37l-63 64q-15 -24 -30 -37.5t-32 -13.5q-21 0 -35.5 7.5
t-27 17.5t-29.5 17.5t-41 7.5q-28 0 -53 -12.5t-41 -32.5t-21 -45z" />
    <glyph glyph-name="Adieresis" unicode="&#xc4;" horiz-adv-x="711" 
d="M173 159h370l-17 113h-336zM356 473l105 -243l-2 -36l90 -194h162l-355 741l-355 -741h161l92 200l-3 32zM406 836q0 -31 23 -52t55 -21t54.5 21t22.5 52q0 32 -22.5 53t-54.5 21t-55 -21t-23 -53zM146 841q0 -32 23 -53t55 -21t54.5 21t22.5 53t-22.5 52.5t-54.5 20.5
t-55 -20.5t-23 -52.5z" />
    <glyph glyph-name="Aring" unicode="&#xc5;" horiz-adv-x="711" 
d="M173 159h370l-17 113h-336zM356 473l105 -243l-2 -36l90 -194h162l-355 741l-355 -741h161l92 200l-3 32zM238 800q0 -50 34.5 -80.5t82.5 -30.5t83.5 30.5t35.5 80.5q0 49 -35.5 79.5t-83.5 30.5t-82.5 -30.5t-34.5 -79.5zM308 800q0 23 14 36t33 13t33.5 -13t14.5 -36
q0 -24 -14.5 -36.5t-33.5 -12.5t-33 12.5t-14 36.5z" />
    <glyph glyph-name="AE" unicode="&#xc6;" horiz-adv-x="1046" 
d="M253 169h305v132h-300zM437 700l-426 -700h177l382 660zM601 0h375v121h-375v-121zM609 579h367v121h-539zM601 312h355v119h-355v-119zM531 700v-700h151v700h-151z" />
    <glyph glyph-name="Ccedilla" unicode="&#xc7;" horiz-adv-x="696" 
d="M191 350q0 70 31.5 121t82.5 78.5t111 27.5q50 0 89 -13t70.5 -35t54.5 -48v161q-43 34 -93.5 53t-127.5 19q-80 0 -148.5 -26t-119 -75t-78 -115.5t-27.5 -147.5t27.5 -147.5t78 -115.5t119 -75t148.5 -26q77 0 127.5 19t93.5 53v161q-23 -26 -54.5 -48t-70.5 -35
t-89 -13q-60 0 -111 27.5t-82.5 79t-31.5 120.5zM365 52l-87 -187q23 11 45 14t29 3q25 0 41.5 -7t16.5 -26q0 -18 -13.5 -27.5t-39.5 -9.5q-16 0 -35 6t-37 19l-42 -60q31 -22 60.5 -30.5t66.5 -8.5q31 0 59 12t46.5 35.5t18.5 57.5q0 30 -13.5 50t-33.5 30t-39 10
q-7 0 -14 -0.5t-14 -2.5l79 119z" />
    <glyph glyph-name="Egrave" unicode="&#xc8;" horiz-adv-x="586" 
d="M168 0h353v121h-353v-121zM168 579h353v121h-353v-121zM168 312h333v119h-333v-119zM76 700v-700h138v700h-138zM147 929l180 -150l72 38l-150 160z" />
    <glyph glyph-name="Eacute" unicode="&#xc9;" horiz-adv-x="586" 
d="M168 0h353v121h-353v-121zM168 579h353v121h-353v-121zM168 312h333v119h-333v-119zM76 700v-700h138v700h-138zM448 929l-103 48l-150 -160l73 -38z" />
    <glyph glyph-name="Ecircumflex" unicode="&#xca;" horiz-adv-x="586" 
d="M168 0h353v121h-353v-121zM168 579h353v121h-353v-121zM168 312h333v119h-333v-119zM76 700v-700h138v700h-138zM304 863l97 -89l88 62l-185 140l-186 -140l89 -62z" />
    <glyph glyph-name="Edieresis" unicode="&#xcb;" horiz-adv-x="586" 
d="M168 0h353v121h-353v-121zM168 579h353v121h-353v-121zM168 312h333v119h-333v-119zM76 700v-700h138v700h-138zM341 859q0 -31 23 -52t55 -21q33 0 55.5 21t22.5 52q0 32 -22.5 53t-55.5 21q-32 0 -55 -21t-23 -53zM111 859q0 -31 23 -52t55 -21q33 0 55.5 21t22.5 52
q0 32 -22.5 53t-55.5 21q-32 0 -55 -21t-23 -53z" />
    <glyph glyph-name="Igrave" unicode="&#xcc;" horiz-adv-x="296" 
d="M76 700v-700h145v700h-145zM-8 929l180 -150l73 38l-150 160z" />
    <glyph glyph-name="Iacute" unicode="&#xcd;" horiz-adv-x="296" 
d="M76 700v-700h145v700h-145zM293 929l-102 48l-150 -160l72 -38z" />
    <glyph glyph-name="Icircumflex" unicode="&#xce;" horiz-adv-x="296" 
d="M76 700v-700h145v700h-145zM148 863l97 -89l89 62l-186 140l-186 -140l89 -62z" />
    <glyph glyph-name="Idieresis" unicode="&#xcf;" horiz-adv-x="296" 
d="M76 700v-700h145v700h-145zM186 848q0 -32 22.5 -53t54.5 -21q33 0 55.5 21t22.5 53t-22.5 52.5t-55.5 20.5q-32 0 -54.5 -20.5t-22.5 -52.5zM-44 848q0 -32 22.5 -53t54.5 -21q33 0 55.5 21t22.5 53t-22.5 52.5t-55.5 20.5q-32 0 -54.5 -20.5t-22.5 -52.5z" />
    <glyph glyph-name="Eth" unicode="&#xd0;" horiz-adv-x="716" 
d="M5 305h335v92h-335v-92zM76 700v-700h146v700h-146zM314 0q110 0 192.5 43t128.5 121.5t46 185.5t-46 185.5t-128.5 121.5t-192.5 43h-146v-130h141q46 0 87 -12.5t72 -39.5t48.5 -68.5t17.5 -99.5t-17.5 -99.5t-48.5 -68.5t-72 -39.5t-87 -12.5h-141v-130h146z" />
    <glyph glyph-name="Ntilde" unicode="&#xd1;" horiz-adv-x="788" 
d="M574 700v-434l-498 469v-735h138v434l498 -469v735h-138zM185 820l66 -54q0 8 3.5 20t14.5 21.5t30 9.5q24 0 43.5 -12.5t41.5 -25.5t49 -13q29 0 54.5 12.5t44 31.5t26.5 37l-63 65q-15 -24 -30 -38t-33 -14q-21 0 -35 8t-27 18t-29.5 17.5t-40.5 7.5q-29 0 -53.5 -12.5
t-40.5 -33t-21 -45.5z" />
    <glyph glyph-name="Ograve" unicode="&#xd2;" horiz-adv-x="811" 
d="M187 350q0 67 28 119t77 82t114 30q66 0 115 -30t76 -82t27 -119t-27.5 -119t-76.5 -82t-114 -30t-114 30t-77 82t-28 119zM36 350q0 -79 27 -146.5t77 -117.5t117.5 -77.5t148.5 -27.5t148.5 27.5t117 77.5t77 117.5t27.5 146.5q0 80 -27.5 146.5t-78 115.5t-117.5 75.5
t-147 26.5q-79 0 -146.5 -26.5t-117.5 -75.5t-78 -115.5t-28 -146.5zM266 929l180 -150l73 38l-150 160z" />
    <glyph glyph-name="Oacute" unicode="&#xd3;" horiz-adv-x="811" 
d="M187 350q0 67 28 119t77 82t114 30q66 0 115 -30t76 -82t27 -119t-27.5 -119t-76.5 -82t-114 -30t-114 30t-77 82t-28 119zM36 350q0 -79 27 -146.5t77 -117.5t117.5 -77.5t148.5 -27.5t148.5 27.5t117 77.5t77 117.5t27.5 146.5q0 80 -27.5 146.5t-78 115.5t-117.5 75.5
t-147 26.5q-79 0 -146.5 -26.5t-117.5 -75.5t-78 -115.5t-28 -146.5zM556 929l-103 48l-150 -160l73 -38z" />
    <glyph glyph-name="Ocircumflex" unicode="&#xd4;" horiz-adv-x="811" 
d="M187 350q0 67 28 119t77 82t114 30q66 0 115 -30t76 -82t27 -119t-27.5 -119t-76.5 -82t-114 -30t-114 30t-77 82t-28 119zM36 350q0 -79 27 -146.5t77 -117.5t117.5 -77.5t148.5 -27.5t148.5 27.5t117 77.5t77 117.5t27.5 146.5q0 80 -27.5 146.5t-78 115.5t-117.5 75.5
t-147 26.5q-79 0 -146.5 -26.5t-117.5 -75.5t-78 -115.5t-28 -146.5zM412 863l97 -89l89 62l-186 140l-186 -140l89 -62z" />
    <glyph glyph-name="Otilde" unicode="&#xd5;" horiz-adv-x="811" 
d="M187 350q0 67 28 119t77 82t114 30q66 0 115 -30t76 -82t27 -119t-27.5 -119t-76.5 -82t-114 -30t-114 30t-77 82t-28 119zM36 350q0 -79 27 -146.5t77 -117.5t117.5 -77.5t148.5 -27.5t148.5 27.5t117 77.5t77 117.5t27.5 146.5q0 80 -27.5 146.5t-78 115.5t-117.5 75.5
t-147 26.5q-79 0 -146.5 -26.5t-117.5 -75.5t-78 -115.5t-28 -146.5zM224 829l65 -54q0 8 4 20t14.5 21.5t29.5 9.5q25 0 44.5 -13t41 -26t48.5 -13q29 0 54.5 13t44 32t26.5 37l-63 64q-15 -24 -30 -37.5t-32 -13.5q-21 0 -35.5 7.5t-27 17.5t-29 17.5t-41.5 7.5
q-28 0 -52.5 -12.5t-40.5 -32.5t-21 -45z" />
    <glyph glyph-name="Odieresis" unicode="&#xd6;" horiz-adv-x="811" 
d="M187 350q0 67 28 119t77 82t114 30q66 0 115 -30t76 -82t27 -119t-27.5 -119t-76.5 -82t-114 -30t-114 30t-77 82t-28 119zM36 350q0 -79 27 -146.5t77 -117.5t117.5 -77.5t148.5 -27.5t148.5 27.5t117 77.5t77 117.5t27.5 146.5q0 80 -27.5 146.5t-78 115.5t-117.5 75.5
t-147 26.5q-79 0 -146.5 -26.5t-117.5 -75.5t-78 -115.5t-28 -146.5zM443 848q0 -32 23 -53t55 -21t54.5 21t22.5 53t-22.5 52.5t-54.5 20.5t-55 -20.5t-23 -52.5zM213 848q0 -32 23 -53t55 -21t54.5 21t22.5 53t-22.5 52.5t-54.5 20.5t-55 -20.5t-23 -52.5z" />
    <glyph glyph-name="multiply" unicode="&#xd7;" horiz-adv-x="596" 
d="M134 9l164 169l164 -169l82 82l-169 164l169 164l-82 82l-164 -169l-164 169l-82 -82l169 -164l-169 -164z" />
    <glyph glyph-name="Oslash" unicode="&#xd8;" horiz-adv-x="790" 
d="M187 350q0 68 28 120t77 81.5t114 29.5t114 -29.5t76.5 -81.5t27.5 -120t-27.5 -120t-76.5 -81.5t-114 -29.5t-114 29.5t-77 81.5t-28 120zM36 350q0 -79 27.5 -146.5t77.5 -117.5t117.5 -77.5t147.5 -27.5t147 27.5t117.5 77.5t78 117.5t27.5 146.5q0 80 -27.5 146.5
t-78 115.5t-117.5 75.5t-147 26.5t-147.5 -26.5t-117.5 -75.5t-77.5 -115.5t-27.5 -146.5zM694 754l-648 -760l67 -48l649 760z" />
    <glyph glyph-name="Ugrave" unicode="&#xd9;" horiz-adv-x="677" 
d="M71 700v-470q0 -62 20 -109t56 -79t85 -48.5t107 -16.5q57 0 106 16.5t85.5 48.5t56.5 79t20 109v470h-143v-461q0 -60 -31.5 -96.5t-93.5 -36.5t-93.5 36.5t-31.5 96.5v461h-143zM187 924l180 -150l73 39l-150 160z" />
    <glyph glyph-name="Uacute" unicode="&#xda;" horiz-adv-x="677" 
d="M71 700v-470q0 -62 20 -109t56 -79t85 -48.5t107 -16.5q57 0 106 16.5t85.5 48.5t56.5 79t20 109v470h-143v-461q0 -60 -31.5 -96.5t-93.5 -36.5t-93.5 36.5t-31.5 96.5v461h-143zM490 924l-103 49l-150 -160l73 -39z" />
    <glyph glyph-name="Ucircumflex" unicode="&#xdb;" horiz-adv-x="677" 
d="M71 700v-470q0 -62 20 -109t56 -79t85 -48.5t107 -16.5q57 0 106 16.5t85.5 48.5t56.5 79t20 109v470h-143v-461q0 -60 -31.5 -96.5t-93.5 -36.5t-93.5 36.5t-31.5 96.5v461h-143zM339 863l97 -89l88 62l-185 140l-186 -140l89 -62z" />
    <glyph glyph-name="Udieresis" unicode="&#xdc;" horiz-adv-x="677" 
d="M71 700v-470q0 -62 20 -109t56 -79t85 -48.5t107 -16.5q57 0 106 16.5t85.5 48.5t56.5 79t20 109v470h-143v-461q0 -60 -31.5 -96.5t-93.5 -36.5t-93.5 36.5t-31.5 96.5v461h-143zM389 848q0 -32 23 -53t55 -21t54.5 21t22.5 53t-22.5 52.5t-54.5 20.5t-55 -20.5
t-23 -52.5zM133 848q0 -32 23 -53t55 -21t55 21t23 53t-23 52.5t-55 20.5t-55 -20.5t-23 -52.5z" />
    <glyph glyph-name="Yacute" unicode="&#xdd;" horiz-adv-x="629" 
d="M466 924l-103 49l-150 -160l73 -39zM465 700l-151 -282l-150 282h-163l241 -411v-289h145v290l241 410h-163z" />
    <glyph glyph-name="Thorn" unicode="&#xde;" horiz-adv-x="593" 
d="M80 700v-700h128v700h-128zM159 456h139q41 0 70 -10.5t45 -33.5t16 -60q0 -36 -16 -59t-45 -34t-70 -11h-139v-117h139q83 0 141 26.5t89 76.5t31 118q0 69 -31 118.5t-89 76t-141 26.5h-139v-117z" />
    <glyph glyph-name="germandbls" unicode="&#xdf;" horiz-adv-x="591" 
d="M363 -12q44 0 83 15.5t70 43t48.5 64.5t17.5 79q0 36 -11 61t-28.5 43t-37.5 31t-37.5 24t-29 23.5t-11.5 28.5q0 20 9.5 36.5t24 33t28.5 37t23.5 47.5t9.5 66q0 58 -29.5 97t-80 58.5t-113.5 19.5q-77 0 -132 -27t-84 -77.5t-29 -121.5v-572h130l-1 564q0 42 13.5 68
t37.5 38t57 12q28 0 49.5 -8.5t34 -26t12.5 -46.5q0 -28 -9.5 -50t-24 -40.5t-29 -36.5t-24 -37.5t-9.5 -43.5t11 -42.5t29 -32.5t38 -27t38 -27t29.5 -32.5t11.5 -43.5q0 -26 -11.5 -46t-32 -32t-47.5 -12q-17 0 -35 5t-34.5 14t-30.5 20l-36 -98q17 -14 39.5 -25.5
t48.5 -17.5t54 -6z" />
    <glyph glyph-name="agrave" unicode="&#xe0;" horiz-adv-x="526" 
d="M156 137q0 21 10.5 36t31.5 24t51 9q41 0 71 -10t58 -31v63q-9 11 -31 23t-54 21t-69 9q-57 0 -102 -18t-70.5 -52t-25.5 -84q0 -43 20 -73.5t57.5 -47t86.5 -16.5q48 0 86.5 16.5t61.5 48t23 75.5l-16 54q0 -38 -15 -61t-41 -33t-57 -10q-24 0 -41 6.5t-26 19t-9 31.5z
M115 329q11 7 32.5 17t50 17.5t61.5 7.5q38 0 62 -17.5t24 -48.5v-305h125v326q0 47 -26 79.5t-71.5 49.5t-105.5 17q-62 0 -113 -17.5t-86 -36.5zM99 682l180 -150l73 39l-150 160z" />
    <glyph glyph-name="aacute" unicode="&#xe1;" horiz-adv-x="526" 
d="M156 137q0 21 10.5 36t31.5 24t51 9q41 0 71 -10t58 -31v63q-9 11 -31 23t-54 21t-69 9q-57 0 -102 -18t-70.5 -52t-25.5 -84q0 -43 20 -73.5t57.5 -47t86.5 -16.5q48 0 86.5 16.5t61.5 48t23 75.5l-16 54q0 -38 -15 -61t-41 -33t-57 -10q-24 0 -41 6.5t-26 19t-9 31.5z
M115 329q11 7 32.5 17t50 17.5t61.5 7.5q38 0 62 -17.5t24 -48.5v-305h125v326q0 47 -26 79.5t-71.5 49.5t-105.5 17q-62 0 -113 -17.5t-86 -36.5zM436 682l-103 49l-150 -160l73 -39z" />
    <glyph glyph-name="acircumflex" unicode="&#xe2;" horiz-adv-x="526" 
d="M156 137q0 21 10.5 36t31.5 24t51 9q41 0 71 -10t58 -31v63q-9 11 -31 23t-54 21t-69 9q-57 0 -102 -18t-70.5 -52t-25.5 -84q0 -43 20 -73.5t57.5 -47t86.5 -16.5q48 0 86.5 16.5t61.5 48t23 75.5l-16 54q0 -38 -15 -61t-41 -33t-57 -10q-24 0 -41 6.5t-26 19t-9 31.5z
M115 329q11 7 32.5 17t50 17.5t61.5 7.5q38 0 62 -17.5t24 -48.5v-305h125v326q0 47 -26 79.5t-71.5 49.5t-105.5 17q-62 0 -113 -17.5t-86 -36.5zM267 621l97 -89l89 62l-186 140l-185 -140l88 -62z" />
    <glyph glyph-name="atilde" unicode="&#xe3;" horiz-adv-x="526" 
d="M156 137q0 21 10.5 36t31.5 24t51 9q41 0 71 -10t58 -31v63q-9 11 -31 23t-54 21t-69 9q-57 0 -102 -18t-70.5 -52t-25.5 -84q0 -43 20 -73.5t57.5 -47t86.5 -16.5q48 0 86.5 16.5t61.5 48t23 75.5l-16 54q0 -38 -15 -61t-41 -33t-57 -10q-24 0 -41 6.5t-26 19t-9 31.5z
M115 329q11 7 32.5 17t50 17.5t61.5 7.5q38 0 62 -17.5t24 -48.5v-305h125v326q0 47 -26 79.5t-71.5 49.5t-105.5 17q-62 0 -113 -17.5t-86 -36.5zM81 589l66 -54q0 8 3.5 20t14 21.5t30.5 9.5q24 0 43.5 -13t41 -26t48.5 -13q30 0 55.5 13t44 32t26.5 37l-63 64
q-15 -24 -30 -37.5t-33 -13.5q-21 0 -35 7.5t-27 17.5t-29.5 17.5t-40.5 7.5q-29 0 -53.5 -12.5t-40.5 -32.5t-21 -45z" />
    <glyph glyph-name="adieresis" unicode="&#xe4;" horiz-adv-x="526" 
d="M156 137q0 21 10.5 36t31.5 24t51 9q41 0 71 -10t58 -31v63q-9 11 -31 23t-54 21t-69 9q-57 0 -102 -18t-70.5 -52t-25.5 -84q0 -43 20 -73.5t57.5 -47t86.5 -16.5q48 0 86.5 16.5t61.5 48t23 75.5l-16 54q0 -38 -15 -61t-41 -33t-57 -10q-24 0 -41 6.5t-26 19t-9 31.5z
M115 329q11 7 32.5 17t50 17.5t61.5 7.5q38 0 62 -17.5t24 -48.5v-305h125v326q0 47 -26 79.5t-71.5 49.5t-105.5 17q-62 0 -113 -17.5t-86 -36.5zM305 606q0 -32 22.5 -53t54.5 -21q33 0 55.5 21t22.5 53t-22.5 52.5t-55.5 20.5q-32 0 -54.5 -20.5t-22.5 -52.5zM75 606
q0 -32 22.5 -53t54.5 -21q33 0 55.5 21t22.5 53t-22.5 52.5t-55.5 20.5q-32 0 -54.5 -20.5t-22.5 -52.5z" />
    <glyph glyph-name="aring" unicode="&#xe5;" horiz-adv-x="526" 
d="M156 137q0 21 10.5 36t31.5 24t51 9q41 0 71 -10t58 -31v63q-9 11 -31 23t-54 21t-69 9q-57 0 -102 -18t-70.5 -52t-25.5 -84q0 -43 20 -73.5t57.5 -47t86.5 -16.5q48 0 86.5 16.5t61.5 48t23 75.5l-16 54q0 -38 -15 -61t-41 -33t-57 -10q-24 0 -41 6.5t-26 19t-9 31.5z
M115 329q11 7 32.5 17t50 17.5t61.5 7.5q38 0 62 -17.5t24 -48.5v-305h125v326q0 47 -26 79.5t-71.5 49.5t-105.5 17q-62 0 -113 -17.5t-86 -36.5zM149 643q0 -49 35 -80t83 -31t83 31t35 80q0 50 -35 80.5t-83 30.5t-83 -30.5t-35 -80.5zM219 643q0 23 14.5 36t33.5 13
t33.5 -13t14.5 -36t-14.5 -36t-33.5 -13t-33.5 13t-14.5 36z" />
    <glyph glyph-name="ae" unicode="&#xe6;" horiz-adv-x="874" 
d="M214 -10q81 0 133 30.5t66 84.5h-11q27 -59 75 -87t122 -28q83 0 142 32.5t97 97.5l-114 35q-18 -32 -50.5 -49t-72.5 -17q-37 0 -63 15t-40.5 44.5t-15.5 71.5l-21 -19h376q1 5 1.5 15t0.5 20q0 72 -26.5 124.5t-76 81t-117.5 28.5q-45 0 -84 -13t-69 -37.5t-51 -60.5
h12q-7 57 -47.5 85t-112.5 28q-49 0 -98.5 -13.5t-100.5 -40.5l47 -89q20 12 44.5 22t51 15t48.5 5q42 0 64 -21.5t22 -61.5v-62h62q-60 31 -100 43t-83 12q-59 0 -103.5 -19.5t-69.5 -54t-25 -80.5q0 -63 50 -100t138 -37zM232 80q-39 0 -57.5 14t-18.5 43q0 34 23.5 51.5
t69.5 17.5q31 0 60 -7.5t54 -22.5l-18 27l5 -75l1 60q-6 -54 -35 -81t-84 -27zM482 237q0 45 14 76.5t39.5 48.5t62.5 17q32 0 55.5 -13.5t36 -39t12.5 -60.5v-8t-2 -8l23 31h-262z" />
    <glyph glyph-name="ccedilla" unicode="&#xe7;" horiz-adv-x="489" 
d="M162 230q0 39 18 69t48.5 47.5t67.5 17.5q28 0 56 -9t51.5 -25.5t35.5 -38.5v133q-24 21 -62.5 33.5t-89.5 12.5q-73 0 -131.5 -30t-92 -84t-33.5 -126q0 -71 33.5 -125.5t92 -84.5t131.5 -30q51 0 89.5 12.5t62.5 34.5v133q-12 -22 -34.5 -38.5t-50.5 -26t-58 -9.5
q-37 0 -67.5 17t-48.5 47t-18 70zM244 60l-87 -186q22 11 44.5 14t29.5 3q25 0 41.5 -7.5t16.5 -26.5q0 -18 -13.5 -27t-39.5 -9q-16 0 -35 5.5t-37 18.5l-42 -59q31 -22 60.5 -30.5t66.5 -8.5q31 0 59 12t46 35t18 57q0 31 -13 50.5t-33 29.5t-39 10h-14t-14 -2l79 119z
" />
    <glyph glyph-name="egrave" unicode="&#xe8;" horiz-adv-x="555" 
d="M107 201h412q2 11 2 20v15q0 73 -28 125t-81.5 80.5t-129.5 28.5q-69 0 -121 -24t-83 -67t-41 -100q-2 -12 -3 -24t-1 -25q0 -69 29.5 -123.5t85.5 -85.5t133 -31q64 0 108.5 16t75.5 45.5t54 68.5l-113 35q-12 -20 -30 -35t-41 -23t-53 -8q-34 0 -61 14.5t-42.5 46
t-15.5 80.5l2 26q0 38 15 66t41 42.5t59 14.5q32 0 53 -12t33 -34t16 -52h-275v-80zM125 686l180 -150l73 39l-150 160z" />
    <glyph glyph-name="eacute" unicode="&#xe9;" horiz-adv-x="555" 
d="M107 201h412q2 11 2 20v15q0 73 -28 125t-81.5 80.5t-129.5 28.5q-69 0 -121 -24t-83 -67t-41 -100q-2 -12 -3 -24t-1 -25q0 -69 29.5 -123.5t85.5 -85.5t133 -31q64 0 108.5 16t75.5 45.5t54 68.5l-113 35q-12 -20 -30 -35t-41 -23t-53 -8q-34 0 -61 14.5t-42.5 46
t-15.5 80.5l2 26q0 38 15 66t41 42.5t59 14.5q32 0 53 -12t33 -34t16 -52h-275v-80zM451 686l-103 49l-150 -160l73 -39z" />
    <glyph glyph-name="ecircumflex" unicode="&#xea;" horiz-adv-x="555" 
d="M107 201h412q2 11 2 20v15q0 73 -28 125t-81.5 80.5t-129.5 28.5q-69 0 -121 -24t-83 -67t-41 -100q-2 -12 -3 -24t-1 -25q0 -69 29.5 -123.5t85.5 -85.5t133 -31q64 0 108.5 16t75.5 45.5t54 68.5l-113 35q-12 -20 -30 -35t-41 -23t-53 -8q-34 0 -61 14.5t-42.5 46
t-15.5 80.5l2 26q0 38 15 66t41 42.5t59 14.5q32 0 53 -12t33 -34t16 -52h-275v-80zM282 619l97 -89l89 62l-186 140l-185 -140l88 -62z" />
    <glyph glyph-name="edieresis" unicode="&#xeb;" horiz-adv-x="555" 
d="M107 201h412q2 11 2 20v15q0 73 -28 125t-81.5 80.5t-129.5 28.5q-69 0 -121 -24t-83 -67t-41 -100q-2 -12 -3 -24t-1 -25q0 -69 29.5 -123.5t85.5 -85.5t133 -31q64 0 108.5 16t75.5 45.5t54 68.5l-113 35q-12 -20 -30 -35t-41 -23t-53 -8q-34 0 -61 14.5t-42.5 46
t-15.5 80.5l2 26q0 38 15 66t41 42.5t59 14.5q32 0 53 -12t33 -34t16 -52h-275v-80zM320 604q0 -32 22.5 -53t54.5 -21q33 0 55.5 21t22.5 53t-22.5 52.5t-55.5 20.5q-32 0 -54.5 -20.5t-22.5 -52.5zM90 604q0 -32 22.5 -53t54.5 -21q33 0 55.5 21t22.5 53t-22.5 52.5
t-55.5 20.5q-32 0 -54.5 -20.5t-22.5 -52.5z" />
    <glyph glyph-name="igrave" unicode="&#xec;" horiz-adv-x="271" 
d="M72 460v-460h126v460h-126zM-39 692l180 -150l73 38l-150 160z" />
    <glyph glyph-name="iacute" unicode="&#xed;" horiz-adv-x="271" 
d="M72 460v-460h126v460h-126zM304 692l-103 48l-150 -160l73 -38z" />
    <glyph glyph-name="icircumflex" unicode="&#xee;" horiz-adv-x="271" 
d="M72 460v-460h126v460h-126zM135 625l97 -89l89 62l-186 140l-186 -140l89 -62z" />
    <glyph glyph-name="idieresis" unicode="&#xef;" horiz-adv-x="271" 
d="M72 460v-460h126v460h-126zM173 621q0 -31 23 -52t55 -21t54.5 21t22.5 52q0 32 -22.5 52.5t-54.5 20.5t-55 -20.5t-23 -52.5zM-57 621q0 -31 23 -52t55 -21t54.5 21t22.5 52q0 32 -22.5 52.5t-54.5 20.5t-55 -20.5t-23 -52.5z" />
    <glyph glyph-name="eth" unicode="&#xf0;" horiz-adv-x="611" 
d="M303 -14q75 0 133.5 33t91.5 90.5t33 131.5q0 42 -12.5 88t-37.5 94.5t-63.5 100.5t-90 108.5t-115.5 116.5l-93 -69q49 -38 90 -76.5t76 -78.5t64 -81.5t51 -85.5l44 -1q-98 111 -214 111q-62 0 -109 -29t-74 -80t-27 -118q0 -75 32.5 -132.5t90 -90t130.5 -32.5z
M305 100q-36 0 -64 17t-43.5 46t-15.5 67t16 67.5t44 46.5t63 17q36 0 63.5 -17t43.5 -46.5t16 -67.5t-15.5 -67t-43.5 -46t-64 -17zM165 506l327 110l-17 53l-327 -111z" />
    <glyph glyph-name="ntilde" unicode="&#xf1;" horiz-adv-x="559" 
d="M194 460h-130v-460h130v460zM361 280v-280h134v294q0 86 -40.5 131t-121.5 45q-54 0 -92.5 -26t-58.5 -69.5t-20 -98.5l32 4q0 29 11 50t32 32.5t48 11.5q41 0 58.5 -24t17.5 -70zM94 587l65 -54q0 8 4 20t14.5 21.5t29.5 9.5q25 0 44.5 -13t41 -25.5t48.5 -12.5
q29 0 55 12.5t44.5 31.5t26.5 37l-64 65q-15 -24 -30 -38t-32 -14q-21 0 -35.5 8t-27 17.5t-29.5 17.5t-41 8q-28 0 -52.5 -13t-40.5 -33t-21 -45z" />
    <glyph glyph-name="ograve" unicode="&#xf2;" horiz-adv-x="576" 
d="M33 230q0 -71 33.5 -125.5t91 -84.5t130.5 -30t130.5 30t91 84.5t33.5 125.5q0 72 -33.5 126t-91 84t-130.5 30t-130.5 -30t-91 -84t-33.5 -126zM165 230q0 39 16.5 69t44.5 46t62 16t62 -16t44.5 -46t16.5 -69t-16.5 -68.5t-44.5 -46t-62 -16.5t-62 16.5t-44.5 46
t-16.5 68.5zM128 692l180 -150l73 38l-150 160z" />
    <glyph glyph-name="oacute" unicode="&#xf3;" horiz-adv-x="576" 
d="M33 230q0 -71 33.5 -125.5t91 -84.5t130.5 -30t130.5 30t91 84.5t33.5 125.5q0 72 -33.5 126t-91 84t-130.5 30t-130.5 -30t-91 -84t-33.5 -126zM165 230q0 39 16.5 69t44.5 46t62 16t62 -16t44.5 -46t16.5 -69t-16.5 -68.5t-44.5 -46t-62 -16.5t-62 16.5t-44.5 46
t-16.5 68.5zM448 692l-103 48l-150 -160l73 -38z" />
    <glyph glyph-name="ocircumflex" unicode="&#xf4;" horiz-adv-x="576" 
d="M33 230q0 -71 33.5 -125.5t91 -84.5t130.5 -30t130.5 30t91 84.5t33.5 125.5q0 72 -33.5 126t-91 84t-130.5 30t-130.5 -30t-91 -84t-33.5 -126zM165 230q0 39 16.5 69t44.5 46t62 16t62 -16t44.5 -46t16.5 -69t-16.5 -68.5t-44.5 -46t-62 -16.5t-62 16.5t-44.5 46
t-16.5 68.5zM288 630l97 -88l89 61l-186 140l-186 -140l89 -61z" />
    <glyph glyph-name="otilde" unicode="&#xf5;" horiz-adv-x="576" 
d="M33 230q0 -71 33.5 -125.5t91 -84.5t130.5 -30t130.5 30t91 84.5t33.5 125.5q0 72 -33.5 126t-91 84t-130.5 30t-130.5 -30t-91 -84t-33.5 -126zM165 230q0 39 16.5 69t44.5 46t62 16t62 -16t44.5 -46t16.5 -69t-16.5 -68.5t-44.5 -46t-62 -16.5t-62 16.5t-44.5 46
t-16.5 68.5zM102 587l65 -54q0 8 4 20t14.5 21.5t29.5 9.5q25 0 44.5 -13t41 -25.5t48.5 -12.5q29 0 54.5 12.5t44 31.5t26.5 37l-63 65q-15 -24 -30 -38t-32 -14q-21 0 -35.5 8t-27 17.5t-29 17.5t-41.5 8q-28 0 -52.5 -13t-40.5 -33t-21 -45z" />
    <glyph glyph-name="odieresis" unicode="&#xf6;" horiz-adv-x="576" 
d="M33 230q0 -71 33.5 -125.5t91 -84.5t130.5 -30t130.5 30t91 84.5t33.5 125.5q0 72 -33.5 126t-91 84t-130.5 30t-130.5 -30t-91 -84t-33.5 -126zM165 230q0 39 16.5 69t44.5 46t62 16t62 -16t44.5 -46t16.5 -69t-16.5 -68.5t-44.5 -46t-62 -16.5t-62 16.5t-44.5 46
t-16.5 68.5zM325 621q0 -31 23 -52t55 -21t55 21t23 52q0 32 -23 52.5t-55 20.5t-55 -20.5t-23 -52.5zM95 621q0 -31 23 -52t55 -21t55 21t23 52q0 32 -23 52.5t-55 20.5t-55 -20.5t-23 -52.5z" />
    <glyph glyph-name="divide" unicode="&#xf7;" horiz-adv-x="635" 
d="M234 521q0 -33 24 -57t58 -24q36 0 59 24t23 57t-23 56.5t-59 23.5q-34 0 -58 -23.5t-24 -56.5zM234 89q0 -32 24 -56t58 -24q36 0 59 24t23 56q0 34 -23 57.5t-59 23.5q-34 0 -58 -23.5t-24 -57.5zM36 249h560v118h-560v-118z" />
    <glyph glyph-name="oslash" unicode="&#xf8;" horiz-adv-x="546" 
d="M33 230q0 -73 34 -127t91.5 -83.5t129.5 -29.5t129.5 29.5t91.5 83.5t34 127q0 74 -34 127.5t-91.5 83t-129.5 29.5t-129.5 -29.5t-91.5 -83t-34 -127.5zM157 230q0 39 17.5 70t47.5 48t66 17t66 -17t47.5 -48t17.5 -70q0 -42 -17.5 -72t-47.5 -46.5t-66 -16.5t-66 16.5
t-47.5 46.5t-17.5 72zM451 504l-390 -524l53 -28l390 524z" />
    <glyph glyph-name="ugrave" unicode="&#xf9;" horiz-adv-x="559" 
d="M366 0h129v460h-129v-460zM198 180v280h-134v-294q0 -86 41 -131t122 -45q54 0 92 26t58 70t20 98l-31 -4q0 -29 -11.5 -50t-32 -32.5t-48.5 -11.5q-40 0 -58 24t-18 70zM142 692l180 -150l73 38l-150 160z" />
    <glyph glyph-name="uacute" unicode="&#xfa;" horiz-adv-x="559" 
d="M366 0h129v460h-129v-460zM198 180v280h-134v-294q0 -86 41 -131t122 -45q54 0 92 26t58 70t20 98l-31 -4q0 -29 -11.5 -50t-32 -32.5t-48.5 -11.5q-40 0 -58 24t-18 70zM416 692l-102 48l-150 -160l72 -38z" />
    <glyph glyph-name="ucircumflex" unicode="&#xfb;" horiz-adv-x="559" 
d="M366 0h129v460h-129v-460zM198 180v280h-134v-294q0 -86 41 -131t122 -45q54 0 92 26t58 70t20 98l-31 -4q0 -29 -11.5 -50t-32 -32.5t-48.5 -11.5q-40 0 -58 24t-18 70zM279 630l97 -88l89 61l-186 140l-186 -140l89 -61z" />
    <glyph glyph-name="udieresis" unicode="&#xfc;" horiz-adv-x="559" 
d="M366 0h129v460h-129v-460zM198 180v280h-134v-294q0 -86 41 -131t122 -45q54 0 92 26t58 70t20 98l-31 -4q0 -29 -11.5 -50t-32 -32.5t-48.5 -11.5q-40 0 -58 24t-18 70zM317 615q0 -31 23 -52t55 -21t55 21t23 52q0 32 -23 53t-55 21t-55 -21t-23 -53zM87 615
q0 -31 23 -52t55 -21t55 21t23 52q0 32 -23 53t-55 21t-55 -21t-23 -53z" />
    <glyph glyph-name="yacute" unicode="&#xfd;" horiz-adv-x="496" 
d="M502 460h-135l-145 -364l64 -2l-148 366h-144l191 -414l-116 -266h133zM399 692l-103 48l-150 -160l73 -38z" />
    <glyph glyph-name="thorn" unicode="&#xfe;" 
d="M191 -220v1000h-130v-1000h130zM569 230q0 77 -31 130.5t-81.5 81.5t-108.5 28q-57 0 -101.5 -29t-70.5 -82.5t-26 -128.5q0 -74 26 -128t70.5 -83t101.5 -29q58 0 108.5 28t81.5 82t31 130zM435 230q0 -41 -17 -71t-45.5 -46t-62.5 -16q-29 0 -56.5 15.5t-45 45.5
t-17.5 72t17.5 72t45 45.5t56.5 15.5q34 0 62.5 -16t45.5 -46t17 -71z" />
    <glyph glyph-name="ydieresis" unicode="&#xff;" horiz-adv-x="496" 
d="M502 460h-135l-145 -364l64 -2l-148 366h-144l191 -414l-116 -266h133zM285 604q0 -32 23 -53t55 -21t55 21t23 53t-23 52.5t-55 20.5t-55 -20.5t-23 -52.5zM55 604q0 -32 23 -53t55 -21t55 21t23 53t-23 52.5t-55 20.5t-55 -20.5t-23 -52.5z" />
    <glyph glyph-name="Amacron" unicode="&#x100;" horiz-adv-x="711" 
d="M173 159h370l-17 113h-336zM356 473l105 -243l-2 -36l90 -194h162l-355 741l-355 -741h161l92 200l-3 32zM173 801h365v114h-365v-114z" />
    <glyph glyph-name="amacron" unicode="&#x101;" horiz-adv-x="526" 
d="M156 137q0 21 10.5 36t31.5 24t51 9q41 0 71 -10t58 -31v63q-9 11 -31 23t-54 21t-69 9q-57 0 -102 -18t-70.5 -52t-25.5 -84q0 -43 20 -73.5t57.5 -47t86.5 -16.5q48 0 86.5 16.5t61.5 48t23 75.5l-16 54q0 -38 -15 -61t-41 -33t-57 -10q-24 0 -41 6.5t-26 19t-9 31.5z
M115 329q11 7 32.5 17t50 17.5t61.5 7.5q38 0 62 -17.5t24 -48.5v-305h125v326q0 47 -26 79.5t-71.5 49.5t-105.5 17q-62 0 -113 -17.5t-86 -36.5zM85 544h365v113h-365v-113z" />
    <glyph glyph-name="Abreve" unicode="&#x102;" horiz-adv-x="711" 
d="M173 159h370l-17 113h-336zM356 473l105 -243l-2 -36l90 -194h162l-355 741l-355 -741h161l92 200l-3 32zM193 946q0 -39 19 -72t55.5 -53t88.5 -20q53 0 89 20t54.5 53t18.5 72h-90q0 -16 -8 -31t-24 -24.5t-40 -9.5q-25 0 -41 9.5t-23.5 24.5t-7.5 31h-91z" />
    <glyph glyph-name="abreve" unicode="&#x103;" horiz-adv-x="526" 
d="M156 137q0 21 10.5 36t31.5 24t51 9q41 0 71 -10t58 -31v63q-9 11 -31 23t-54 21t-69 9q-57 0 -102 -18t-70.5 -52t-25.5 -84q0 -43 20 -73.5t57.5 -47t86.5 -16.5q48 0 86.5 16.5t61.5 48t23 75.5l-16 54q0 -38 -15 -61t-41 -33t-57 -10q-24 0 -41 6.5t-26 19t-9 31.5z
M115 329q11 7 32.5 17t50 17.5t61.5 7.5q38 0 62 -17.5t24 -48.5v-305h125v326q0 47 -26 79.5t-71.5 49.5t-105.5 17q-62 0 -113 -17.5t-86 -36.5zM105 676q0 -38 18.5 -71t55 -53t88.5 -20q53 0 89 20t55 53t19 71h-91q0 -16 -7.5 -30.5t-23.5 -24t-41 -9.5q-24 0 -40 9.5
t-24 24t-8 30.5h-90z" />
    <glyph glyph-name="Aogonek" unicode="&#x104;" horiz-adv-x="711" 
d="M173 159h370l-17 113h-336zM356 473l105 -243l-2 -36l90 -194h162l-355 741l-355 -741h161l92 200l-3 32zM681 -117q-10 -10 -21.5 -15t-28.5 -5q-19 0 -29 10t-10 31q0 17 10.5 34t29 33t44.5 29l-41 25q-35 -18 -66 -39.5t-50.5 -47.5t-19.5 -58q0 -31 15 -54
t41.5 -34.5t62.5 -11.5q38 0 61.5 12.5t34.5 27.5z" />
    <glyph glyph-name="aogonek" unicode="&#x105;" horiz-adv-x="526" 
d="M156 137q0 21 10.5 36t31.5 24t51 9q41 0 71 -10t58 -31v63q-9 11 -31 23t-54 21t-69 9q-60 0 -104.5 -18t-69 -51.5t-24.5 -80.5q0 -46 21.5 -77.5t58.5 -47.5t84 -16q48 0 86.5 16.5t61.5 48t23 75.5l-16 54q0 -38 -15 -61t-41 -33t-57 -10q-21 0 -38.5 6.5t-27.5 19
t-10 31.5zM115 329q11 7 32.5 17t50 17.5t61.5 7.5q38 0 62 -17.5t24 -48.5v-305h125v326q0 47 -26 79.5t-71.5 49.5t-105.5 17q-62 0 -113 -17.5t-86 -36.5zM454 -117q-10 -10 -22 -15t-28 -5q-19 0 -29.5 10t-10.5 31q0 17 10.5 34t29.5 33t45 29l-41 25
q-35 -18 -66.5 -39.5t-51 -47.5t-19.5 -58q0 -31 15 -54t41.5 -34.5t62.5 -11.5q38 0 62 12.5t35 27.5z" />
    <glyph glyph-name="Cacute" unicode="&#x106;" horiz-adv-x="696" 
d="M191 350q0 70 31.5 121t82.5 78.5t111 27.5q50 0 89 -13t70.5 -35t54.5 -48v161q-43 34 -93.5 53t-127.5 19q-80 0 -148.5 -26t-119 -75t-78 -115.5t-27.5 -147.5t27.5 -147.5t78 -115.5t119 -75t148.5 -26q77 0 127.5 19t93.5 53v161q-23 -26 -54.5 -48t-70.5 -35
t-89 -13q-60 0 -111 27.5t-82.5 79t-31.5 120.5zM539 924l-103 49l-150 -160l73 -39z" />
    <glyph glyph-name="cacute" unicode="&#x107;" horiz-adv-x="489" 
d="M162 230q0 39 18 69t48.5 47.5t67.5 17.5q28 0 56 -9t51.5 -25.5t35.5 -38.5v133q-24 21 -62.5 33.5t-89.5 12.5q-73 0 -131.5 -30t-92 -84t-33.5 -126q0 -71 33.5 -125.5t92 -84.5t131.5 -30q51 0 89.5 12.5t62.5 34.5v133q-12 -22 -34.5 -38.5t-50.5 -26t-58 -9.5
q-37 0 -67.5 17t-48.5 47t-18 70zM417 680l-103 49l-150 -160l73 -39z" />
    <glyph glyph-name="Ccircumflex" unicode="&#x108;" horiz-adv-x="696" 
d="M191 350q0 70 31.5 121t82.5 78.5t111 27.5q50 0 89 -13t70.5 -35t54.5 -48v161q-43 34 -93.5 53t-127.5 19q-80 0 -148.5 -26t-119 -75t-78 -115.5t-27.5 -147.5t27.5 -147.5t78 -115.5t119 -75t148.5 -26q77 0 127.5 19t93.5 53v161q-23 -26 -54.5 -48t-70.5 -35
t-89 -13q-60 0 -111 27.5t-82.5 79t-31.5 120.5zM409 863l97 -89l89 62l-186 140l-185 -140l88 -62z" />
    <glyph glyph-name="ccircumflex" unicode="&#x109;" horiz-adv-x="489" 
d="M162 230q0 39 18 69t48.5 47.5t67.5 17.5q28 0 56 -9t51.5 -25.5t35.5 -38.5v133q-24 21 -62.5 33.5t-89.5 12.5q-73 0 -131.5 -30t-92 -84t-33.5 -126q0 -71 33.5 -125.5t92 -84.5t131.5 -30q51 0 89.5 12.5t62.5 34.5v133q-12 -22 -34.5 -38.5t-50.5 -26t-58 -9.5
q-37 0 -67.5 17t-48.5 47t-18 70zM266 619l97 -89l89 62l-186 140l-186 -140l89 -62z" />
    <glyph glyph-name="Cdotaccent" unicode="&#x10a;" horiz-adv-x="696" 
d="M191 350q0 70 31.5 121t82.5 78.5t111 27.5q50 0 89 -13t70.5 -35t54.5 -48v161q-43 34 -93.5 53t-127.5 19q-80 0 -148.5 -26t-119 -75t-78 -115.5t-27.5 -147.5t27.5 -147.5t78 -115.5t119 -75t148.5 -26q77 0 127.5 19t93.5 53v161q-23 -26 -54.5 -48t-70.5 -35
t-89 -13q-60 0 -111 27.5t-82.5 79t-31.5 120.5zM314 848q0 -32 23 -53t55 -21q33 0 55.5 21t22.5 53t-22.5 52.5t-55.5 20.5q-32 0 -55 -20.5t-23 -52.5z" />
    <glyph glyph-name="cdotaccent" unicode="&#x10b;" horiz-adv-x="489" 
d="M162 230q0 39 18 69t48.5 47.5t67.5 17.5q28 0 56 -9t51.5 -25.5t35.5 -38.5v133q-24 21 -62.5 33.5t-89.5 12.5q-73 0 -131.5 -30t-92 -84t-33.5 -126q0 -71 33.5 -125.5t92 -84.5t131.5 -30q51 0 89.5 12.5t62.5 34.5v133q-12 -22 -34.5 -38.5t-50.5 -26t-58 -9.5
q-37 0 -67.5 17t-48.5 47t-18 70zM192 608q0 -31 23 -52t55 -21q33 0 55.5 21t22.5 52q0 32 -22.5 53t-55.5 21q-32 0 -55 -21t-23 -53z" />
    <glyph glyph-name="Ccaron" unicode="&#x10c;" horiz-adv-x="696" 
d="M191 350q0 70 31.5 121t82.5 78.5t111 27.5q50 0 89 -13t70.5 -35t54.5 -48v161q-43 34 -93.5 53t-127.5 19q-80 0 -148.5 -26t-119 -75t-78 -115.5t-27.5 -147.5t27.5 -147.5t78 -115.5t119 -75t148.5 -26q77 0 127.5 19t93.5 53v161q-23 -26 -54.5 -48t-70.5 -35
t-89 -13q-60 0 -111 27.5t-82.5 79t-31.5 120.5zM409 887l-97 89l-88 -62l185 -140l186 140l-89 62z" />
    <glyph glyph-name="ccaron" unicode="&#x10d;" horiz-adv-x="489" 
d="M162 230q0 39 18 69t48.5 47.5t67.5 17.5q28 0 56 -9t51.5 -25.5t35.5 -38.5v133q-24 21 -62.5 33.5t-89.5 12.5q-73 0 -131.5 -30t-92 -84t-33.5 -126q0 -71 33.5 -125.5t92 -84.5t131.5 -30q51 0 89.5 12.5t62.5 34.5v133q-12 -22 -34.5 -38.5t-50.5 -26t-58 -9.5
q-37 0 -67.5 17t-48.5 47t-18 70zM266 643l-97 89l-89 -62l186 -140l186 140l-89 62z" />
    <glyph glyph-name="Dcaron" unicode="&#x10e;" horiz-adv-x="716" 
d="M76 700v-700h146v700h-146zM314 0q110 0 192.5 43t128.5 121.5t46 185.5t-46 185.5t-128.5 121.5t-192.5 43h-146v-130h141q46 0 87 -12.5t72 -39.5t48.5 -68.5t17.5 -99.5t-17.5 -99.5t-48.5 -68.5t-72 -39.5t-87 -12.5h-141v-130h146zM361 887l-97 89l-88 -62l185 -140
l186 140l-89 62z" />
    <glyph glyph-name="dcaron" unicode="&#x10f;" 
d="M411 780v-780h130v780h-130zM33 230q0 -76 31 -130t82 -82t108 -28q58 0 102.5 29t70 83t25.5 128q0 75 -25.5 128.5t-70 82.5t-102.5 29q-57 0 -108 -28t-82 -81.5t-31 -130.5zM167 230q0 41 17 71t46 46t62 16q29 0 56.5 -15.5t45 -45.5t17.5 -72t-17.5 -72t-45 -45.5
t-56.5 -15.5q-33 0 -62 16t-46 46t-17 71zM659 780l-88 -259l96 -23l121 250z" />
    <glyph glyph-name="Dcroat" unicode="&#x110;" horiz-adv-x="716" 
d="M5 301h330v93h-330v-93zM76 700v-700h146v700h-146zM314 0q110 0 192.5 43t128.5 121.5t46 185.5t-46 185.5t-128.5 121.5t-192.5 43h-146v-130h141q46 0 87 -12.5t72 -39.5t48.5 -68.5t17.5 -99.5t-17.5 -99.5t-48.5 -68.5t-72 -39.5t-87 -12.5h-141v-130h146z" />
    <glyph glyph-name="dcroat" unicode="&#x111;" 
d="M295 573h339v92h-339v-92zM411 780v-780h130v780h-130zM33 230q0 -76 31 -130t82 -82t108 -28q58 0 102.5 29t70 83t25.5 128q0 75 -25.5 128.5t-70 82.5t-102.5 29q-57 0 -108 -28t-82 -81.5t-31 -130.5zM167 230q0 41 17 71t46 46t62 16q22 0 43 -9t38.5 -26
t27.5 -41.5t10 -56.5t-10 -56.5t-27.5 -41.5t-38.5 -26t-43 -9q-33 0 -62 16t-46 46t-17 71z" />
    <glyph glyph-name="Emacron" unicode="&#x112;" horiz-adv-x="586" 
d="M168 0h353v121h-353v-121zM168 579h353v121h-353v-121zM168 312h333v119h-333v-119zM76 700v-700h138v700h-138zM116 774h365v114h-365v-114z" />
    <glyph glyph-name="emacron" unicode="&#x113;" horiz-adv-x="555" 
d="M107 201h412q2 11 2 20v15q0 73 -28 125t-81.5 80.5t-129.5 28.5q-69 0 -121 -24t-83 -67t-41 -100q-2 -12 -3 -24t-1 -25q0 -69 29.5 -123.5t85.5 -85.5t133 -31q64 0 108.5 16t75.5 45.5t54 68.5l-113 35q-12 -20 -30 -35t-41 -23t-53 -8q-34 0 -61 14.5t-42.5 46
t-15.5 80.5l2 26q0 38 15 66t41 42.5t59 14.5q32 0 53 -12t33 -34t16 -52h-275v-80zM100 530h365v114h-365v-114z" />
    <glyph glyph-name="Ebreve" unicode="&#x114;" horiz-adv-x="586" 
d="M168 0h353v121h-353v-121zM168 579h353v121h-353v-121zM168 312h333v119h-333v-119zM76 700v-700h138v700h-138zM136 919q0 -39 18.5 -72t55 -53t88.5 -20q53 0 89 20t54.5 53t18.5 72h-90q0 -16 -8 -31t-24 -24.5t-40 -9.5t-40 9.5t-24 24.5t-8 31h-90z" />
    <glyph glyph-name="ebreve" unicode="&#x115;" horiz-adv-x="555" 
d="M107 201h412q2 11 2 20v15q0 73 -28 125t-81.5 80.5t-129.5 28.5q-69 0 -121 -24t-83 -67t-41 -100q-2 -12 -3 -24t-1 -25q0 -69 29.5 -123.5t85.5 -85.5t133 -31q64 0 108.5 16t75.5 45.5t54 68.5l-113 35q-12 -20 -30 -35t-41 -23t-53 -8q-34 0 -61 14.5t-42.5 46
t-15.5 80.5l2 26q0 38 15 66t41 42.5t59 14.5q32 0 53 -12t33 -34t16 -52h-275v-80zM120 675q0 -39 18.5 -72t55 -53t88.5 -20q53 0 89 20t55 53t19 72h-91q0 -16 -7.5 -31t-23.5 -24.5t-41 -9.5q-24 0 -40 9.5t-24 24.5t-8 31h-90z" />
    <glyph glyph-name="Edotaccent" unicode="&#x116;" horiz-adv-x="586" 
d="M168 0h353v121h-353v-121zM168 579h353v121h-353v-121zM168 312h333v119h-333v-119zM76 700v-700h138v700h-138zM220 848q0 -32 23 -53t55 -21t55 21t23 53t-23 52.5t-55 20.5t-55 -20.5t-23 -52.5z" />
    <glyph glyph-name="edotaccent" unicode="&#x117;" horiz-adv-x="555" 
d="M107 201h412q2 11 2 20v15q0 73 -28 125t-81.5 80.5t-129.5 28.5q-69 0 -121 -24t-83 -67t-41 -100q-2 -12 -3 -24t-1 -25q0 -69 29.5 -123.5t85.5 -85.5t133 -31q64 0 108.5 16t75.5 45.5t54 68.5l-113 35q-12 -20 -30 -35t-41 -23t-53 -8q-34 0 -61 14.5t-42.5 46
t-15.5 80.5l2 26q0 38 15 66t41 42.5t59 14.5q32 0 53 -12t33 -34t16 -52h-275v-80zM205 604q0 -32 22.5 -53t54.5 -21q33 0 55.5 21t22.5 53t-22.5 52.5t-55.5 20.5q-32 0 -54.5 -20.5t-22.5 -52.5z" />
    <glyph glyph-name="Eogonek" unicode="&#x118;" horiz-adv-x="586" 
d="M168 0h353v121h-353v-121zM168 579h353v121h-353v-121zM168 312h333v119h-333v-119zM76 700v-700h138v700h-138zM389 -117q-10 -10 -22 -15t-28 -5q-19 0 -29.5 10t-10.5 31q0 17 10.5 34t29.5 33t45 29l-41 25q-35 -18 -66.5 -39.5t-51 -47.5t-19.5 -58q0 -31 15 -54
t41.5 -34.5t62.5 -11.5q38 0 62 12.5t35 27.5z" />
    <glyph glyph-name="eogonek" unicode="&#x119;" horiz-adv-x="555" 
d="M107 201h412q2 11 2 20v15q0 73 -28 125t-81.5 80.5t-129.5 28.5q-69 0 -121 -24t-83 -67t-41 -100q-2 -12 -3 -24t-1 -25q0 -69 29.5 -123.5t85.5 -85.5t133 -31q48 0 81.5 11t59 29.5t48.5 41.5t49 48l-113 35q-12 -20 -30 -35t-41 -23t-53 -8q-34 0 -61 14.5t-42.5 46
t-15.5 80.5l2 26q0 38 15 66t41 42.5t59 14.5q32 0 53 -12t33 -34t16 -52h-275v-80zM495 -44q-10 -10 -21.5 -15t-28.5 -5q-19 0 -29 10t-10 26q0 17 10 33t35.5 42.5t67.5 72.5l-70 -21l-48 -36t-44 -36.5t-32 -39t-12 -44.5q0 -31 16.5 -51t42.5 -29t54 -9q38 0 64.5 12.5
t37.5 27.5z" />
    <glyph glyph-name="Ecaron" unicode="&#x11a;" horiz-adv-x="586" 
d="M168 0h353v121h-353v-121zM168 579h353v121h-353v-121zM168 312h333v119h-333v-119zM76 700v-700h138v700h-138zM298 887l-97 89l-89 -62l186 -140l186 140l-89 62z" />
    <glyph glyph-name="ecaron" unicode="&#x11b;" horiz-adv-x="555" 
d="M107 201h412q2 11 2 20v15q0 73 -28 125t-81.5 80.5t-129.5 28.5q-69 0 -121 -24t-83 -67t-41 -100q-2 -12 -3 -24t-1 -25q0 -69 29.5 -123.5t85.5 -85.5t133 -31q64 0 108.5 16t75.5 45.5t54 68.5l-113 35q-12 -20 -30 -35t-41 -23t-53 -8q-34 0 -61 14.5t-42.5 46
t-15.5 80.5l2 26q0 38 15 66t41 42.5t59 14.5q32 0 53 -12t33 -34t16 -52h-275v-80zM282 643l-97 89l-88 -62l185 -140l186 140l-89 62z" />
    <glyph glyph-name="Gcircumflex" unicode="&#x11c;" horiz-adv-x="802" 
d="M416 260h201q-9 -32 -26 -59t-41.5 -48t-58.5 -32.5t-77 -11.5q-65 0 -116.5 30t-81.5 84.5t-30 126.5q0 73 30.5 126t82.5 81.5t115 28.5q67 0 113.5 -28.5t72.5 -74.5l122 71q-32 49 -76.5 84.5t-102 55.5t-129.5 20q-81 0 -150 -26t-120 -74t-79.5 -115.5
t-28.5 -148.5t27.5 -149t78 -117t119 -76t149.5 -27q86 0 153 31t112.5 85.5t67 125.5t18.5 151h-345v-114zM414 863l97 -89l89 62l-186 140l-185 -140l88 -62z" />
    <glyph glyph-name="gcircumflex" unicode="&#x11d;" horiz-adv-x="598" 
d="M42 -32q4 -60 32.5 -106.5t82.5 -72t134 -25.5q66 0 122 25.5t89.5 80.5t33.5 140v450h-125v-450q0 -47 -17.5 -78t-46 -46t-60.5 -15q-35 0 -61 12t-41 33.5t-16 51.5h-127zM33 234q0 -76 31 -128.5t82 -79.5t108 -27q58 0 102.5 27.5t70 80.5t25.5 127
q0 75 -25.5 127.5t-70 80.5t-102.5 28q-57 0 -108 -27t-82 -79.5t-31 -129.5zM167 234q0 42 17 70.5t46 43.5t62 15q22 0 43 -8.5t38.5 -24.5t27.5 -40t10 -56q0 -42 -17.5 -70.5t-45 -43t-56.5 -14.5q-33 0 -62 15t-46 43.5t-17 69.5zM302 619l97 -89l88 62l-185 140
l-186 -140l88 -62z" />
    <glyph glyph-name="Gbreve" unicode="&#x11e;" horiz-adv-x="802" 
d="M416 260h201q-9 -32 -26 -59t-41.5 -48t-58.5 -32.5t-77 -11.5q-65 0 -116.5 30t-81.5 84.5t-30 126.5q0 73 30.5 126t82.5 81.5t115 28.5q67 0 113.5 -28.5t72.5 -74.5l122 71q-32 49 -76.5 84.5t-102 55.5t-129.5 20q-81 0 -150 -26t-120 -74t-79.5 -115.5
t-28.5 -148.5t27.5 -149t78 -117t119 -76t149.5 -27q86 0 153 31t112.5 85.5t67 125.5t18.5 151h-345v-114zM252 919q0 -39 18.5 -72t55 -53t88.5 -20q53 0 89 20t55 53t19 72h-91q0 -16 -7.5 -31t-23.5 -24.5t-41 -9.5q-24 0 -40 9.5t-24 24.5t-8 31h-90z" />
    <glyph glyph-name="gbreve" unicode="&#x11f;" horiz-adv-x="598" 
d="M42 -32q4 -60 32.5 -106.5t82.5 -72t134 -25.5q66 0 122 25.5t89.5 80.5t33.5 140v450h-125v-450q0 -47 -17.5 -78t-46 -46t-60.5 -15q-35 0 -61 12t-41 33.5t-16 51.5h-127zM33 234q0 -76 31 -128.5t82 -79.5t108 -27q58 0 102.5 27.5t70 80.5t25.5 127
q0 75 -25.5 127.5t-70 80.5t-102.5 28q-57 0 -108 -27t-82 -79.5t-31 -129.5zM167 234q0 42 17 70.5t46 43.5t62 15q22 0 43 -8.5t38.5 -24.5t27.5 -40t10 -56q0 -42 -17.5 -70.5t-45 -43t-56.5 -14.5q-33 0 -62 15t-46 43.5t-17 69.5zM139 675q0 -39 18.5 -72t55.5 -53
t89 -20q53 0 89 20t54.5 53t18.5 72h-90q0 -16 -8 -31t-24 -24.5t-40 -9.5q-25 0 -41 9.5t-23.5 24.5t-7.5 31h-91z" />
    <glyph glyph-name="Gdotaccent" unicode="&#x120;" horiz-adv-x="802" 
d="M416 260h201q-9 -32 -26 -59t-41.5 -48t-58.5 -32.5t-77 -11.5q-65 0 -116.5 30t-81.5 84.5t-30 126.5q0 73 30.5 126t82.5 81.5t115 28.5q67 0 113.5 -28.5t72.5 -74.5l122 71q-32 49 -76.5 84.5t-102 55.5t-129.5 20q-81 0 -150 -26t-120 -74t-79.5 -115.5
t-28.5 -148.5t27.5 -149t78 -117t119 -76t149.5 -27q86 0 153 31t112.5 85.5t67 125.5t18.5 151h-345v-114zM337 848q0 -32 22.5 -53t54.5 -21q33 0 55.5 21t22.5 53t-22.5 52.5t-55.5 20.5q-32 0 -54.5 -20.5t-22.5 -52.5z" />
    <glyph glyph-name="gdotaccent" unicode="&#x121;" horiz-adv-x="598" 
d="M42 -32q4 -60 32.5 -106.5t82.5 -72t134 -25.5q66 0 122 25.5t89.5 80.5t33.5 140v450h-125v-450q0 -47 -17.5 -78t-46 -46t-60.5 -15q-35 0 -61 12t-41 33.5t-16 51.5h-127zM33 234q0 -76 31 -128.5t82 -79.5t108 -27q58 0 102.5 27.5t70 80.5t25.5 127
q0 75 -25.5 127.5t-70 80.5t-102.5 28q-57 0 -108 -27t-82 -79.5t-31 -129.5zM167 234q0 42 17 70.5t46 43.5t62 15q22 0 43 -8.5t38.5 -24.5t27.5 -40t10 -56q0 -42 -17.5 -70.5t-45 -43t-56.5 -14.5q-33 0 -62 15t-46 43.5t-17 69.5zM222 627q0 -32 23 -53t55 -21
q33 0 55.5 21t22.5 53t-22.5 52.5t-55.5 20.5q-32 0 -55 -20.5t-23 -52.5z" />
    <glyph glyph-name="uni0122" unicode="&#x122;" horiz-adv-x="802" 
d="M416 260h201q-9 -32 -26 -59t-41.5 -48t-58.5 -32.5t-77 -11.5q-65 0 -116.5 30t-81.5 84.5t-30 126.5q0 73 30.5 126t82.5 81.5t115 28.5q67 0 113.5 -28.5t72.5 -74.5l122 71q-32 49 -76.5 84.5t-102 55.5t-129.5 20q-81 0 -150 -26t-120 -74t-79.5 -115.5
t-28.5 -148.5t27.5 -149t78 -117t119 -76t149.5 -27q86 0 153 31t112.5 85.5t67 125.5t18.5 151h-345v-114zM368 -79l-88 -259l97 -22l120 250z" />
    <glyph glyph-name="uni0123" unicode="&#x123;" horiz-adv-x="570" 
d="M42 -32q4 -60 32.5 -106.5t82.5 -72t134 -25.5q66 0 122 25.5t89.5 80.5t33.5 140v450h-125v-450q0 -47 -17.5 -78t-46 -46t-60.5 -15q-35 0 -61 12t-41 33.5t-16 51.5h-127zM33 234q0 -76 31 -128.5t82 -79.5t108 -27q58 0 102.5 27.5t70 80.5t25.5 127
q0 75 -25.5 127.5t-70 80.5t-102.5 28q-57 0 -108 -27t-82 -79.5t-31 -129.5zM167 234q0 42 17 70.5t46 43.5t62 15q22 0 43 -8.5t38.5 -24.5t27.5 -40t10 -56q0 -42 -17.5 -70.5t-45 -43t-56.5 -14.5q-33 0 -62 15t-46 43.5t-17 69.5zM301 543l127 242l-92 38l-158 -229z
" />
    <glyph glyph-name="Hcircumflex" unicode="&#x124;" horiz-adv-x="764" 
d="M123 308h514v129h-514v-129zM546 700v-700h143v700h-143zM76 700v-700h143v700h-143zM382 863l98 -89l88 62l-186 140l-185 -140l88 -62z" />
    <glyph glyph-name="hcircumflex" unicode="&#x125;" horiz-adv-x="555" 
d="M194 780h-130v-780h130v780zM361 280v-280h130v299q0 57 -17 96.5t-52 59.5t-89 20t-92.5 -26t-58.5 -70t-20 -99h32q0 29 11 50t32 32.5t48 11.5q41 0 58.5 -24t17.5 -70zM133 929l97 -89l89 61l-186 140l-186 -140l89 -61z" />
    <glyph glyph-name="Hbar" unicode="&#x126;" horiz-adv-x="764" 
d="M123 308h514v129h-514v-129zM546 700v-700h143v700h-143zM76 700v-700h143v700h-143zM5 538h754v96h-754v-96z" />
    <glyph glyph-name="hbar" unicode="&#x127;" horiz-adv-x="555" 
d="M194 780h-130v-780h130v780zM361 280v-280h130v299q0 57 -17 96.5t-52 59.5t-89 20t-91 -26t-55.5 -70t-18.5 -99h26q0 29 11 50t32 32.5t48 11.5q41 0 58.5 -24t17.5 -70zM5 606h325v113h-325v-113z" />
    <glyph glyph-name="Itilde" unicode="&#x128;" horiz-adv-x="296" 
d="M76 700v-700h145v700h-145zM-38 831l66 -54q0 8 4 20t14.5 21.5t29.5 9.5q24 0 44 -13t41 -25.5t48 -12.5q30 0 55.5 12.5t44 31.5t26.5 37l-63 65q-15 -24 -30 -38t-33 -14q-21 0 -35 7.5t-27 17.5t-29.5 18t-40.5 8q-29 0 -53.5 -13t-40.5 -33t-21 -45z" />
    <glyph glyph-name="itilde" unicode="&#x129;" horiz-adv-x="271" 
d="M72 460v-460h126v460h-126zM-51 587l66 -54q0 8 4 20t14.5 21.5t29.5 9.5q24 0 44 -13t41 -25.5t48 -12.5q30 0 55.5 12.5t44 31.5t26.5 37l-63 65q-15 -24 -30.5 -38t-32.5 -14q-21 0 -35 8t-27 17.5t-29.5 17.5t-41.5 8q-28 0 -52.5 -13t-40.5 -33t-21 -45z" />
    <glyph glyph-name="Imacron" unicode="&#x12a;" horiz-adv-x="296" 
d="M76 700v-700h145v700h-145zM-34 774h365v114h-365v-114z" />
    <glyph glyph-name="imacron" unicode="&#x12b;" horiz-adv-x="271" 
d="M72 460v-460h126v460h-126zM-47 530h365v114h-365v-114z" />
    <glyph glyph-name="Ibreve" unicode="&#x12c;" horiz-adv-x="296" 
d="M76 700v-700h145v700h-145zM-14 919q0 -39 18.5 -72t55 -53t88.5 -20q53 0 89 20t55 53t19 72h-91q0 -16 -7.5 -31t-23.5 -24.5t-41 -9.5q-24 0 -40 9.5t-24 24.5t-8 31h-90z" />
    <glyph glyph-name="ibreve" unicode="&#x12d;" horiz-adv-x="271" 
d="M72 460v-460h126v460h-126zM-27 675q0 -39 18.5 -72t55 -53t88.5 -20q53 0 89 20t54.5 53t18.5 72h-90q0 -16 -8 -31t-24 -24.5t-40 -9.5t-40 9.5t-24 24.5t-8 31h-90z" />
    <glyph glyph-name="Iogonek" unicode="&#x12e;" horiz-adv-x="296" 
d="M76 700v-700h145v700h-145zM208 -116q-10 -10 -22 -15t-28 -5q-19 0 -29.5 10.5t-10.5 31.5q0 16 10.5 33t29.5 33t45 29l-41 25q-35 -18 -66 -39.5t-51 -47.5t-20 -58q0 -31 15.5 -53.5t42 -34.5t62.5 -12q38 0 61.5 12.5t34.5 27.5z" />
    <glyph glyph-name="iogonek" unicode="&#x12f;" horiz-adv-x="271" 
d="M58 638q0 -31 23 -52t55 -21t54.5 21t22.5 52q0 32 -22.5 52.5t-54.5 20.5t-55 -20.5t-23 -52.5zM72 460v-460h126v460h-126zM186 -117q-10 -10 -21.5 -15t-28.5 -5q-19 0 -29 10t-10 31q0 17 10 34t29 33t45 29l-41 25q-35 -18 -66 -39.5t-50.5 -47.5t-19.5 -58
q0 -31 15 -54t41.5 -34.5t62.5 -11.5q38 0 61.5 12.5t34.5 27.5z" />
    <glyph glyph-name="Idotaccent" unicode="&#x130;" horiz-adv-x="296" 
d="M76 700v-700h145v700h-145zM70 848q0 -32 23 -53t55 -21t54.5 21t22.5 53t-22.5 52.5t-54.5 20.5t-55 -20.5t-23 -52.5z" />
    <glyph glyph-name="dotlessi" unicode="&#x131;" horiz-adv-x="271" 
d="M72 460v-460h126v460h-126z" />
    <glyph glyph-name="IJ" unicode="&#x132;" horiz-adv-x="582" 
d="M210 -76l-77 -103q16 -12 41.5 -24t58 -21t67.5 -9q43 0 80.5 10t66 31.5t44 55t15.5 80.5v756h-150v-726q0 -46 -21.5 -65t-44.5 -19q-24 0 -45 9.5t-35 24.5zM76 700v-700h145v700h-145z" />
    <glyph glyph-name="ij" unicode="&#x133;" horiz-adv-x="534" 
d="M321 638q0 -31 23 -52t54 -21q33 0 55.5 21t22.5 52q0 32 -22.5 52.5t-55.5 20.5q-31 0 -54 -20.5t-23 -52.5zM240 -89l-55 -97q10 -10 25 -20.5t37.5 -18.5t52.5 -8q53 0 88.5 19.5t54 56.5t18.5 88v529h-125v-499q0 -27 -5.5 -43t-16.5 -24t-26 -8q-13 0 -25 5.5
t-23 19.5zM58 638q0 -31 23 -52t55 -21t54.5 21t22.5 52q0 32 -22.5 52.5t-54.5 20.5t-55 -20.5t-23 -52.5zM72 460v-460h126v460h-126z" />
    <glyph glyph-name="Jcircumflex" unicode="&#x134;" horiz-adv-x="302" 
d="M-70 -76l-77 -103q16 -12 41.5 -24t58 -21t67.5 -9q43 0 80.5 10t66 31.5t44 55t15.5 80.5v756h-150v-726q0 -46 -21.5 -65t-44.5 -19q-24 0 -45 9.5t-35 24.5zM151 863l97 -89l89 62l-186 140l-186 -140l89 -62z" />
    <glyph glyph-name="jcircumflex" unicode="&#x135;" horiz-adv-x="265" 
d="M-28 -89l-56 -97q10 -10 25 -20.5t38 -18.5t52 -8q53 0 89 19.5t54 56.5t18 88v529h-125v-499q0 -27 -5.5 -43t-16.5 -24t-26 -8q-13 0 -25 5.5t-22 19.5zM129 619l98 -89l88 62l-186 140l-185 -140l88 -62z" />
    <glyph glyph-name="uni0136" unicode="&#x136;" horiz-adv-x="658" 
d="M76 700v-700h147v700h-147zM472 700l-291 -332l302 -368h174l-305 372l290 328h-170zM328 -60l-88 -259l97 -23l121 250z" />
    <glyph glyph-name="uni0137" unicode="&#x137;" horiz-adv-x="534" 
d="M61 780v-780h125v780h-125zM355 460l-198 -190l219 -270h154l-218 270l198 190h-155zM258 -60l-88 -259l96 -23l121 250z" />
    <glyph glyph-name="kgreenlandic" unicode="&#x138;" horiz-adv-x="534" 
d="M61 460v-460h125v460h-125zM355 460l-198 -190l219 -270h154l-218 270l198 190h-155z" />
    <glyph glyph-name="Lacute" unicode="&#x139;" horiz-adv-x="504" 
d="M76 700v-700h422v125h-279v575h-143zM438 924l-102 49l-150 -160l72 -39z" />
    <glyph glyph-name="lacute" unicode="&#x13a;" horiz-adv-x="258" 
d="M64 780v-780h130v780h-130zM281 990l-103 49l-150 -160l73 -39z" />
    <glyph glyph-name="uni013B" unicode="&#x13b;" horiz-adv-x="504" 
d="M76 700v-700h422v125h-279v575h-143zM266 -60l-88 -259l97 -23l120 250z" />
    <glyph glyph-name="uni013C" unicode="&#x13c;" horiz-adv-x="258" 
d="M64 780v-780h130v780h-130zM108 -60l-88 -259l97 -23l121 250z" />
    <glyph glyph-name="Lcaron" unicode="&#x13d;" horiz-adv-x="504" 
d="M76 700v-700h422v125h-279v575h-143zM386 714l-88 -259l96 -22l121 250z" />
    <glyph glyph-name="lcaron" unicode="&#x13e;" horiz-adv-x="258" 
d="M64 780v-780h130v780h-130zM332 780l-88 -259l96 -23l121 250z" />
    <glyph glyph-name="Ldot" unicode="&#x13f;" horiz-adv-x="504" 
d="M76 700v-700h422v125h-279v575h-143zM302 426q0 -33 23.5 -57t58.5 -24q36 0 59 24t23 57t-23 56.5t-59 23.5q-35 0 -58.5 -23.5t-23.5 -56.5z" />
    <glyph glyph-name="ldot" unicode="&#x140;" horiz-adv-x="443" 
d="M64 780v-780h130v780h-130zM241 411q0 -33 23.5 -57t58.5 -24q36 0 59 24t23 57t-23 56.5t-59 23.5q-35 0 -58.5 -23.5t-23.5 -56.5z" />
    <glyph glyph-name="Lslash" unicode="&#x141;" horiz-adv-x="508" 
d="M5 319l334 221l-33 68l-334 -222zM76 700v-700h422v125h-279v575h-143z" />
    <glyph glyph-name="lslash" unicode="&#x142;" horiz-adv-x="258" 
d="M-4 319l306 197l-33 68l-305 -198zM64 780v-780h130v780h-130z" />
    <glyph glyph-name="Nacute" unicode="&#x143;" horiz-adv-x="788" 
d="M574 700v-434l-498 469v-735h138v434l498 -469v735h-138zM551 909l-102 49l-150 -160l72 -39z" />
    <glyph glyph-name="nacute" unicode="&#x144;" horiz-adv-x="559" 
d="M194 460h-130v-460h130v460zM361 280v-280h134v294q0 86 -40.5 131t-121.5 45q-54 0 -91 -26t-55.5 -69.5t-18.5 -98.5l26 4q0 29 11 50t32 32.5t48 11.5q41 0 58.5 -24t17.5 -70zM436 680l-102 49l-150 -160l72 -39z" />
    <glyph glyph-name="uni0145" unicode="&#x145;" horiz-adv-x="788" 
d="M375 -48l-88 -259l96 -23l120 250zM574 700v-434l-498 469v-735h138v434l498 -469v735h-138z" />
    <glyph glyph-name="uni0146" unicode="&#x146;" horiz-adv-x="559" 
d="M194 460h-130v-460h130v460zM361 280v-280h134v294q0 86 -40.5 131t-121.5 45q-54 0 -92.5 -26t-58.5 -69.5t-20 -98.5l32 4q0 29 11 50t32 32.5t48 11.5q41 0 58.5 -24t17.5 -70zM259 -60l-88 -259l96 -23l121 250z" />
    <glyph glyph-name="Ncaron" unicode="&#x147;" horiz-adv-x="788" 
d="M383 895l-97 89l-89 -62l186 -140l186 140l-89 62zM574 700v-434l-498 469v-735h138v434l498 -469v735h-138z" />
    <glyph glyph-name="ncaron" unicode="&#x148;" horiz-adv-x="559" 
d="M194 460h-130v-460h130v460zM361 280v-280h134v294q0 86 -40.5 131t-121.5 45q-54 0 -92.5 -26t-58.5 -69.5t-20 -98.5l32 4q0 29 11 50t32 32.5t48 11.5q41 0 58.5 -24t17.5 -70zM279 643l-97 89l-89 -62l186 -140l186 140l-89 62z" />
    <glyph glyph-name="napostrophe" unicode="&#x149;" horiz-adv-x="712" 
d="M346 460h-129v-460h129v460zM514 280v-280h134v294q0 86 -41 131t-121 45q-54 0 -92.5 -26t-58.5 -69.5t-20 -98.5l31 4q0 29 11.5 50t32 32.5t48.5 11.5q41 0 58.5 -24t17.5 -70zM117 700l-56 -247h92l102 247h-138z" />
    <glyph glyph-name="Eng" unicode="&#x14a;" horiz-adv-x="788" 
d="M551 -217q50 0 86.5 20t55.5 57t19 88v752h-138v-433l-498 468v-735h138v433l373 -359v-97q0 -26 -5.5 -42.5t-16 -24.5t-26.5 -8q-15 0 -26 6.5t-21 19.5l-56 -97q26 -25 53 -36.5t62 -11.5z" />
    <glyph glyph-name="eng" unicode="&#x14b;" horiz-adv-x="559" 
d="M326 -233q81 0 125 42.5t44 121.5v363q0 88 -41 132t-121 44q-46 0 -81.5 -20.5t-57.5 -58.5v69h-130v-460h130v278q0 30 11 51.5t31.5 33t48.5 11.5q39 0 57.5 -23t18.5 -71v-319q0 -38 -12 -56.5t-36 -18.5q-28 0 -47 25l-55 -97q24 -23 52.5 -35t62.5 -12z" />
    <glyph glyph-name="Omacron" unicode="&#x14c;" horiz-adv-x="811" 
d="M187 350q0 67 28 119t77 82t114 30q66 0 115 -30t76 -82t27 -119t-27.5 -119t-76.5 -82t-114 -30t-114 30t-77 82t-28 119zM36 350q0 -79 27 -146.5t77 -117.5t117.5 -77.5t148.5 -27.5t148.5 27.5t117 77.5t77 117.5t27.5 146.5q0 80 -27.5 146.5t-78 115.5t-117.5 75.5
t-147 26.5q-79 0 -146.5 -26.5t-117.5 -75.5t-78 -115.5t-28 -146.5zM223 774h365v114h-365v-114z" />
    <glyph glyph-name="omacron" unicode="&#x14d;" horiz-adv-x="576" 
d="M33 230q0 -71 33.5 -125.5t91 -84.5t130.5 -30t130.5 30t91 84.5t33.5 125.5q0 72 -33.5 126t-91 84t-130.5 30t-130.5 -30t-91 -84t-33.5 -126zM165 230q0 39 16.5 69t44.5 46t62 16t62 -16t44.5 -46t16.5 -69t-16.5 -68.5t-44.5 -46t-62 -16.5t-62 16.5t-44.5 46
t-16.5 68.5zM106 530h364v114h-364v-114z" />
    <glyph glyph-name="Obreve" unicode="&#x14e;" horiz-adv-x="811" 
d="M187 350q0 67 28 119t77 82t114 30q66 0 115 -30t76 -82t27 -119t-27.5 -119t-76.5 -82t-114 -30t-114 30t-77 82t-28 119zM36 350q0 -79 27 -146.5t77 -117.5t117.5 -77.5t148.5 -27.5t148.5 27.5t117 77.5t77 117.5t27.5 146.5q0 80 -27.5 146.5t-78 115.5t-117.5 75.5
t-147 26.5q-79 0 -146.5 -26.5t-117.5 -75.5t-78 -115.5t-28 -146.5zM243 919q0 -39 19 -72t55.5 -53t88.5 -20q53 0 89 20t54.5 53t18.5 72h-90q0 -16 -8 -31t-24 -24.5t-40 -9.5q-25 0 -41 9.5t-23.5 24.5t-7.5 31h-91z" />
    <glyph glyph-name="obreve" unicode="&#x14f;" horiz-adv-x="576" 
d="M33 230q0 -71 33.5 -125.5t91 -84.5t130.5 -30t130.5 30t91 84.5t33.5 125.5q0 72 -33.5 126t-91 84t-130.5 30t-130.5 -30t-91 -84t-33.5 -126zM165 230q0 39 16.5 69t44.5 46t62 16t62 -16t44.5 -46t16.5 -69t-16.5 -68.5t-44.5 -46t-62 -16.5t-62 16.5t-44.5 46
t-16.5 68.5zM126 675q0 -39 18.5 -72t55 -53t88.5 -20q53 0 89 20t54.5 53t18.5 72h-90q0 -16 -8 -31t-24 -24.5t-40 -9.5t-40 9.5t-24 24.5t-8 31h-90z" />
    <glyph glyph-name="Ohungarumlaut" unicode="&#x150;" horiz-adv-x="811" 
d="M316 774l141 186l-110 26l-111 -189zM495 774l143 186l-112 26l-110 -189zM187 350q0 67 28 119t77 82t114 30q66 0 115 -30t76 -82t27 -119t-27.5 -119t-76.5 -82t-114 -30t-114 30t-77 82t-28 119zM36 350q0 -79 27 -146.5t77 -117.5t117.5 -77.5t148.5 -27.5
t148.5 27.5t117 77.5t77 117.5t27.5 146.5q0 80 -27.5 146.5t-78 115.5t-117.5 75.5t-147 26.5q-79 0 -146.5 -26.5t-117.5 -75.5t-78 -115.5t-28 -146.5z" />
    <glyph glyph-name="ohungarumlaut" unicode="&#x151;" horiz-adv-x="576" 
d="M198 530l141 186l-110 26l-111 -189zM377 530l143 186l-112 26l-110 -189zM33 230q0 -71 33.5 -125.5t91 -84.5t130.5 -30t130.5 30t91 84.5t33.5 125.5q0 72 -33.5 126t-91 84t-130.5 30t-130.5 -30t-91 -84t-33.5 -126zM165 230q0 39 16.5 69t44.5 46t62 16t62 -16
t44.5 -46t16.5 -69t-16.5 -68.5t-44.5 -46t-62 -16.5t-62 16.5t-44.5 46t-16.5 68.5z" />
    <glyph glyph-name="OE" unicode="&#x152;" horiz-adv-x="985" 
d="M562 312h357v119h-357v-119zM494 670v-640h138v640h-138zM940 121h-368l-24 6h-137q-54 0 -96 15t-71.5 43.5t-45 70t-15.5 94.5t15 94.5t44.5 70t72 43.5t96.5 15h140l17 6h371v121h-549q-76 0 -141 -25t-112.5 -71.5t-74 -111t-26.5 -142.5t26.5 -142.5t74.5 -111
t112.5 -71.5t140.5 -25h550v121z" />
    <glyph glyph-name="oe" unicode="&#x153;" horiz-adv-x="900" 
d="M729 250v-20l134 -29q1 6 1.5 16.5t0.5 16.5q0 73 -29 125.5t-76 81.5t-102 29q-59 0 -106.5 -24t-77.5 -67t-40 -100q-2 -12 -3 -24t-1 -25q0 -69 27.5 -123.5t76 -85.5t110.5 -31q50 0 92 17t74.5 46.5t52.5 66.5l-112 36q-21 -31 -50 -50.5t-73 -19.5
q-36 0 -62.5 16.5t-41 48.5t-14.5 79l2 30q0 39 15.5 65.5t41.5 40t58 13.5q34 0 56.5 -16t34 -45t11.5 -68zM481 201h382l-19 79h-363v-79zM35 230q0 -74 31 -128t83 -83t114 -29q63 0 108.5 29t70 83t24.5 128q0 75 -24.5 128.5t-70 82.5t-108.5 29q-62 0 -114 -29
t-83 -82.5t-31 -128.5zM163 230q0 42 16.5 71.5t44.5 44.5t62 15q31 0 56 -15t40 -44.5t15 -71.5t-15 -71.5t-40 -44.5t-56 -15q-34 0 -62 15t-44.5 44.5t-16.5 71.5z" />
    <glyph glyph-name="Racute" unicode="&#x154;" horiz-adv-x="620" 
d="M235 326l210 -326h169l-228 326h-151zM76 700v-700h143v700h-143zM163 578h139q38 0 65.5 -12.5t42.5 -36t15 -56.5t-15 -56.5t-42.5 -36t-65.5 -12.5h-139v-114h148q83 0 141 28t89 78.5t31 116.5q0 67 -31 117t-89 78t-141 28h-148v-122zM449 924l-103 49l-150 -160
l73 -39z" />
    <glyph glyph-name="racute" unicode="&#x155;" horiz-adv-x="390" 
d="M191 460h-127v-460h127v460zM326 325l59 110q-14 18 -36.5 27t-47.5 9q-36 0 -70 -25.5t-55 -68t-21 -97.5l36 -36q0 33 8.5 56.5t25.5 36.5t41 13q20 0 33.5 -6.5t26.5 -18.5zM376 681l-102 48l-150 -160l72 -38z" />
    <glyph glyph-name="uni0156" unicode="&#x156;" horiz-adv-x="620" 
d="M235 326l210 -326h169l-228 326h-151zM76 700v-700h143v700h-143zM163 578h139q38 0 65.5 -12.5t42.5 -36t15 -56.5t-15 -56.5t-42.5 -36t-65.5 -12.5h-139v-114h148q83 0 141 28t89 78.5t31 116.5q0 67 -31 117t-89 78t-141 28h-148v-122zM325 -60l-88 -259l96 -23
l120 250z" />
    <glyph glyph-name="uni0157" unicode="&#x157;" horiz-adv-x="390" 
d="M191 460h-127v-460h127v460zM326 325l59 110q-14 18 -36.5 27t-47.5 9q-36 0 -70 -25.5t-55 -68t-21 -97.5l36 -36q0 33 8.5 56.5t25.5 36.5t41 13q20 0 33.5 -6.5t26.5 -18.5zM107 -60l-88 -259l97 -23l120 250z" />
    <glyph glyph-name="Rcaron" unicode="&#x158;" horiz-adv-x="620" 
d="M235 326l210 -326h169l-228 326h-151zM76 700v-700h143v700h-143zM163 578h139q38 0 65.5 -12.5t42.5 -36t15 -56.5t-15 -56.5t-42.5 -36t-65.5 -12.5h-139v-114h148q83 0 141 28t89 78.5t31 116.5q0 67 -31 117t-89 78t-141 28h-148v-122zM295 887l-97 89l-89 -62
l186 -140l186 140l-89 62z" />
    <glyph glyph-name="rcaron" unicode="&#x159;" horiz-adv-x="390" 
d="M191 460h-127v-460h127v460zM326 325l59 110q-14 18 -36.5 27t-47.5 9q-36 0 -70 -25.5t-55 -68t-21 -97.5l36 -36q0 33 8.5 56.5t25.5 36.5t41 13q20 0 33.5 -6.5t26.5 -18.5zM224 644l-97 88l-88 -61l185 -140l186 140l-88 61z" />
    <glyph glyph-name="Sacute" unicode="&#x15a;" horiz-adv-x="601" 
d="M140 243l-104 -71q22 -57 62.5 -100t95 -67t116.5 -24q78 0 134 25t86 73t30 115q0 47 -14.5 81.5t-40 59.5t-57.5 42.5t-65 30.5q-42 15 -79 30.5t-60 34t-23 45.5q0 23 11.5 38.5t32 24.5t48.5 9q31 0 54 -12t41.5 -33t33.5 -48l109 65q-14 36 -45 71t-80 58t-118 23
q-68 0 -120.5 -23.5t-82.5 -66t-30 -100.5q0 -49 19 -84.5t47.5 -60t60.5 -40.5t58 -26q40 -15 74 -30.5t55 -37t21 -55.5q0 -27 -11 -45t-32 -27.5t-53 -9.5q-29 0 -53.5 8.5t-45 26t-39 43t-36.5 57.5zM488 924l-103 49l-150 -160l73 -39z" />
    <glyph glyph-name="sacute" unicode="&#x15b;" horiz-adv-x="439" 
d="M85 170l-64 -80q22 -31 55 -55t75 -37.5t88 -13.5q81 0 128 34.5t47 111.5q0 38 -18 64t-47 43.5t-62 30.5q-28 11 -55 20.5t-44.5 20.5t-17.5 26q0 19 15 27t40 8q19 0 41.5 -7t44.5 -19t37 -29l57 80q-19 22 -48.5 38.5t-64.5 26.5t-74 10q-46 0 -85 -14.5t-63.5 -43.5
t-24.5 -72q0 -39 18 -64.5t46 -42.5t58 -30q27 -12 54 -22t45 -22.5t18 -32.5q0 -21 -15.5 -30t-41.5 -9q-19 0 -42.5 9t-48.5 27t-51 47zM398 680l-103 49l-150 -160l73 -39z" />
    <glyph glyph-name="Scircumflex" unicode="&#x15c;" horiz-adv-x="601" 
d="M140 243l-104 -71q22 -57 62.5 -100t95 -67t116.5 -24q78 0 134 25t86 73t30 115q0 47 -14.5 81.5t-40 59.5t-57.5 42.5t-65 30.5q-42 15 -79 30.5t-60 34t-23 45.5q0 23 11.5 38.5t32 24.5t48.5 9q31 0 54 -12t41.5 -33t33.5 -48l109 65q-14 36 -45 71t-80 58t-118 23
q-68 0 -120.5 -23.5t-82.5 -66t-30 -100.5q0 -49 19 -84.5t47.5 -60t60.5 -40.5t58 -26q40 -15 74 -30.5t55 -37t21 -55.5q0 -27 -11 -45t-32 -27.5t-53 -9.5q-29 0 -53.5 8.5t-45 26t-39 43t-36.5 57.5zM308 863l97 -89l88 62l-185 140l-186 -140l88 -62z" />
    <glyph glyph-name="scircumflex" unicode="&#x15d;" horiz-adv-x="439" 
d="M85 170l-64 -80q22 -31 55 -55t75 -37.5t88 -13.5q81 0 128 34.5t47 111.5q0 38 -18 64t-47 43.5t-62 30.5q-28 11 -55 20.5t-44.5 20.5t-17.5 26q0 19 15 27t40 8q19 0 41.5 -7t44.5 -19t37 -29l57 80q-19 22 -48.5 38.5t-64.5 26.5t-74 10q-46 0 -85 -14.5t-63.5 -43.5
t-24.5 -72q0 -39 18 -64.5t46 -42.5t58 -30q27 -12 54 -22t45 -22.5t18 -32.5q0 -21 -15.5 -30t-41.5 -9q-19 0 -42.5 9t-48.5 27t-51 47zM227 619l97 -89l88 62l-185 140l-186 -140l88 -62z" />
    <glyph glyph-name="Scedilla" unicode="&#x15e;" horiz-adv-x="601" 
d="M140 243l-104 -71q22 -57 62.5 -100t95 -67t116.5 -24q75 0 131.5 25t87.5 73t31 115q0 47 -14.5 81.5t-40 59.5t-57.5 42.5t-65 30.5q-42 15 -79 30.5t-60 34t-23 45.5q0 23 10 38.5t29 24.5t47 9q31 0 56 -12t44.5 -33t34.5 -48l109 65q-16 39 -47 73.5t-79 56.5
t-117 22q-71 0 -123.5 -24t-81 -67.5t-28.5 -101.5q0 -51 19 -86.5t47.5 -58.5t60.5 -38t58 -25q40 -15 74 -30.5t55 -37t21 -55.5q0 -27 -11 -45t-32 -27.5t-53 -9.5q-29 0 -53.5 8.5t-45 26t-39 43t-36.5 57.5zM294 60l-87 -186q23 11 45 14t29 3q25 0 41.5 -7.5
t16.5 -26.5q0 -18 -13.5 -27t-39.5 -9q-16 0 -35 5.5t-37 18.5l-42 -59q31 -22 60.5 -30.5t66.5 -8.5q31 0 59 12t46.5 35t18.5 57q0 31 -13.5 50.5t-33.5 29.5t-39 10h-14t-14 -2l79 119z" />
    <glyph glyph-name="scedilla" unicode="&#x15f;" horiz-adv-x="439" 
d="M84 172l-63 -81q27 -31 61.5 -55.5t75.5 -38t87 -13.5q76 0 122.5 34.5t46.5 112.5q0 41 -18 67t-47 43t-62 30q-28 11 -54 19.5t-42.5 19.5t-16.5 30t15 27.5t41 8.5q28 0 61.5 -17.5t56.5 -43.5l57 81q-33 31 -81 53t-106 22q-46 0 -83 -14.5t-59.5 -43.5t-22.5 -72
q0 -44 19.5 -70.5t49.5 -42t62 -27.5q26 -9 48.5 -19t37 -23t14.5 -32q0 -21 -15.5 -31.5t-38.5 -10.5q-16 0 -38.5 8.5t-49.5 27.5t-58 51zM224 63l-86 -186q23 11 45 13.5t29 2.5q24 0 40.5 -7t16.5 -26q0 -18 -13.5 -27.5t-39.5 -9.5q-16 0 -35 6t-36 19l-41 -60
q31 -21 59.5 -29.5t66.5 -8.5q30 0 58.5 11.5t47 35t18.5 57.5q0 30 -13.5 50t-33.5 30t-39 10q-8 0 -14.5 -0.5t-13.5 -1.5l80 118z" />
    <glyph glyph-name="Scaron" unicode="&#x160;" horiz-adv-x="601" 
d="M140 243l-104 -71q22 -57 62.5 -100t95 -67t116.5 -24q78 0 134 25t86 73t30 115q0 47 -14.5 81.5t-40 59.5t-57.5 42.5t-65 30.5q-42 15 -79 30.5t-60 34t-23 45.5q0 23 11.5 38.5t32 24.5t48.5 9q31 0 54 -12t41.5 -33t33.5 -48l109 65q-14 36 -45 71t-80 58t-118 23
q-68 0 -120.5 -23.5t-82.5 -66t-30 -100.5q0 -49 19 -84.5t47.5 -60t60.5 -40.5t58 -26q40 -15 74 -30.5t55 -37t21 -55.5q0 -27 -11 -45t-32 -27.5t-53 -9.5q-29 0 -53.5 8.5t-45 26t-39 43t-36.5 57.5zM308 887l-98 89l-88 -62l186 -140l185 140l-88 62z" />
    <glyph glyph-name="scaron" unicode="&#x161;" horiz-adv-x="439" 
d="M85 170l-64 -80q22 -31 55 -55t75 -37.5t88 -13.5q81 0 128 34.5t47 111.5q0 38 -18 64t-47 43.5t-62 30.5q-28 11 -55 20.5t-44.5 20.5t-17.5 26q0 19 15 27t40 8q19 0 41.5 -7t44.5 -19t37 -29l57 80q-19 22 -48.5 38.5t-64.5 26.5t-74 10q-46 0 -85 -14.5t-63.5 -43.5
t-24.5 -72q0 -39 18 -64.5t46 -42.5t58 -30q27 -12 54 -22t45 -22.5t18 -32.5q0 -21 -15.5 -30t-41.5 -9q-19 0 -42.5 9t-48.5 27t-51 47zM218 635l-97 88l-89 -61l186 -140l186 140l-89 61z" />
    <glyph glyph-name="uni0162" unicode="&#x162;" horiz-adv-x="531" 
d="M218 11l-86 -187q23 11 45 14t29 3q24 0 40.5 -7t16.5 -26q0 -18 -13.5 -27.5t-39.5 -9.5q-16 0 -35 6t-36 19l-42 -60q31 -22 60 -30.5t67 -8.5q30 0 58.5 12t47 35.5t18.5 57.5q0 30 -14 50t-33.5 30t-38.5 10q-8 0 -15 -0.5t-13 -2.5l79 119zM6 571h188v-571h143v571
h189v129h-520v-129z" />
    <glyph glyph-name="uni0163" unicode="&#x163;" horiz-adv-x="294" 
d="M99 11l-86 -187q23 11 45 14t29 3q24 0 40.5 -7t16.5 -26q0 -18 -13.5 -27.5t-39.5 -9.5q-16 0 -35 6t-36 19l-42 -60q31 -22 60 -30.5t67 -8.5q30 0 58.5 12t47 35.5t18.5 57.5q0 30 -14 50t-33.5 30t-38.5 10q-8 0 -15 -0.5t-13 -2.5l79 119zM5 460v-109h284v109h-284z
M84 620v-620h125v620h-125z" />
    <glyph glyph-name="Tcaron" unicode="&#x164;" horiz-adv-x="531" 
d="M6 571h188v-571h143v571h189v129h-520v-129zM266 887l-97 89l-89 -62l186 -140l186 140l-89 62z" />
    <glyph glyph-name="tcaron" unicode="&#x165;" horiz-adv-x="442" 
d="M5 460v-109h284v109h-284zM84 620v-620h125v620h-125zM354 794l-88 -259l96 -23l121 250z" />
    <glyph glyph-name="Tbar" unicode="&#x166;" horiz-adv-x="531" 
d="M88 326h356v114h-356v-114zM6 571h188v-571h143v571h189v129h-520v-129z" />
    <glyph glyph-name="tbar" unicode="&#x167;" horiz-adv-x="240" 
d="M20 186h209v113h-209v-113zM5 460v-109h284v109h-284zM84 620v-620h125v620h-125z" />
    <glyph glyph-name="Utilde" unicode="&#x168;" horiz-adv-x="677" 
d="M71 700v-470q0 -62 20 -109t56 -79t85 -48.5t107 -16.5q57 0 106 16.5t85.5 48.5t56.5 79t20 109v470h-143v-461q0 -60 -31.5 -96.5t-93.5 -36.5t-93.5 36.5t-31.5 96.5v461h-143zM152 831l66 -54q0 8 4 20t14.5 21.5t29.5 9.5q24 0 44 -13t41.5 -25.5t48.5 -12.5
q29 0 54.5 12.5t44 31.5t26.5 37l-63 65q-15 -24 -30 -38t-32 -14q-21 0 -35.5 7.5t-27 17.5t-29.5 18t-41 8q-28 0 -53 -13t-41 -33t-21 -45z" />
    <glyph glyph-name="utilde" unicode="&#x169;" horiz-adv-x="559" 
d="M366 0h129v460h-129v-460zM198 180v280h-134v-294q0 -86 41 -131t122 -45q54 0 90.5 26t55.5 70t19 98l-26 -4q0 -29 -11.5 -50t-32 -32.5t-48.5 -11.5q-40 0 -58 24t-18 70zM94 587l66 -54q0 8 3.5 20t14 21.5t29.5 9.5q25 0 44.5 -13t41 -25.5t48.5 -12.5
q30 0 55.5 12.5t44 31.5t26.5 37l-64 65q-15 -24 -30 -38t-32 -14q-21 0 -35 8t-27 17.5t-29.5 17.5t-41.5 8q-28 0 -52.5 -13t-40.5 -33t-21 -45z" />
    <glyph glyph-name="Umacron" unicode="&#x16a;" horiz-adv-x="677" 
d="M71 700v-470q0 -62 20 -109t56 -79t85 -48.5t107 -16.5q57 0 106 16.5t85.5 48.5t56.5 79t20 109v470h-143v-461q0 -60 -31.5 -96.5t-93.5 -36.5t-93.5 36.5t-31.5 96.5v461h-143zM156 774h365v114h-365v-114z" />
    <glyph glyph-name="umacron" unicode="&#x16b;" horiz-adv-x="559" 
d="M366 0h129v460h-129v-460zM198 180v280h-134v-294q0 -86 41 -131t122 -45q54 0 90.5 26t55.5 70t19 98l-26 -4q0 -29 -11.5 -50t-32 -32.5t-48.5 -11.5q-40 0 -58 24t-18 70zM97 530h365v114h-365v-114z" />
    <glyph glyph-name="Ubreve" unicode="&#x16c;" horiz-adv-x="677" 
d="M71 700v-470q0 -62 20 -109t56 -79t85 -48.5t107 -16.5q57 0 106 16.5t85.5 48.5t56.5 79t20 109v470h-143v-461q0 -60 -31.5 -96.5t-93.5 -36.5t-93.5 36.5t-31.5 96.5v461h-143zM176 919q0 -39 19 -72t55.5 -53t88.5 -20q53 0 89 20t54.5 53t18.5 72h-90q0 -16 -8 -31
t-24 -24.5t-40 -9.5q-25 0 -41 9.5t-23.5 24.5t-7.5 31h-91z" />
    <glyph glyph-name="ubreve" unicode="&#x16d;" horiz-adv-x="559" 
d="M366 0h129v460h-129v-460zM198 180v280h-134v-294q0 -86 41 -131t122 -45q54 0 90.5 26t55.5 70t19 98l-26 -4q0 -29 -11.5 -50t-32 -32.5t-48.5 -11.5q-40 0 -58 24t-18 70zM118 675q0 -39 18.5 -72t55 -53t88.5 -20q53 0 89 20t54.5 53t18.5 72h-90q0 -16 -8 -31
t-24 -24.5t-40 -9.5t-40 9.5t-24 24.5t-8 31h-90z" />
    <glyph glyph-name="Uring" unicode="&#x16e;" horiz-adv-x="677" 
d="M71 700v-470q0 -62 20 -109t56 -79t85 -48.5t107 -16.5q57 0 106 16.5t85.5 48.5t56.5 79t20 109v470h-143v-461q0 -60 -31.5 -96.5t-93.5 -36.5t-93.5 36.5t-31.5 96.5v461h-143zM221 885q0 -49 34.5 -80t82.5 -31t83.5 31t35.5 80q0 50 -35.5 80.5t-83.5 30.5
t-82.5 -30.5t-34.5 -80.5zM291 885q0 23 14 36.5t33 13.5t33.5 -13.5t14.5 -36.5t-14.5 -36t-33.5 -13t-33 13t-14 36z" />
    <glyph glyph-name="uring" unicode="&#x16f;" horiz-adv-x="559" 
d="M366 0h129v460h-129v-460zM198 180v280h-134v-294q0 -86 41 -131t122 -45q54 0 90.5 26t55.5 70t19 98l-26 -4q0 -29 -11.5 -50t-32 -32.5t-48.5 -11.5q-40 0 -58 24t-18 70zM162 641q0 -49 35 -80t83 -31t83 31t35 80q0 50 -35 80.5t-83 30.5t-83 -30.5t-35 -80.5z
M232 641q0 23 14.5 36.5t33.5 13.5t33.5 -13.5t14.5 -36.5t-14.5 -36t-33.5 -13t-33.5 13t-14.5 36z" />
    <glyph glyph-name="Uhungarumlaut" unicode="&#x170;" horiz-adv-x="677" 
d="M249 774l141 186l-110 26l-111 -189zM428 774l143 186l-112 26l-110 -189zM71 700v-470q0 -62 20 -109t56 -79t85 -48.5t107 -16.5q57 0 106 16.5t85.5 48.5t56.5 79t20 109v470h-143v-461q0 -60 -31.5 -96.5t-93.5 -36.5t-93.5 36.5t-31.5 96.5v461h-143z" />
    <glyph glyph-name="uhungarumlaut" unicode="&#x171;" horiz-adv-x="559" 
d="M191 530l141 186l-110 26l-111 -189zM370 530l143 186l-112 26l-110 -189zM198 180v280h-134v-294q0 -82 40.5 -129t122.5 -47q49 0 83 20.5t56 59.5v-70h129v460h-129v-280q0 -29 -11.5 -50t-32 -32.5t-48.5 -11.5q-40 0 -58 24.5t-18 69.5z" />
    <glyph glyph-name="Uogonek" unicode="&#x172;" horiz-adv-x="677" 
d="M384 -129q-10 -10 -21.5 -15t-28.5 -5q-19 0 -29 10t-10 31q0 17 10 34t29 33t45 29l-41 25q-35 -18 -66 -39.5t-50.5 -47.5t-19.5 -58q0 -31 15 -54t41.5 -34.5t61.5 -11.5q39 0 62.5 12.5t34.5 27.5zM71 700v-470q0 -62 20 -109t56 -79t85 -48.5t107 -16.5
q57 0 106 16.5t85.5 48.5t56.5 79t20 109v470h-143v-461q0 -60 -31.5 -96.5t-93.5 -36.5t-93.5 36.5t-31.5 96.5v461h-143z" />
    <glyph glyph-name="uogonek" unicode="&#x173;" horiz-adv-x="559" 
d="M493 -117q-10 -10 -21.5 -15t-28.5 -5q-19 0 -29 10t-10 31q0 17 10 34t29 33t45 29l-41 25q-35 -18 -66 -39.5t-50.5 -47.5t-19.5 -58q0 -31 15 -54t41.5 -34.5t61.5 -11.5q39 0 62.5 12.5t34.5 27.5zM198 180v280h-134v-294q0 -82 40.5 -129t122.5 -47q49 0 83 20.5
t56 59.5v-70h129v460h-129v-280q0 -29 -11.5 -50t-32 -32.5t-48.5 -11.5q-40 0 -58 24.5t-18 69.5z" />
    <glyph glyph-name="Wcircumflex" unicode="&#x174;" horiz-adv-x="1041" 
d="M720 250l-199 485l-200 -485l-147 450h-168l294 -739l221 460l220 -460l295 739h-168zM521 884l97 -89l88 61l-185 140l-186 -140l89 -61z" />
    <glyph glyph-name="wcircumflex" unicode="&#x175;" horiz-adv-x="736" 
d="M-4 460l226 -491l144 293l148 -293l225 491h-137l-102 -256l-135 291l-130 -290l-101 255h-138zM365 644l97 -89l89 61l-186 140l-186 -140l89 -61z" />
    <glyph glyph-name="Ycircumflex" unicode="&#x176;" horiz-adv-x="629" 
d="M465 700l-151 -282l-150 282h-163l241 -411v-289h145v290l241 410h-163zM315 863l97 -89l89 62l-186 140l-186 -140l89 -62z" />
    <glyph glyph-name="ycircumflex" unicode="&#x177;" horiz-adv-x="496" 
d="M502 460h-135l-145 -364l64 -2l-148 366h-144l191 -414l-116 -266h133zM248 619l97 -89l89 62l-186 140l-186 -140l89 -62z" />
    <glyph glyph-name="Ydieresis" unicode="&#x178;" horiz-adv-x="629" 
d="M109 855q0 -31 23 -52t54 -21q33 0 56 21t23 52q0 32 -23 52.5t-56 20.5q-31 0 -54 -20.5t-23 -52.5zM365 855q0 -31 22.5 -52t54.5 -21q33 0 55.5 21t22.5 52q0 32 -22.5 52.5t-55.5 20.5q-32 0 -54.5 -20.5t-22.5 -52.5zM465 700l-151 -282l-150 282h-163l241 -411
v-289h145v290l241 410h-163z" />
    <glyph glyph-name="Zacute" unicode="&#x179;" horiz-adv-x="596" 
d="M50 571h300l-339 -571h539v125h-312l343 575h-531v-129zM484 924l-103 49l-150 -160l73 -39z" />
    <glyph glyph-name="zacute" unicode="&#x17a;" horiz-adv-x="503" 
d="M270 342l-255 -342h444v118h-218l247 342h-434v-118h216zM439 692l-103 48l-150 -160l73 -38z" />
    <glyph glyph-name="Zdotaccent" unicode="&#x17b;" horiz-adv-x="596" 
d="M50 571h300l-339 -571h539v125h-312l343 575h-531v-129zM237 848q0 -32 23 -53t55 -21q33 0 55.5 21t22.5 53t-22.5 52.5t-55.5 20.5q-32 0 -55 -20.5t-23 -52.5z" />
    <glyph glyph-name="zdotaccent" unicode="&#x17c;" horiz-adv-x="503" 
d="M270 342l-255 -342h444v118h-218l247 342h-434v-118h216zM193 621q0 -31 23 -52t55 -21t54.5 21t22.5 52q0 32 -22.5 52.5t-54.5 20.5t-55 -20.5t-23 -52.5z" />
    <glyph glyph-name="Zcaron" unicode="&#x17d;" horiz-adv-x="596" 
d="M50 571h300l-339 -571h539v125h-312l343 575h-531v-129zM315 887l-97 89l-89 -62l186 -140l186 140l-89 62z" />
    <glyph glyph-name="zcaron" unicode="&#x17e;" horiz-adv-x="499" 
d="M271 643l-97 88l-89 -61l186 -140l185 140l-88 61zM271 342l-256 -342h444v118h-219l248 342h-434v-118h217z" />
    <glyph glyph-name="florin" unicode="&#x192;" horiz-adv-x="600" 
d="M196 -200q45 -1 79.5 19.5t54.5 57.5t23 88l20 386h86l7 109h-87l9 140q3 37 15.5 57t33.5 20q10 0 20 -5.5t25 -20.5l53 93q-33 27 -59.5 38t-55.5 11q-66 2 -108.5 -43t-48.5 -122l-8 -168h-64l-8 -109h66l-21 -359q-2 -35 -15 -55t-34 -20q-10 0 -20 5.5t-25 19.5
l-54 -93q34 -26 60.5 -37t55.5 -12z" />
    <glyph glyph-name="uni0212" unicode="&#x212;" horiz-adv-x="620" 
d="M235 326l210 -326h169l-228 326h-151zM76 700v-700h143v700h-143zM163 578h139q38 0 65.5 -12.5t42.5 -36t15 -56.5t-15 -56.5t-42.5 -36t-65.5 -12.5h-139v-114h148q83 0 141 28t89 78.5t31 116.5q0 67 -31 117t-89 78t-141 28h-148v-122zM148 774q0 40 18.5 72.5
t55.5 52.5t89 20q53 0 89 -20t54.5 -52.5t18.5 -72.5h-90q0 17 -8 31.5t-24 24t-40 9.5q-25 0 -41 -9.5t-23.5 -24t-7.5 -31.5h-91z" />
    <glyph glyph-name="uni0213" unicode="&#x213;" horiz-adv-x="390" 
d="M191 460h-127v-460h127v460zM326 325l59 110q-14 18 -36.5 27t-47.5 9q-36 0 -70 -25.5t-55 -68t-21 -97.5l36 -36q0 33 8.5 56.5t25.5 36.5t41 13q20 0 33.5 -6.5t26.5 -18.5zM63 531q0 39 18.5 71.5t55 52.5t88.5 20q53 0 89 -20t54.5 -52.5t18.5 -71.5h-90
q0 16 -8 30.5t-24 24t-40 9.5t-40 -9.5t-24 -24t-8 -30.5h-90z" />
    <glyph glyph-name="uni0218" unicode="&#x218;" horiz-adv-x="601" 
d="M140 243l-104 -71q22 -57 62.5 -100t95 -67t116.5 -24q78 0 134 25t86 73t30 115q0 47 -14.5 81.5t-40 59.5t-57.5 42.5t-65 30.5q-42 15 -79 30.5t-60 34t-23 45.5q0 23 11.5 38.5t32 24.5t48.5 9q31 0 54 -12t41.5 -33t33.5 -48l109 65q-14 36 -45 71t-80 58t-118 23
q-68 0 -120.5 -23.5t-82.5 -66t-30 -100.5q0 -49 19 -84.5t47.5 -60t60.5 -40.5t58 -26q40 -15 74 -30.5t55 -37t21 -55.5q0 -27 -11 -45t-32 -27.5t-53 -9.5q-29 0 -53.5 8.5t-45 26t-39 43t-36.5 57.5zM272 -70l-88 -259l96 -23l121 250z" />
    <glyph glyph-name="uni0219" unicode="&#x219;" horiz-adv-x="439" 
d="M85 170l-64 -80q22 -31 55 -55t75 -37.5t88 -13.5q81 0 128 34.5t47 111.5q0 38 -18 64t-47 43.5t-62 30.5q-28 11 -55 20.5t-44.5 20.5t-17.5 26q0 19 15 27t40 8q19 0 41.5 -7t44.5 -19t37 -29l57 80q-19 22 -48.5 38.5t-64.5 26.5t-74 10q-46 0 -85 -14.5t-63.5 -43.5
t-24.5 -72q0 -39 18 -64.5t46 -42.5t58 -30q27 -12 54 -22t45 -22.5t18 -32.5q0 -21 -15.5 -30t-41.5 -9q-19 0 -42.5 9t-48.5 27t-51 47zM202 -68l-88 -259l96 -23l121 250z" />
    <glyph glyph-name="uni021A" unicode="&#x21a;" horiz-adv-x="531" 
d="M6 571h188v-571h143v571h189v129h-520v-129zM246 -60l-88 -259l96 -23l121 250z" />
    <glyph glyph-name="uni021B" unicode="&#x21b;" horiz-adv-x="294" 
d="M5 460v-109h284v109h-284zM84 620v-620h125v620h-125zM126 -60l-88 -259l97 -23l120 250z" />
    <glyph glyph-name="uni0237" unicode="&#x237;" horiz-adv-x="265" 
d="M-28 -89l-56 -97q10 -10 25 -20.5t38 -18.5t52 -8q53 0 89 19.5t54 56.5t18 88v529h-125v-499q0 -27 -5.5 -43t-16.5 -24t-26 -8q-13 0 -25 5.5t-22 19.5z" />
    <glyph glyph-name="circumflex" unicode="&#x2c6;" horiz-adv-x="480" 
d="M240 634l97 -88l89 61l-186 140l-186 -140l89 -61z" />
    <glyph glyph-name="caron" unicode="&#x2c7;" horiz-adv-x="480" 
d="M240 670l-97 88l-89 -61l186 -140l186 140l-89 61z" />
    <glyph glyph-name="breve" unicode="&#x2d8;" horiz-adv-x="546" 
d="M111 850q0 -38 18.5 -71.5t55 -53t88.5 -19.5q53 0 89 19.5t54.5 53t18.5 71.5h-90q0 -16 -8 -30.5t-24 -24t-40 -9.5t-40 9.5t-24 24t-8 30.5h-90z" />
    <glyph glyph-name="dotaccent" unicode="&#x2d9;" horiz-adv-x="300" 
d="M72 806q0 -32 23 -53t55 -21t55 21t23 53t-23 52.5t-55 20.5t-55 -20.5t-23 -52.5z" />
    <glyph glyph-name="ring" unicode="&#x2da;" horiz-adv-x="312" 
d="M38 774q0 -49 35 -79.5t83 -30.5t83 30.5t35 79.5q0 50 -35 80.5t-83 30.5t-83 -30.5t-35 -80.5zM108 774q0 24 14.5 37t33.5 13t33.5 -13t14.5 -37q0 -23 -14.5 -36t-33.5 -13t-33.5 13t-14.5 36z" />
    <glyph glyph-name="ogonek" unicode="&#x2db;" horiz-adv-x="260" 
d="M194 -117q-10 -10 -21.5 -15t-28.5 -5q-19 0 -29 10t-10 31q0 17 10 34t29 33t45 29l-41 25q-35 -18 -66 -39.5t-50.5 -47.5t-19.5 -58q0 -31 15 -54t41.5 -34.5t61.5 -11.5q39 0 62.5 12.5t34.5 27.5z" />
    <glyph glyph-name="tilde" unicode="&#x2dc;" horiz-adv-x="530" 
d="M83 634l66 -55q0 8 3.5 20t14 21.5t30.5 9.5q24 0 43.5 -12.5t41 -25.5t48.5 -13q30 0 55.5 12.5t44 32t26.5 37.5l-63 64q-15 -24 -30 -37.5t-33 -13.5q-21 0 -35 7.5t-27 17.5t-29.5 17.5t-40.5 7.5q-29 0 -53.5 -12.5t-40.5 -32.5t-21 -45z" />
    <glyph glyph-name="hungarumlaut" unicode="&#x2dd;" horiz-adv-x="0" 
d="M80 519l141 186l-110 26l-111 -189zM259 519l143 186l-112 26l-110 -189z" />
    <glyph glyph-name="gravecomb" unicode="&#x300;" horiz-adv-x="0" 
d="M180 539l73 38l-150 160l-103 -48z" />
    <glyph glyph-name="acutecomb" unicode="&#x301;" horiz-adv-x="0" 
d="M88 541l180 150l-103 48l-150 -160z" />
    <glyph glyph-name="uni0302" unicode="&#x302;" horiz-adv-x="0" 
d="M59 549l124 103h-36l124 -103l59 73l-165 125l-165 -125z" />
    <glyph glyph-name="tildecomb" unicode="&#x303;" horiz-adv-x="0" 
d="M66 579q0 11 5.5 23t17 20t29.5 8q23 0 40.5 -12.5t37 -25.5t47.5 -13q27 0 54 12.5t47.5 32t28.5 37.5l-63 64q-16 -24 -32 -37.5t-35 -13.5q-20 0 -32.5 7.5t-24 17.5t-27 17.5t-40.5 7.5q-27 0 -52.5 -12.5t-43.5 -32.5t-23 -45z" />
    <glyph glyph-name="uni0304" unicode="&#x304;" horiz-adv-x="0" 
d="M0 576h365v99h-365v-99z" />
    <glyph glyph-name="uni0306" unicode="&#x306;" horiz-adv-x="0" 
d="M162 544q48 0 85 18.5t57.5 51t20.5 75.5h-102q0 -19 -8 -33.5t-21.5 -23t-31.5 -8.5q-17 0 -30.5 8.5t-21.5 23t-8 33.5h-102q0 -43 20.5 -75.5t57 -51t84.5 -18.5z" />
    <glyph glyph-name="uni0307" unicode="&#x307;" horiz-adv-x="0" 
d="M78 544q33 0 55 21.5t22 51.5q0 31 -22 52.5t-55 21.5t-55.5 -21.5t-22.5 -52.5q0 -30 22.5 -51.5t55.5 -21.5z" />
    <glyph glyph-name="uni0308" unicode="&#x308;" horiz-adv-x="0" 
d="M78 567q35 0 56 20.5t21 53.5t-21 53t-56 20q-36 0 -57 -20t-21 -53t21 -53.5t57 -20.5zM308 567q35 0 56 20.5t21 53.5t-21 53t-56 20q-36 0 -57 -20t-21 -53t21 -53.5t57 -20.5z" />
    <glyph glyph-name="uni030A" unicode="&#x30a;" horiz-adv-x="0" 
d="M123 520q35 0 63.5 15.5t45 42t16.5 58.5q0 34 -16.5 60t-45 41.5t-63.5 15.5q-52 0 -87.5 -33.5t-35.5 -83.5q0 -49 35.5 -82.5t87.5 -33.5zM123 584q-21 0 -35.5 15t-14.5 37q0 23 14.5 38t35.5 15q22 0 36.5 -15t14.5 -38q0 -21 -14.5 -36.5t-36.5 -15.5z" />
    <glyph glyph-name="uni030B" unicode="&#x30b;" horiz-adv-x="0" 
d="M80 519l141 186l-110 26l-111 -189zM259 519l143 186l-112 26l-110 -189z" />
    <glyph glyph-name="uni030C" unicode="&#x30c;" horiz-adv-x="0" 
d="M165 549l165 126l-59 72l-124 -103h36l-124 103l-59 -72z" />
    <glyph glyph-name="uni0312" unicode="&#x312;" horiz-adv-x="0" 
d="M129 498l88 259l-96 23l-121 -250z" />
    <glyph glyph-name="uni0326" unicode="&#x326;" horiz-adv-x="0" 
d="M69 -211l118 153l-92 39l-95 -164z" />
    <glyph glyph-name="uni0327" unicode="&#x327;" horiz-adv-x="0" 
d="M114 -217q50 0 82 29t32 72q0 32 -21 56.5t-53 24.5q-23 0 -41 -5t-33 -13l44 -9l66 128l-78 2l-72 -153q14 2 30.5 2h28.5q25 0 36 -7.5t11 -23.5q0 -17 -11 -27t-32 -10q-20 0 -38.5 4.5t-37.5 14.5l-27 -57q24 -14 53.5 -21t60.5 -7z" />
    <glyph glyph-name="uni0328" unicode="&#x328;" horiz-adv-x="0" 
d="M119 -220q38 0 61.5 12.5t34.5 27.5l-33 63q-10 -10 -21.5 -15t-28.5 -5q-19 0 -29 10t-10 31q0 17 10.5 34t29 33t44.5 29l-41 25q-35 -18 -66 -39.5t-50.5 -47.5t-19.5 -58q0 -31 15 -54t41.5 -34.5t62.5 -11.5z" />
    <glyph glyph-name="uni0394" unicode="&#x394;" horiz-adv-x="600" 
d="M18 0l282 800l281 -800h-563zM171 103h257l-128 414z" />
    <glyph glyph-name="uni03A9" unicode="&#x3a9;" horiz-adv-x="600" 
d="M66 0v111l87 -9q-28 33 -46.5 68.5t-28 72t-9.5 74.5q0 69 30.5 123.5t82.5 86.5t118 32t118 -32t82 -86.5t30 -123.5q0 -38 -9 -74.5t-28 -72t-47 -68.5l87 9v-111h-203v96q25 20 44.5 51t30 66.5t10.5 70.5q0 42 -14 72t-39.5 46.5t-61.5 16.5t-62 -16.5t-40 -46.5
t-14 -72q0 -34 11 -70t30.5 -67t44.5 -51v-96h-204z" />
    <glyph glyph-name="uni03BC" unicode="&#x3bc;" horiz-adv-x="556" 
d="M198 460h-134v-780h125v333q19 -11 35.5 -15t34.5 -4q34 0 61.5 17t45.5 45v-56h129v460h-129v-263q0 -29 -11.5 -50t-32 -32.5t-48.5 -11.5q-40 0 -58 24t-18 70v263z" />
    <glyph glyph-name="pi" unicode="&#x3c0;" horiz-adv-x="583" 
d="M90 430v-430h123v430h-123zM30 460v-109h513v109h-513zM340 430v-309q0 -58 20.5 -86t59.5 -36t96 -8v106q-15 0 -27 3.5t-19 18.5t-7 48v263h-123z" />
    <glyph glyph-name="uni0400" unicode="&#x400;" horiz-adv-x="586" 
d="M168 0h353v121h-353v-121zM168 579h353v121h-353v-121zM168 312h333v119h-333v-119zM76 700v-700h138v700h-138zM118 924l180 -150l73 39l-150 160z" />
    <glyph glyph-name="uni0401" unicode="&#x401;" horiz-adv-x="586" 
d="M168 0h353v121h-353v-121zM168 579h353v121h-353v-121zM168 312h333v119h-333v-119zM76 700v-700h138v700h-138zM336 848q0 -32 23 -53t54 -21q33 0 55.5 21t22.5 53t-22.5 52.5t-55.5 20.5q-31 0 -54 -20.5t-23 -52.5zM106 848q0 -32 23 -53t54 -21q33 0 55.5 21
t22.5 53t-22.5 52.5t-55.5 20.5q-31 0 -54 -20.5t-23 -52.5z" />
    <glyph glyph-name="uni0403" unicode="&#x403;" horiz-adv-x="484" 
d="M80 700v-700h143v571h251v129h-394zM457 924l-102 49l-150 -160l72 -39z" />
    <glyph glyph-name="uni040C" unicode="&#x40c;" horiz-adv-x="658" 
d="M76 700v-700h147v700h-147zM472 700l-291 -332l302 -368h174l-305 372l290 328h-170zM539 924l-103 49l-150 -160l73 -39z" />
    <glyph glyph-name="uni040D" unicode="&#x40d;" horiz-adv-x="788" 
d="M707 549l5 186l-631 -584l-5 -186zM214 700h-138v-735l138 149v586zM712 735l-138 -153v-582h138v735zM251 904l180 -150l73 38l-150 160z" />
    <glyph glyph-name="uni040E" unicode="&#x40e;" horiz-adv-x="593" 
d="M599 700h-146l-194 -431l67 -3l-174 434h-158l225 -489l-93 -211h144zM136 919q0 -39 18.5 -72t55 -53t88.5 -20q53 0 89 20t54.5 53t18.5 72h-90q0 -16 -8 -31t-24 -24.5t-40 -9.5t-40 9.5t-24 24.5t-8 31h-90z" />
    <glyph glyph-name="uni0410" unicode="&#x410;" horiz-adv-x="711" 
d="M173 159h370l-17 113h-336zM356 473l105 -243l-2 -36l90 -194h162l-355 741l-355 -741h161l92 200l-3 32z" />
    <glyph glyph-name="uni0411" unicode="&#x411;" horiz-adv-x="634" 
d="M127 312h203q36 0 63 -10.5t41.5 -31.5t14.5 -54q0 -32 -14.5 -53t-41.5 -31.5t-63 -10.5h-203v-121h229q68 0 121.5 27t85 76t31.5 113q0 65 -31.5 113.5t-85 75t-121.5 26.5h-229v-119zM80 700v-700h145v579h316v121h-461z" />
    <glyph glyph-name="uni0412" unicode="&#x412;" horiz-adv-x="631" 
d="M183 355h126q70 0 123 19.5t83 57.5t30 91q0 60 -30 99t-83 58.5t-123 19.5h-233v-700h248q78 0 137 21t91.5 65t32.5 113q0 52 -21.5 89t-58.5 60.5t-83.5 34.5t-97.5 11h-141v-78h128q27 0 50 -5.5t40.5 -18t27 -31t9.5 -44.5q0 -36 -16.5 -59t-45.5 -33.5t-65 -10.5
h-92v472h77q47 0 74.5 -21t27.5 -61q0 -26 -12.5 -45t-35.5 -29t-54 -10h-113v-65z" />
    <glyph glyph-name="uni0413" unicode="&#x413;" horiz-adv-x="484" 
d="M80 700v-700h143v571h251v129h-394z" />
    <glyph glyph-name="uni0414" unicode="&#x414;" horiz-adv-x="855" 
d="M425 465l161 -435h163l-324 705l-324 -705h163zM671 0v-110h139v235h-770v-235h139v110h492z" />
    <glyph glyph-name="uni0415" unicode="&#x415;" horiz-adv-x="586" 
d="M168 0h353v121h-353v-121zM168 579h353v121h-353v-121zM168 312h333v119h-333v-119zM76 700v-700h138v700h-138z" />
    <glyph glyph-name="uni0416" unicode="&#x416;" horiz-adv-x="1026" 
d="M185 700h-169l294 -328l-309 -372h169l307 370zM442 700v-700h147v700h-147zM836 700l-282 -330l297 -370h174l-309 372l294 328h-174z" />
    <glyph glyph-name="uni0417" unicode="&#x417;" horiz-adv-x="649" 
d="M298 341q63 0 117 12t94 35t63 56.5t23 76.5q0 53 -30 96t-86.5 69t-139.5 26q-81 0 -139 -27t-88.5 -73.5t-30.5 -106.5h133q0 26 15.5 46.5t43.5 32t66 11.5q37 0 62.5 -11t38 -30.5t12.5 -45.5q0 -27 -17.5 -49.5t-51.5 -35.5t-85 -13v-69zM341 -14q89 0 150.5 25.5
t92.5 71.5t31 106q0 71 -41.5 114.5t-113 64t-162.5 20.5v-76q57 0 96 -13t58.5 -37.5t19.5 -57.5q0 -49 -35 -74.5t-100 -25.5q-43 0 -74.5 12.5t-49.5 36.5t-20 58h-142q0 -45 18 -85.5t53.5 -72t90 -49.5t128.5 -18z" />
    <glyph glyph-name="uni0418" unicode="&#x418;" horiz-adv-x="788" 
d="M707 549l5 186l-631 -584l-5 -186zM214 700h-138v-735l138 149v586zM712 735l-138 -153v-582h138v735z" />
    <glyph glyph-name="uni0419" unicode="&#x419;" horiz-adv-x="788" 
d="M707 549l5 186l-631 -584l-5 -186zM214 700h-138v-735l138 149v586zM712 735l-138 -153v-582h138v735zM257 914q0 -39 18.5 -72t55 -53t88.5 -20q53 0 89 20t55 53t19 72h-91q0 -16 -7.5 -31t-23.5 -24.5t-41 -9.5q-24 0 -40 9.5t-24 24.5t-8 31h-90z" />
    <glyph glyph-name="uni041A" unicode="&#x41a;" horiz-adv-x="658" 
d="M76 700v-700h147v700h-147zM472 700l-291 -332l302 -368h174l-305 372l290 328h-170z" />
    <glyph glyph-name="uni041B" unicode="&#x41b;" horiz-adv-x="735" 
d="M655 700h-543v-422q0 -35 -7 -64t-20 -50t-32 -32t-43 -11v-121q85 0 139 33t79.5 95.5t25.5 150.5v292h256v-571h145v700z" />
    <glyph glyph-name="uni041C" unicode="&#x41c;" horiz-adv-x="866" 
d="M230 393l203 -328l203 328l45 -393h149l-104 735l-293 -452l-293 452l-104 -735h149z" />
    <glyph glyph-name="uni041D" unicode="&#x41d;" horiz-adv-x="764" 
d="M123 308h514v129h-514v-129zM546 700v-700h143v700h-143zM76 700v-700h143v700h-143z" />
    <glyph glyph-name="uni041E" unicode="&#x41e;" horiz-adv-x="811" 
d="M187 350q0 67 28 119t77 82t114 30q66 0 115 -30t76 -82t27 -119t-27.5 -119t-76.5 -82t-114 -30t-114 30t-77 82t-28 119zM36 350q0 -79 27 -146.5t77 -117.5t117.5 -77.5t148.5 -27.5t148.5 27.5t117 77.5t77 117.5t27.5 146.5q0 80 -27.5 146.5t-78 115.5t-117.5 75.5
t-147 26.5q-79 0 -146.5 -26.5t-117.5 -75.5t-78 -115.5t-28 -146.5z" />
    <glyph glyph-name="uni041F" unicode="&#x41f;" horiz-adv-x="754" 
d="M529 571v-571h145v700h-594v-700h145v571h304z" />
    <glyph glyph-name="uni0420" unicode="&#x420;" horiz-adv-x="599" 
d="M76 700v-700h143v700h-143zM163 579h139q57 0 90 -25.5t33 -76.5q0 -50 -33 -76t-90 -26h-139v-121h139q83 0 141.5 27t89.5 77.5t31 118.5q0 69 -31 119t-89.5 77t-141.5 27h-139v-121z" />
    <glyph glyph-name="uni0421" unicode="&#x421;" horiz-adv-x="696" 
d="M191 350q0 70 31.5 121t82.5 78.5t111 27.5q50 0 89 -13t70.5 -35t54.5 -48v161q-43 34 -93.5 53t-127.5 19q-80 0 -148.5 -26t-119 -75t-78 -115.5t-27.5 -147.5t27.5 -147.5t78 -115.5t119 -75t148.5 -26q77 0 127.5 19t93.5 53v161q-23 -26 -54.5 -48t-70.5 -35
t-89 -13q-60 0 -111 27.5t-82.5 79t-31.5 120.5z" />
    <glyph glyph-name="uni0422" unicode="&#x422;" horiz-adv-x="531" 
d="M6 571h188v-571h143v571h189v129h-520v-129z" />
    <glyph glyph-name="uni0423" unicode="&#x423;" horiz-adv-x="601" 
d="M608 700h-151l-194 -431l67 -3l-174 434h-162l229 -489l-93 -211h149z" />
    <glyph glyph-name="uni0424" unicode="&#x424;" horiz-adv-x="886" 
d="M370 700v-700h145v700h-145zM701 350q0 -50 -25 -82t-70 -46t-106 -14h-114q-61 0 -106 14t-70 46t-25 82q0 51 25 82.5t70 45.5t106 14h114q61 0 106 -14t70 -45.5t25 -82.5zM846 350q0 85 -42.5 145t-116 92.5t-165.5 32.5h-158q-92 0 -165.5 -32.5t-116 -92.5
t-42.5 -145q0 -84 42.5 -144.5t116 -93t165.5 -32.5h158q92 0 165.5 32.5t116 93t42.5 144.5z" />
    <glyph glyph-name="uni0425" unicode="&#x425;" horiz-adv-x="645" 
d="M449 700l-123 -220l-120 220h-175l211 -339l-236 -361h175l144 251l139 -251h175l-230 361l215 339h-175z" />
    <glyph glyph-name="uni0426" unicode="&#x426;" horiz-adv-x="829" 
d="M221 129v571h-145v-700h582v-127h135v256h-102v571h-145v-571h-325z" />
    <glyph glyph-name="uni0427" unicode="&#x427;" horiz-adv-x="686" 
d="M303 239h217v127h-183zM459 700v-700h147v700h-147zM218 700h-142v-216q0 -67 26 -123t77 -89t124 -33l34 127q-36 0 -63 16t-41.5 46t-14.5 71v201z" />
    <glyph glyph-name="uni0428" unicode="&#x428;" horiz-adv-x="1051" 
d="M829 129h-234v571h-139v-571h-233v571h-143v-700h891v700h-142v-571z" />
    <glyph glyph-name="uni0429" unicode="&#x429;" horiz-adv-x="1114" 
d="M829 129h-234v571h-139v-571h-233v571h-143v-700h859v-127h135v256h-103v571h-142v-571z" />
    <glyph glyph-name="uni042A" unicode="&#x42a;" horiz-adv-x="712" 
d="M276 325h138q38 0 65.5 -11.5t42.5 -34.5t15 -56t-15 -56t-42.5 -34.5t-65.5 -11.5h-138v-121h138q83 0 141.5 27t89.5 77.5t31 118.5q0 69 -31 119t-89.5 77t-141.5 27h-138v-121zM190 571v-571h143v700h-323v-129h180z" />
    <glyph glyph-name="uni042B" unicode="&#x42b;" horiz-adv-x="864" 
d="M643 700v-700h145v700h-145zM76 700v-700h143v700h-143zM163 325h139q38 0 65.5 -11.5t42.5 -34.5t15 -56t-15 -56t-42.5 -34.5t-65.5 -11.5h-139v-121h139q83 0 141.5 27t89.5 77.5t31 118.5q0 69 -31 119t-89.5 77t-141.5 27h-139v-121z" />
    <glyph glyph-name="uni042C" unicode="&#x42c;" horiz-adv-x="599" 
d="M76 700v-700h143v700h-143zM163 325h139q38 0 65.5 -11.5t42.5 -34.5t15 -56t-15 -56t-42.5 -34.5t-65.5 -11.5h-139v-121h139q83 0 141.5 27t89.5 77.5t31 118.5q0 69 -31 119t-89.5 77t-141.5 27h-139v-121z" />
    <glyph glyph-name="uni042D" unicode="&#x42d;" horiz-adv-x="696" 
d="M135 291h389v118h-389v-118zM518 350q0 -69 -34.5 -121t-89 -81t-114.5 -29q-49 0 -90 12.5t-72 32.5t-52 42v-148q42 -34 93 -53t127 -19q82 0 150 26t118 75t78 115.5t28 147.5t-28 147.5t-78 115.5t-118 75t-150 26q-76 0 -127 -19t-93 -53v-148q21 22 52 42t72 32.5
t90 12.5q60 0 114.5 -28.5t89 -80.5t34.5 -122z" />
    <glyph glyph-name="uni042E" unicode="&#x42e;" horiz-adv-x="1107" 
d="M123 308h301v129h-301v-129zM76 700v-700h143v700h-143zM483 350q0 67 27.5 119t77 82t113.5 30q67 0 115.5 -30t76 -82t27.5 -119t-28 -119t-77 -82t-114 -30q-64 0 -113.5 30t-77 82t-27.5 119zM331 350q0 -79 27.5 -146.5t77.5 -117.5t117.5 -77.5t147.5 -27.5
q81 0 148.5 27.5t117.5 77.5t77 117.5t27 146.5q0 80 -27.5 146.5t-77.5 115.5t-117.5 75.5t-147.5 26.5q-78 0 -145.5 -26.5t-118 -75.5t-78.5 -115.5t-28 -146.5z" />
    <glyph glyph-name="uni042F" unicode="&#x42f;" horiz-adv-x="620" 
d="M385 326h-151l-228 -326h169zM544 700h-143v-700h143v700zM457 578v122h-148q-82 0 -140.5 -28t-89.5 -78t-31 -117q0 -66 31 -116.5t89.5 -78.5t140.5 -28h148v114h-139q-37 0 -65 12.5t-43 36t-15 56.5t15 56.5t43 36t65 12.5h139z" />
    <glyph glyph-name="uni0430" unicode="&#x430;" horiz-adv-x="526" 
d="M156 137q0 21 10.5 36t31.5 24t51 9q41 0 71 -10t58 -31v63q-9 11 -31 23t-54 21t-69 9q-60 0 -104.5 -18t-69 -51.5t-24.5 -80.5q0 -46 21.5 -77.5t58.5 -47.5t84 -16q48 0 86.5 16.5t61.5 48t23 75.5l-16 54q0 -38 -15 -61t-41 -33t-57 -10q-21 0 -38.5 6.5t-27.5 19
t-10 31.5zM115 329q11 7 32.5 17t50 17.5t61.5 7.5q38 0 62 -17.5t24 -48.5v-305h125v326q0 47 -26 79.5t-71.5 49.5t-105.5 17q-62 0 -113 -17.5t-86 -36.5z" />
    <glyph glyph-name="uni0431" unicode="&#x431;" horiz-adv-x="589" 
d="M299 361q34 0 62 -16t44 -46t16 -69t-16 -68.5t-44 -46t-62 -16.5q-35 0 -63 16.5t-44.5 46t-16.5 68.5l-140 60q0 -99 34.5 -166t94 -100.5t135.5 -33.5t133.5 31t89.5 85.5t32 123.5q0 70 -32 124t-87 85t-128 31zM118 230h57q0 32 11 56t29 41t40 25.5t44 8.5l8 109
q-43 0 -77.5 -16.5t-60 -47.5t-38.5 -75.5t-13 -100.5zM35 290l130 -57l-17 107q0 50 13.5 96t48 83t95.5 59q55 20 98.5 50t70.5 69t32 83h-125q-7 -36 -42.5 -64.5t-103.5 -55.5q-79 -30 -122.5 -81t-60.5 -123t-17 -166z" />
    <glyph glyph-name="uni0432" unicode="&#x432;" horiz-adv-x="502" 
d="M150 240v-51h133q18 0 30.5 -3.5t20 -11t11.5 -16t4 -19.5q0 -20 -15.5 -36t-50.5 -16h-133v-87h174q79 0 113.5 36.5t34.5 88.5q0 45 -22 70t-60 35t-86 10h-154zM150 220h144q43 0 78.5 12.5t57.5 38t22 64.5q0 45 -22 72.5t-57.5 40t-78.5 12.5h-144v-87h123
q26 0 41 -14t15 -34q0 -10 -4 -19t-11 -16t-17.5 -10.5t-23.5 -3.5h-123v-56zM75 460v-460h125v460h-125z" />
    <glyph glyph-name="uni0433" unicode="&#x433;" horiz-adv-x="349" 
d="M67 460v-460h127v351h152v109h-279z" />
    <glyph glyph-name="uni0434" unicode="&#x434;" horiz-adv-x="689" 
d="M342 292l118 -262l129 21l-247 444l-246 -444l128 -21zM521 0v-90h123v195h-604v-195h128v90h353z" />
    <glyph glyph-name="uni0435" unicode="&#x435;" horiz-adv-x="557" 
d="M107 201h412q2 11 2 20v15q0 73 -28 125t-81.5 80.5t-129.5 28.5q-69 0 -121 -24t-83 -67t-41 -100q-2 -12 -3 -24t-1 -25q0 -69 29.5 -123.5t85.5 -85.5t133 -31q64 0 108.5 16t75.5 45.5t54 68.5l-113 35q-12 -20 -30 -35t-41 -23t-53 -8q-34 0 -61 14.5t-42.5 46
t-15.5 80.5l2 26q0 38 15 66t41 42.5t59 14.5q32 0 53 -12t33 -34t16 -52h-275v-80z" />
    <glyph glyph-name="uni0436" unicode="&#x436;" horiz-adv-x="816" 
d="M645 460l-200 -190l220 -270h151l-221 264l201 196h-151zM469 460h-122v-460h122v460zM171 460h-151l201 -196l-221 -264h151l220 270z" />
    <glyph glyph-name="uni0437" unicode="&#x437;" horiz-adv-x="516" 
d="M262 230q94 -3 141.5 28.5t47.5 81.5q0 37 -23.5 66.5t-64 46.5t-92.5 17q-56 0 -98 -20t-65.5 -55.5t-23.5 -81.5h120q0 16 8 29.5t23 21.5t37 8q26 0 42 -12.5t16 -34.5q0 -20 -16 -34t-52 -14v-47zM269 -10q57 0 103 17.5t72.5 50t26.5 77.5q0 62 -55.5 95t-153.5 30
v-55q28 0 47.5 -7t29.5 -20.5t10 -32.5q0 -18 -10 -31.5t-28 -20.5t-43 -7q-36 0 -56.5 18.5t-27.5 49.5h-124q8 -74 62 -119t147 -45z" />
    <glyph glyph-name="uni0438" unicode="&#x438;" horiz-adv-x="577" 
d="M505 346l5 149l-438 -381l-5 -149zM192 460h-125v-495l125 131v364zM510 495l-125 -131v-364h125v495z" />
    <glyph glyph-name="uni0439" unicode="&#x439;" horiz-adv-x="577" 
d="M505 346l5 149l-438 -381l-5 -149zM192 460h-125v-495l125 131v364zM510 495l-125 -131v-364h125v495zM132 695q0 -38 18.5 -71.5t55 -53t88.5 -19.5q53 0 89 19.5t55 53t19 71.5h-91q0 -16 -7.5 -30.5t-23.5 -24t-41 -9.5q-24 0 -40 9.5t-24 24t-8 30.5h-90z" />
    <glyph glyph-name="uni043A" unicode="&#x43a;" horiz-adv-x="534" 
d="M61 460v-460h125v460h-125zM355 460l-198 -190l219 -270h154l-218 270l198 190h-155z" />
    <glyph glyph-name="uni043B" unicode="&#x43b;" horiz-adv-x="603" 
d="M523 460h-440v-274q0 -43 -21.5 -56.5t-51.5 -13.5v-116q73 0 116.5 17.5t62.5 53t19 89.5v182h190v-342h125v460z" />
    <glyph glyph-name="uni043C" unicode="&#x43c;" horiz-adv-x="641" 
d="M503 0h133l-133 495l-66 -164zM289 112l30 -143l194 336l-10 190zM319 -31l30 143l-211 383l-10 -190zM5 0h133l66 331l-66 164z" />
    <glyph glyph-name="uni043D" unicode="&#x43d;" horiz-adv-x="599" 
d="M111 192h362v101h-362v-101zM410 460v-460h125v460h-125zM64 460v-460h125v460h-125z" />
    <glyph glyph-name="uni043E" unicode="&#x43e;" horiz-adv-x="576" 
d="M33 230q0 -71 33.5 -125.5t91 -84.5t130.5 -30t130.5 30t91 84.5t33.5 125.5q0 72 -33.5 126t-91 84t-130.5 30t-130.5 -30t-91 -84t-33.5 -126zM165 230q0 39 16.5 69t44.5 46t62 16t62 -16t44.5 -46t16.5 -69t-16.5 -68.5t-44.5 -46t-62 -16.5t-62 16.5t-44.5 46
t-16.5 68.5z" />
    <glyph glyph-name="uni043F" unicode="&#x43f;" horiz-adv-x="559" 
d="M495 460h-431v-460h125v346h181v-346h125v460z" />
    <glyph glyph-name="uni0440" unicode="&#x440;" 
d="M191 -220v680h-130v-680h130zM569 230q0 79 -31 133.5t-81.5 82.5t-108.5 28q-59 0 -102.5 -30t-67 -84.5t-23.5 -129.5q0 -74 23.5 -129t67 -85t102.5 -30q58 0 108.5 28t81.5 83t31 133zM435 230q0 -41 -17 -70t-45.5 -44t-62.5 -15q-29 0 -56.5 14.5t-45 43.5
t-17.5 71t17.5 71t45 43.5t56.5 14.5q34 0 62.5 -15t45.5 -44t17 -70z" />
    <glyph glyph-name="uni0441" unicode="&#x441;" horiz-adv-x="489" 
d="M162 230q0 39 18 69t48.5 47.5t67.5 17.5q28 0 56 -9t51.5 -25.5t35.5 -38.5v133q-24 21 -62.5 33.5t-89.5 12.5q-73 0 -131.5 -30t-92 -84t-33.5 -126q0 -71 33.5 -125.5t92 -84.5t131.5 -30q51 0 89.5 12.5t62.5 34.5v133q-12 -22 -34.5 -38.5t-50.5 -26t-58 -9.5
q-37 0 -67.5 17t-48.5 47t-18 70z" />
    <glyph glyph-name="uni0442" unicode="&#x442;" horiz-adv-x="316" 
d="M5 460v-109h306v109h-306zM96 440v-440h125v440h-125z" />
    <glyph glyph-name="uni0443" unicode="&#x443;" horiz-adv-x="496" 
d="M502 460h-135l-145 -364l64 -2l-148 366h-144l191 -414l-116 -266h133z" />
    <glyph glyph-name="uni0444" unicode="&#x444;" horiz-adv-x="642" 
d="M259 560v-660h123v660h-123zM33 230q0 -71 34.5 -125.5t99.5 -84.5t154 -30t154 30t99.5 84.5t34.5 125.5q0 72 -34.5 126t-99.5 84t-154 30t-154 -30t-99.5 -84t-34.5 -126zM152 230q0 39 18.5 69t56 46t94.5 16t94 -16t55.5 -46t18.5 -69t-18.5 -68.5t-55.5 -46
t-94 -16.5t-94.5 16.5t-56 46t-18.5 68.5z" />
    <glyph glyph-name="uni0445" unicode="&#x445;" horiz-adv-x="497" 
d="M344 460l-94 -133l-92 133h-148l172 -223l-182 -237h148l102 146l104 -146h143l-180 237l170 223h-143z" />
    <glyph glyph-name="uni0446" unicode="&#x446;" horiz-adv-x="604" 
d="M499 109v351h-129v-351h-176v351h-130v-460h396v-99h119v208h-80z" />
    <glyph glyph-name="uni0447" unicode="&#x447;" horiz-adv-x="528" 
d="M230 123h157v109h-127zM330 460v-460h129v460h-129zM179 460h-129v-132q0 -67 16 -113t55.5 -69t108.5 -23l30 109q-29 0 -47 9t-26 28t-8 50v141z" />
    <glyph glyph-name="uni0448" unicode="&#x448;" horiz-adv-x="819" 
d="M472 109v351h-125v-351h-158v351h-125v-460h691v460h-125v-351h-158z" />
    <glyph glyph-name="uni0449" unicode="&#x449;" horiz-adv-x="859" 
d="M472 109v351h-125v-351h-158v351h-125v-460h651v-99h119v208h-80v351h-125v-351h-157z" />
    <glyph glyph-name="uni044A" unicode="&#x44a;" 
d="M243 210h124q31 0 47.5 -14.5t16.5 -39.5q0 -17 -7.5 -29t-21.5 -18.5t-35 -6.5h-124v-102h143q48 0 86 18t60 53.5t22 84.5q0 74 -48.5 108.5t-119.5 34.5h-143v-89zM153 351v-351h121v460h-269v-109h148z" />
    <glyph glyph-name="uni044B" unicode="&#x44b;" horiz-adv-x="726" 
d="M533 460v-460h129v460h-129zM64 460v-460h130v460h-130zM161 210h124q31 0 47.5 -14.5t16.5 -39.5q0 -17 -7.5 -29t-21.5 -18.5t-35 -6.5h-124v-102h143q48 0 86 18t60 53.5t22 84.5q0 74 -48.5 108.5t-119.5 34.5h-143v-89z" />
    <glyph glyph-name="uni044C" unicode="&#x44c;" horiz-adv-x="526" 
d="M69 460v-460h129v460h-129zM165 210h124q32 0 48 -14.5t16 -39.5q0 -17 -7.5 -29t-21.5 -18.5t-35 -6.5h-124v-102h143q48 0 86 18t60 53.5t22 84.5q0 74 -48.5 108.5t-119.5 34.5h-143v-89z" />
    <glyph glyph-name="uni044D" unicode="&#x44d;" horiz-adv-x="489" 
d="M120 276v-92h256l40 92h-296zM326 230q0 -47 -17.5 -79.5t-47.5 -50t-68 -17.5q-31 0 -58.5 9.5t-49.5 26t-35 38.5v-120q24 -22 62.5 -34.5t88.5 -12.5q75 0 132.5 30t91.5 84.5t34 125.5q0 72 -34 126t-91.5 84t-132.5 30q-50 0 -88.5 -12.5t-62.5 -33.5v-120
q13 22 35.5 38.5t50.5 25.5t57 9q38 0 68 -18t47.5 -51t17.5 -78z" />
    <glyph glyph-name="uni044E" unicode="&#x44e;" horiz-adv-x="797" 
d="M111 192h239v101h-239v-101zM64 460v-460h125v460h-125zM254 230q0 -71 33.5 -125.5t91.5 -84.5t130 -30q74 0 131.5 30t91 84.5t33.5 125.5q0 72 -33.5 126t-91 84t-131.5 30q-72 0 -130 -30t-91.5 -84t-33.5 -126zM387 230q0 39 16.5 69t44 46t61.5 16q35 0 62.5 -16
t44 -46t16.5 -69t-16.5 -68.5t-44 -46t-62.5 -16.5q-34 0 -61.5 16.5t-44 46t-16.5 68.5z" />
    <glyph glyph-name="uni044F" unicode="&#x44f;" horiz-adv-x="526" 
d="M180 0l140 219h-127l-149 -219h136zM482 0v460h-129v-460h129zM399 263h-128q-23 0 -38 4.5t-23 15t-8 26.5q0 17 8 27t23 15t38 5h128v104h-143q-47 0 -89 -14t-67 -45t-25 -83q0 -51 25 -83.5t67 -48t89 -15.5h143v92z" />
    <glyph glyph-name="uni0450" unicode="&#x450;" horiz-adv-x="557" 
d="M107 201h412q2 11 2 20v15q0 73 -28 125t-81.5 80.5t-129.5 28.5q-69 0 -121 -24t-83 -67t-41 -100q-2 -12 -3 -24t-1 -25q0 -69 29.5 -123.5t85.5 -85.5t133 -31q64 0 108.5 16t75.5 45.5t54 68.5l-113 35q-12 -20 -30 -35t-41 -23t-53 -8q-34 0 -61 14.5t-42.5 46
t-15.5 80.5l2 26q0 38 15 66t41 42.5t59 14.5q32 0 53 -12t33 -34t16 -52h-275v-80zM119 680l180 -150l73 39l-150 160z" />
    <glyph glyph-name="uni0451" unicode="&#x451;" horiz-adv-x="557" 
d="M107 201h412q2 11 2 20v15q0 73 -28 125t-81.5 80.5t-129.5 28.5q-69 0 -121 -24t-83 -67t-41 -100q-2 -12 -3 -24t-1 -25q0 -69 29.5 -123.5t85.5 -85.5t133 -31q64 0 108.5 16t75.5 45.5t54 68.5l-113 35q-12 -20 -30 -35t-41 -23t-53 -8q-34 0 -61 14.5t-42.5 46
t-15.5 80.5l2 26q0 38 15 66t41 42.5t59 14.5q32 0 53 -12t33 -34t16 -52h-275v-80zM320 604q0 -32 22.5 -53t54.5 -21q33 0 55.5 21t22.5 53t-22.5 52.5t-55.5 20.5q-32 0 -54.5 -20.5t-22.5 -52.5zM90 604q0 -32 22.5 -53t54.5 -21q33 0 55.5 21t22.5 53t-22.5 52.5
t-55.5 20.5q-32 0 -54.5 -20.5t-22.5 -52.5z" />
    <glyph glyph-name="uni0453" unicode="&#x453;" horiz-adv-x="349" 
d="M67 460v-460h127v351h152v109h-279zM387 680l-103 49l-150 -160l73 -39z" />
    <glyph glyph-name="uni045C" unicode="&#x45c;" horiz-adv-x="440" 
d="M61 460v-460h125v460h-125zM355 460l-198 -190l219 -270h154l-218 270l198 190h-155zM466 680l-103 49l-150 -160l73 -39z" />
    <glyph glyph-name="uni045D" unicode="&#x45d;" horiz-adv-x="577" 
d="M505 346l5 149l-438 -381l-5 -149zM192 460h-125v-495l125 131v364zM510 495l-125 -131v-364h125v495zM126 705l180 -150l73 39l-150 160z" />
    <glyph glyph-name="uni045E" unicode="&#x45e;" horiz-adv-x="440" 
d="M502 460h-135l-145 -364l64 -2l-148 366h-144l191 -414l-116 -266h133zM86 675q0 -39 18.5 -72t55 -53t88.5 -20q53 0 89 20t54.5 53t18.5 72h-90q0 -16 -8 -31t-24 -24.5t-40 -9.5t-40 9.5t-24 24.5t-8 31h-90z" />
    <glyph glyph-name="Wgrave" unicode="&#x1e80;" horiz-adv-x="1041" 
d="M521 795l73 38l-150 160l-103 -48zM718 265l-197 470l-195 -470l-152 435h-168l294 -739l221 460l220 -460l295 739h-168z" />
    <glyph glyph-name="wgrave" unicode="&#x1e81;" horiz-adv-x="736" 
d="M365 555l73 38l-150 160l-103 -48zM-4 460l226 -491l144 293l148 -293l225 491h-137l-102 -256l-135 291l-130 -290l-101 255h-138z" />
    <glyph glyph-name="Wacute" unicode="&#x1e82;" horiz-adv-x="1041" 
d="M521 795l180 150l-103 48l-150 -160zM718 265l-197 470l-195 -470l-152 435h-168l294 -739l221 460l220 -460l295 739h-168z" />
    <glyph glyph-name="wacute" unicode="&#x1e83;" horiz-adv-x="736" 
d="M365 555l180 150l-103 48l-150 -160zM-4 460l226 -491l144 293l148 -293l225 491h-137l-102 -256l-135 291l-130 -290l-101 255h-138z" />
    <glyph glyph-name="Wdieresis" unicode="&#x1e84;" horiz-adv-x="1041" 
d="M558 869q0 -32 23 -53t55 -21q33 0 55.5 21t22.5 53t-22.5 52.5t-55.5 20.5q-32 0 -55 -20.5t-23 -52.5zM328 869q0 -32 23 -53t55 -21q33 0 55.5 21t22.5 53t-22.5 52.5t-55.5 20.5q-32 0 -55 -20.5t-23 -52.5zM718 265l-197 470l-195 -470l-152 435h-168l294 -739
l221 460l220 -460l295 739h-168z" />
    <glyph glyph-name="wdieresis" unicode="&#x1e85;" horiz-adv-x="736" 
d="M402 629q0 -32 23 -53t55 -21q33 0 55.5 21t22.5 53t-22.5 52.5t-55.5 20.5q-32 0 -55 -20.5t-23 -52.5zM172 629q0 -32 23 -53t55 -21q33 0 55.5 21t22.5 53t-22.5 52.5t-55.5 20.5q-32 0 -55 -20.5t-23 -52.5zM-4 460l226 -491l144 293l148 -293l225 491h-137
l-102 -256l-135 291l-130 -290l-101 255h-138z" />
    <glyph glyph-name="uni1E86" unicode="&#x1e86;" horiz-adv-x="1041" 
d="M443 869q0 -32 23 -53t55 -21t55 21t23 53t-23 52.5t-55 20.5t-55 -20.5t-23 -52.5zM718 265l-197 470l-195 -470l-152 435h-168l294 -739l221 460l220 -460l295 739h-168z" />
    <glyph glyph-name="uni1E87" unicode="&#x1e87;" horiz-adv-x="736" 
d="M287 629q0 -32 23 -53t55 -21t55 21t23 53t-23 52.5t-55 20.5t-55 -20.5t-23 -52.5zM-4 460l226 -491l144 293l148 -293l225 491h-137l-102 -256l-135 291l-130 -290l-101 255h-138z" />
    <glyph glyph-name="uni1E88" unicode="&#x1e88;" horiz-adv-x="1041" 
d="M443 -173q0 -32 23 -53t55 -21t55 21t23 53t-23 52.5t-55 20.5t-55 -20.5t-23 -52.5zM718 265l-197 470l-195 -470l-152 435h-168l294 -739l221 460l220 -460l295 739h-168z" />
    <glyph glyph-name="uni1E89" unicode="&#x1e89;" horiz-adv-x="736" 
d="M290 -164q0 -32 23 -53t55 -21t55 21t23 53t-23 52.5t-55 20.5t-55 -20.5t-23 -52.5zM-4 460l226 -491l144 293l148 -293l225 491h-137l-102 -256l-135 291l-130 -290l-101 255h-138z" />
    <glyph glyph-name="uni1E9E" unicode="&#x1e9e;" horiz-adv-x="784" 
d="M503 -12q-63 0 -119.5 14.5t-102.5 37.5l40 117q40 -21 77.5 -33t77.5 -12q31 0 57.5 7.5t42.5 24t16 42.5q0 29 -16 46t-40 28l-48 22t-40 29t-16 47q0 24 10 40.5t25.5 28.5t30 23t24.5 24.5t10 32.5t-12.5 36.5t-38 28t-65.5 10.5q-58 0 -101 -25t-66 -74.5
t-23 -122.5l1 -362h-147v375q0 82 22.5 145t65.5 107t107.5 66.5t147.5 22.5q85 0 144 -23t89.5 -62t30.5 -88q0 -33 -9.5 -57t-23.5 -41.5t-28.5 -32t-24 -25.5t-9.5 -23q0 -15 15 -25t38 -21t45.5 -27t37.5 -43t15 -70q0 -57 -29 -99t-83 -65.5t-128 -23.5z" />
    <glyph glyph-name="Ygrave" unicode="&#x1ef2;" horiz-adv-x="629" 
d="M315 775l73 38l-150 160l-103 -48zM465 700l-151 -282l-150 282h-163l241 -411v-289h145v290l241 410h-163z" />
    <glyph glyph-name="ygrave" unicode="&#x1ef3;" horiz-adv-x="496" 
d="M248 531l73 38l-150 160l-103 -48zM502 460h-135l-145 -364l64 -2l-148 366h-144l191 -414l-116 -266h133z" />
    <glyph glyph-name="uni2010" unicode="&#x2010;" horiz-adv-x="219" 
d="M5 181h209v113h-209v-113z" />
    <glyph glyph-name="figuredash" unicode="&#x2012;" horiz-adv-x="616" 
d="M70 181h469v113h-469v-113z" />
    <glyph glyph-name="endash" unicode="&#x2013;" horiz-adv-x="770" 
d="M70 181h626v113h-626v-113z" />
    <glyph glyph-name="emdash" unicode="&#x2014;" horiz-adv-x="924" 
d="M70 181h782v113h-782v-113z" />
    <glyph glyph-name="quoteleft" unicode="&#x2018;" horiz-adv-x="314" 
d="M208 453l56 247h-92l-102 -247h138z" />
    <glyph glyph-name="quoteright" unicode="&#x2019;" horiz-adv-x="314" 
d="M106 700l-56 -247h91l103 247h-138z" />
    <glyph glyph-name="quotesinglbase" unicode="&#x201a;" horiz-adv-x="314" 
d="M116 80l-56 -247h91l103 247h-138z" />
    <glyph glyph-name="quotedblleft" unicode="&#x201c;" horiz-adv-x="535" 
d="M208 453l56 247h-92l-102 -247h138zM429 453l56 247h-91l-103 -247h138z" />
    <glyph glyph-name="quotedblright" unicode="&#x201d;" horiz-adv-x="535" 
d="M106 700l-56 -247h91l103 247h-138zM327 700l-56 -247h92l102 247h-138z" />
    <glyph glyph-name="quotedblbase" unicode="&#x201e;" horiz-adv-x="535" 
d="M106 80l-56 -247h91l103 247h-138zM327 80l-56 -247h92l102 247h-138z" />
    <glyph glyph-name="dagger" unicode="&#x2020;" horiz-adv-x="613" 
d="M90 540v-109h433v109h-433zM245 700v-850h123v850h-123z" />
    <glyph glyph-name="daggerdbl" unicode="&#x2021;" horiz-adv-x="613" 
d="M90 146v-110h433v110h-433zM90 540v-109h433v109h-433zM245 700v-850h123v850h-123z" />
    <glyph glyph-name="bullet" unicode="&#x2022;" horiz-adv-x="300" 
d="M76 434q0 -32 23.5 -56t58.5 -24q36 0 59 24t23 56q0 34 -23 57.5t-59 23.5q-35 0 -58.5 -23.5t-23.5 -57.5z" />
    <glyph glyph-name="ellipsis" unicode="&#x2026;" horiz-adv-x="917" 
d="M76 59q0 -32 23.5 -56t58.5 -24q36 0 59 24t23 56q0 34 -23 57.5t-59 23.5q-35 0 -58.5 -23.5t-23.5 -57.5zM376 59q0 -32 23.5 -56t58.5 -24q36 0 59 24t23 56q0 34 -23 57.5t-59 23.5q-35 0 -58.5 -23.5t-23.5 -57.5zM676 59q0 -32 23.5 -56t58.5 -24q36 0 59 24t23 56
q0 34 -23 57.5t-59 23.5q-35 0 -58.5 -23.5t-23.5 -57.5z" />
    <glyph glyph-name="perthousand" unicode="&#x2030;" horiz-adv-x="1298" 
d="M913 161q0 -49 23 -89t64 -64t92 -24q53 0 93 24t63.5 64t23.5 89t-23.5 89.5t-63.5 64t-93 23.5q-51 0 -92 -23.5t-64 -64t-23 -89.5zM1021 161q0 21 9 38t25 27t37 10q22 0 38 -10t25 -27t9 -38q0 -20 -9 -37.5t-25 -27.5t-38 -10q-21 0 -37 10t-25 27.5t-9 37.5z
M26 539q0 -48 23.5 -88.5t64.5 -64.5t92 -24q52 0 92.5 24t63.5 64.5t23 88.5q0 50 -23 90t-63.5 63.5t-92.5 23.5q-51 0 -92 -23.5t-64.5 -63.5t-23.5 -90zM134 539q0 21 9 38t25 27.5t38 10.5t37.5 -10.5t24.5 -27.5t9 -38q0 -20 -9 -37.5t-24.5 -27.5t-37.5 -10t-38 10
t-25 27.5t-9 37.5zM481 161q0 -49 23.5 -89t64.5 -64t92 -24q52 0 92.5 24t63.5 64t23 89t-23 89.5t-63.5 64t-92.5 23.5q-51 0 -92 -23.5t-64.5 -64t-23.5 -89.5zM589 161q0 21 9 38t25 27t38 10t37.5 -10t24.5 -27t9 -38q0 -20 -9 -37.5t-24.5 -27.5t-37.5 -10t-38 10
t-25 27.5t-9 37.5zM623 700l-510 -700h131l510 700h-131z" />
    <glyph glyph-name="uni2031" unicode="&#x2031;" horiz-adv-x="1730" 
d="M1344 161q0 -49 23.5 -89t64 -64t92.5 -24t92.5 24t63.5 64t23 89t-23 89.5t-63.5 64t-92.5 23.5t-92.5 -23.5t-64 -64t-23.5 -89.5zM1452 161q0 21 9 38t25 27t38 10t37.5 -10t24.5 -27t9 -38q0 -20 -9 -37.5t-24.5 -27.5t-37.5 -10t-38 10t-25 27.5t-9 37.5zM913 161
q0 -49 23 -89t64 -64t92 -24q53 0 93 24t63.5 64t23.5 89t-23.5 89.5t-63.5 64t-93 23.5q-51 0 -92 -23.5t-64 -64t-23 -89.5zM1021 161q0 21 9 38t25 27t37 10q22 0 38 -10t25 -27t9 -38q0 -20 -9 -37.5t-25 -27.5t-38 -10q-21 0 -37 10t-25 27.5t-9 37.5zM26 539
q0 -48 23.5 -88.5t64.5 -64.5t92 -24q52 0 92.5 24t63.5 64.5t23 88.5q0 50 -23 90t-63.5 63.5t-92.5 23.5q-51 0 -92 -23.5t-64.5 -63.5t-23.5 -90zM134 539q0 21 9 38t25 27.5t38 10.5t37.5 -10.5t24.5 -27.5t9 -38q0 -20 -9 -37.5t-24.5 -27.5t-37.5 -10t-38 10t-25 27.5
t-9 37.5zM481 161q0 -49 23.5 -89t64.5 -64t92 -24q52 0 92.5 24t63.5 64t23 89t-23 89.5t-63.5 64t-92.5 23.5q-51 0 -92 -23.5t-64.5 -64t-23.5 -89.5zM589 161q0 21 9 38t25 27t38 10t37.5 -10t24.5 -27t9 -38q0 -20 -9 -37.5t-24.5 -27.5t-37.5 -10t-38 10t-25 27.5
t-9 37.5zM623 700l-510 -700h131l510 700h-131z" />
    <glyph glyph-name="guilsinglleft" unicode="&#x2039;" horiz-adv-x="350" 
d="M143 259l150 186l-80 58l-182 -248l182 -248l80 58z" />
    <glyph glyph-name="guilsinglright" unicode="&#x203a;" horiz-adv-x="350" 
d="M207 251l-150 -186l80 -58l182 248l-182 248l-80 -58z" />
    <glyph glyph-name="uni203D" unicode="&#x203d;" horiz-adv-x="605" 
d="M428 487q0 -38 -22.5 -70t-61 -51t-85.5 -19l29 -66q35 0 71 9.5t70 27.5t61.5 44.5t43 61t15.5 76.5q0 50 -20 89.5t-54 67.5t-78 43.5t-92 15.5q-61 0 -110 -17t-85 -45.5t-59 -63.5l91 -71q16 30 38.5 49t51 28t58.5 9q42 0 73 -13.5t48 -39.5t17 -65zM211 506
l25 -315h80l26 315h-131zM197 55q0 -32 24 -54t59 -22q36 0 59.5 22t23.5 54t-23.5 54t-59.5 22q-35 0 -59 -22t-24 -54z" />
    <glyph glyph-name="fraction" unicode="&#x2044;" horiz-adv-x="722" 
d="M580 700l-520 -700h104l520 700h-104z" />
    <glyph glyph-name="uni2070" unicode="&#x2070;" horiz-adv-x="385" 
d="M107 490q0 43 10 75t30 49.5t45 17.5q27 0 46 -17.5t29.5 -49.5t10.5 -75t-10.5 -75t-29.5 -49.5t-46 -17.5q-25 0 -45 17.5t-30 49.5t-10 75zM24 490q0 -66 21.5 -115t59.5 -75.5t87 -26.5q52 0 89.5 26.5t58.5 75.5t21 115q0 67 -21 115.5t-58.5 75t-89.5 26.5
q-49 0 -87 -26.5t-59.5 -75t-21.5 -115.5z" />
    <glyph glyph-name="uni2074" unicode="&#x2074;" horiz-adv-x="414" 
d="M20 358h365v73h-100l-10 -9h-185zM108 378l131 186v-178l-8 -6v-100h88v420h-58l-241 -342z" />
    <glyph glyph-name="uni2075" unicode="&#x2075;" horiz-adv-x="377" 
d="M350 413q0 44 -17.5 75t-46 47.5t-63.5 16.5q-30 0 -57 -9t-50 -34l-58 -48q32 18 60 24t54 6q34 0 60 -17.5t26 -52.5q0 -34 -23 -52.5t-63 -18.5q-26 0 -55 15t-51 38l-40 -67q27 -27 65.5 -46t96.5 -19q41 0 77.5 15t60.5 47t24 80zM178 623h166v75h-229l-57 -237
l87 52z" />
    <glyph glyph-name="uni2076" unicode="&#x2076;" horiz-adv-x="372" 
d="M111 422q0 24 10 42.5t28 28.5t40 10t39.5 -10t28 -28.5t10.5 -42.5q0 -35 -22 -57t-56 -22q-33 0 -55.5 22t-22.5 57zM196 697l-127 -167q-18 -22 -30 -49t-12 -59q0 -48 22 -82.5t58.5 -52.5t81.5 -18t82 18t58.5 52.5t21.5 82.5q0 42 -18.5 72.5t-48 47.5t-61.5 17
q-22 0 -37.5 -5t-30.5 -21l15 5l135 159h-109z" />
    <glyph glyph-name="uni2077" unicode="&#x2077;" horiz-adv-x="371" 
d="M25 620h202l-168 -340h91l203 420h-328v-80z" />
    <glyph glyph-name="uni2078" unicode="&#x2078;" horiz-adv-x="349" 
d="M40 599q0 -36 19 -61t50 -37.5t65 -12.5q35 0 65.5 12.5t49.5 37.5t19 61q0 34 -18.5 58.5t-48.5 38t-67 13.5t-67.5 -13.5t-48.5 -38t-18 -58.5zM121 590q0 25 14.5 39.5t38.5 14.5q23 0 38 -14.5t15 -39.5q0 -16 -7 -28t-19 -19t-27 -7t-27 7t-19 19t-7 28zM25 394
q0 -36 20.5 -64t54.5 -43.5t74 -15.5t74 15.5t54.5 43.5t20.5 64q0 32 -13.5 55t-35.5 38t-48 22.5t-52 7.5t-52.5 -7.5t-48.5 -22.5t-35 -38t-13 -55zM110 406q0 18 9 32.5t23.5 22.5t31.5 8t31.5 -8t23.5 -22.5t9 -32.5q0 -31 -19 -47.5t-45 -16.5t-45 16.5t-19 47.5z" />
    <glyph glyph-name="uni2079" unicode="&#x2079;" horiz-adv-x="370" 
d="M269 558q0 -24 -10 -42.5t-27.5 -28.5t-40.5 -10q-22 0 -39.5 10t-28 28.5t-10.5 42.5q0 36 22.5 57.5t55.5 21.5q34 0 56 -21.5t22 -57.5zM184 283l127 167q18 23 30.5 50t12.5 58q0 49 -22 83t-58.5 52t-82.5 18q-44 0 -81 -18t-59 -52t-22 -83q0 -41 19 -72t48 -48
t61 -17q22 0 37.5 5t30.5 21l-15 -5l-135 -159h109z" />
    <glyph glyph-name="uni2080" unicode="&#x2080;" horiz-adv-x="385" 
d="M107 210q0 43 10 75t30 49.5t45 17.5q27 0 46 -17.5t29.5 -49.5t10.5 -75t-10.5 -75t-29.5 -49.5t-46 -17.5q-25 0 -45 17.5t-30 49.5t-10 75zM24 210q0 -66 21.5 -115t59.5 -75.5t87 -26.5q52 0 89.5 26.5t58.5 75.5t21 115q0 67 -21 115.5t-58.5 75t-89.5 26.5
q-49 0 -87 -26.5t-59.5 -75t-21.5 -115.5z" />
    <glyph glyph-name="uni2081" unicode="&#x2081;" horiz-adv-x="346" 
d="M90 311l101 27v-337h83v427l-184 -39v-78z" />
    <glyph glyph-name="uni2082" unicode="&#x2082;" horiz-adv-x="391" 
d="M27 2h337v79h-175l109 102q26 25 42.5 53t16.5 61q0 32 -16.5 62.5t-49 50.5t-82.5 20q-51 0 -87 -21t-54.5 -57.5t-18.5 -81.5h84q0 39 20.5 62t52.5 23q22 0 35.5 -8.5t20.5 -22t7 -29.5q0 -25 -13.5 -46.5t-37.5 -46.5z" />
    <glyph glyph-name="uni2083" unicode="&#x2083;" horiz-adv-x="353" 
d="M153 204q47 0 84.5 13t59 37.5t21.5 57.5q0 47 -36 81t-102 34q-62 0 -100.5 -35t-38.5 -89h80q0 24 17 39t42 15q27 0 40 -13.5t13 -35.5q0 -17 -10 -31t-28 -22.5t-42 -8.5v-42zM176 -9q71 0 112.5 34.5t41.5 88.5q0 42 -23 68t-63 38.5t-91 12.5v-46q30 0 50.5 -7.5
t31 -22t10.5 -35.5q0 -29 -18.5 -44t-47.5 -15t-50 16.5t-21 46.5h-85q0 -35 18.5 -66t53 -50t81.5 -19z" />
    <glyph glyph-name="uni2084" unicode="&#x2084;" horiz-adv-x="417" 
d="M19 78h365v73h-100l-10 -9h-184zM107 98l131 186v-178l-8 -6v-100h88v420h-58l-241 -342z" />
    <glyph glyph-name="uni2085" unicode="&#x2085;" horiz-adv-x="383" 
d="M352 133q0 44 -17 75t-46 47.5t-64 16.5q-29 0 -56.5 -9t-50.5 -34l-58 -48q32 18 60 24t54 6q34 0 60 -17.5t26 -52.5q0 -34 -22.5 -52.5t-63.5 -18.5q-26 0 -55 15t-51 38l-40 -67q27 -27 65.5 -46t96.5 -19q41 0 77.5 15t60.5 47t24 80zM181 343h165v75h-229l-57 -237
l87 52z" />
    <glyph glyph-name="uni2086" unicode="&#x2086;" horiz-adv-x="379" 
d="M113 142q0 24 10 42.5t28 28.5t40 10t39.5 -10t28 -28.5t10.5 -42.5q0 -35 -22 -57t-56 -22q-33 0 -55.5 22t-22.5 57zM198 417l-127 -167q-18 -22 -30 -49t-12 -59q0 -48 22 -82.5t58.5 -52.5t81.5 -18t82 18t58.5 52.5t21.5 82.5q0 42 -18.5 72.5t-48 47.5t-61.5 17
q-22 0 -37.5 -5t-30.5 -21l15 5l135 159h-109z" />
    <glyph glyph-name="uni2087" unicode="&#x2087;" horiz-adv-x="375" 
d="M28 340h201l-168 -340h92l202 420h-327v-80z" />
    <glyph glyph-name="uni2088" unicode="&#x2088;" horiz-adv-x="354" 
d="M43 319q0 -36 19 -61t50 -37.5t65 -12.5q35 0 65.5 12.5t49.5 37.5t19 61q0 34 -18.5 58.5t-48.5 38t-67 13.5t-67.5 -13.5t-48.5 -38t-18 -58.5zM124 310q0 25 14.5 39.5t38.5 14.5q23 0 38 -14.5t15 -39.5q0 -16 -7 -28t-19 -19t-27 -7t-27 7t-19 19t-7 28zM28 114
q0 -36 20.5 -64t54.5 -43.5t74 -15.5t74 15.5t54.5 43.5t20.5 64q0 32 -13.5 55t-35.5 38t-48 22.5t-52 7.5t-52.5 -7.5t-48.5 -22.5t-35 -38t-13 -55zM113 126q0 18 9 32.5t23.5 22.5t31.5 8t31.5 -8t23.5 -22.5t9 -32.5q0 -31 -19 -47.5t-45 -16.5t-45 16.5t-19 47.5z" />
    <glyph glyph-name="uni2089" unicode="&#x2089;" horiz-adv-x="382" 
d="M265 278q0 -24 -10 -42.5t-27.5 -28.5t-40.5 -10q-22 0 -39.5 10t-28 28.5t-10.5 42.5q0 36 22.5 57.5t55.5 21.5q34 0 56 -21.5t22 -57.5zM180 3l127 167q18 23 30.5 50t12.5 58q0 49 -22 83t-58.5 52t-82.5 18q-44 0 -81 -18t-59 -52t-22 -83q0 -42 18.5 -72.5
t48 -47.5t61.5 -17q22 0 37.5 5t30.5 21l-15 -5l-135 -159h109z" />
    <glyph glyph-name="Euro" unicode="&#x20ac;" horiz-adv-x="631" 
d="M42 389h494v73h-494v-73zM32 262h482v73h-482v-73zM219 350q0 78 23 132.5t64 84t94 29.5q86 0 150 -62v142q-34 20 -71.5 30.5t-78.5 10.5q-70 0 -127 -27.5t-97.5 -77.5t-62.5 -117t-22 -145q0 -105 38.5 -187.5t108 -130.5t162.5 -48q41 0 78.5 11t71.5 30v141
q-64 -62 -150 -62q-53 0 -94 29.5t-64 84.5t-23 132z" />
    <glyph glyph-name="ruble" unicode="&#x20bd;" horiz-adv-x="685" 
d="M150 700v-700h143v700h-143zM235 579h144q43 0 72.5 -8.5t46 -28t16.5 -51.5q0 -33 -16.5 -52t-46 -28t-72.5 -9h-144v-121h144q83 0 143.5 21.5t93.5 68t33 120.5q0 75 -33 121t-93.5 67t-143.5 21h-144v-121zM280 86h209v113h-209v-113zM30 286h209v113h-209v-113z
M30 86h209v113h-209v-113z" />
    <glyph glyph-name="trademark" unicode="&#x2122;" horiz-adv-x="721" 
d="M30 635h95v-285h71v285h95v65h-261v-65zM589 596l29 -246h74l-51 367zM348 717l-52 -367h74l29 246zM641 717l-147 -226l-146 226v-105l146 -230l147 230v105z" />
    <glyph glyph-name="uni2150" unicode="&#x2150;" horiz-adv-x="911" 
d="M594 700l-520 -700h103l520 700h-103zM26 584l100 27v-337h84v427l-184 -39v-78zM559 340h201l-168 -340h92l202 420h-327v-80z" />
    <glyph glyph-name="uni2151" unicode="&#x2151;" horiz-adv-x="853" 
d="M589 700l-520 -700h104l520 700h-104zM26 584l100 27v-337h84v427l-184 -39v-78zM747 278q0 -24 -10 -42.5t-27.5 -28.5t-40.5 -10q-22 0 -39.5 10t-28 28.5t-10.5 42.5q0 36 22.5 57.5t55.5 21.5q34 0 56 -21.5t22 -57.5zM662 3l127 167q18 23 30.5 50t12.5 58
q0 49 -22 83t-58.5 52t-82.5 18q-44 0 -81 -18t-59 -52t-22 -83q0 -42 18.5 -72.5t48 -47.5t61.5 -17q22 0 37.5 5t30.5 21l-15 -5l-135 -159h109z" />
    <glyph glyph-name="uni2152" unicode="&#x2152;" horiz-adv-x="1170" 
d="M589 700l-520 -700h104l520 700h-104zM26 584l100 27v-337h84v427l-184 -39v-78zM531 311l101 27v-337h83v427l-184 -39v-78zM883 210q0 43 10.5 75t30 49.5t45.5 17.5q27 0 46 -17.5t29.5 -49.5t10.5 -75t-10.5 -75t-29.5 -49.5t-46 -17.5q-26 0 -45.5 17.5t-30 49.5
t-10.5 75zM800 210q0 -66 21.5 -115t59.5 -75.5t88 -26.5q51 0 89 26.5t59 75.5t21 115q0 67 -21 115.5t-59 75t-89 26.5q-50 0 -88 -26.5t-59.5 -75t-21.5 -115.5z" />
    <glyph glyph-name="onethird" unicode="&#x2153;" horiz-adv-x="836" 
d="M589 700l-520 -700h104l520 700h-104zM26 584l100 27v-337h84v427l-184 -39v-78zM634 204q47 0 84.5 13t59 37.5t21.5 57.5q0 47 -36 81t-102 34q-62 0 -100.5 -35t-38.5 -89h80q0 24 17 39t42 15q27 0 40 -13.5t13 -35.5q0 -17 -10 -31t-28 -22.5t-42 -8.5v-42zM657 -9
q71 0 112.5 34.5t41.5 88.5q0 42 -23 68t-63 38.5t-91 12.5v-46q29 0 49.5 -7.5t31.5 -22t11 -35.5q0 -29 -18.5 -44t-47.5 -15q-30 0 -50.5 16.5t-20.5 46.5h-85q0 -35 18.5 -66t53 -50t81.5 -19z" />
    <glyph glyph-name="twothirds" unicode="&#x2154;" horiz-adv-x="968" 
d="M729 700l-520 -700h104l520 700h-104zM30 282h337v79h-175l109 102q26 25 42.5 53t16.5 61q0 32 -16.5 62.5t-49 50.5t-83.5 20q-50 0 -86 -21t-55 -57.5t-19 -81.5h85q0 39 20.5 62t52.5 23q22 0 35.5 -8.5t20.5 -22t7 -29.5q0 -25 -13.5 -46.5t-37.5 -46.5zM765 204
q48 0 85 13t58.5 37.5t21.5 57.5q0 47 -36 81t-101 34q-63 0 -101.5 -35t-38.5 -89h80q0 24 17 39t42 15q27 0 40 -13.5t13 -35.5q0 -17 -10 -31t-27.5 -22.5t-42.5 -8.5v-42zM788 -9q71 0 112.5 34.5t41.5 88.5q0 42 -23 68t-63 38.5t-91 12.5v-46q30 0 50.5 -7.5t31 -22
t10.5 -35.5q0 -29 -18.5 -44t-47.5 -15t-50 16.5t-21 46.5h-85q0 -35 18.5 -66t53 -50t81.5 -19z" />
    <glyph glyph-name="uni2155" unicode="&#x2155;" horiz-adv-x="825" 
d="M589 700l-520 -700h104l520 700h-104zM26 584l100 27v-337h84v427l-184 -39v-78zM800 133q0 44 -17 75t-46 47.5t-64 16.5q-29 0 -56.5 -9t-50.5 -34l-58 -48q32 18 60 24t54 6q34 0 60 -17.5t26 -52.5q0 -34 -22.5 -52.5t-63.5 -18.5q-26 0 -55 15t-51 38l-40 -67
q27 -27 65.5 -46t96.5 -19q41 0 77.5 15t60.5 47t24 80zM629 343h165v75h-229l-57 -237l87 52z" />
    <glyph glyph-name="uni2156" unicode="&#x2156;" horiz-adv-x="963" 
d="M729 700l-520 -700h104l520 700h-104zM30 282h337v79h-175l109 102q26 25 42.5 53t16.5 61q0 32 -16.5 62.5t-49 50.5t-83.5 20q-50 0 -86 -21t-55 -57.5t-19 -81.5h85q0 39 20.5 62t52.5 23q22 0 35.5 -8.5t20.5 -22t7 -29.5q0 -25 -13.5 -46.5t-37.5 -46.5zM931 133
q0 44 -17 75t-46 47.5t-63 16.5q-30 0 -57.5 -9t-50.5 -34l-58 -48q32 18 60 24t55 6q34 0 59.5 -17.5t25.5 -52.5q0 -34 -22.5 -52.5t-62.5 -18.5q-27 0 -56 15t-50 38l-41 -67q27 -27 65.5 -46t96.5 -19q41 0 78 15t60.5 47t23.5 80zM760 343h165v75h-229l-57 -237l87 52z
" />
    <glyph glyph-name="uni2157" unicode="&#x2157;" horiz-adv-x="900" 
d="M668 700l-520 -700h103l520 700h-103zM155 484q47 0 84.5 13t59 37.5t21.5 57.5q0 47 -36 81t-102 34q-62 0 -100.5 -35t-38.5 -89h80q0 24 17 39t42 15q27 0 40 -13.5t13 -35.5q0 -17 -10 -31t-28 -22.5t-42 -8.5v-42zM178 271q71 0 112.5 34.5t41.5 88.5q0 42 -23 68
t-63 38.5t-91 12.5v-46q30 0 50.5 -7.5t31 -22t10.5 -35.5q0 -29 -18.5 -44t-47.5 -15t-50 16.5t-21 46.5h-85q0 -35 18.5 -66t53 -50t81.5 -19zM866 133q0 44 -17.5 75t-46.5 47.5t-63 16.5q-30 0 -57 -9t-51 -34l-57 -48q32 18 60 24t54 6q34 0 59.5 -17.5t25.5 -52.5
q0 -34 -22.5 -52.5t-62.5 -18.5q-26 0 -55 15t-51 38l-41 -67q27 -27 65.5 -46t96.5 -19q41 0 78 15t61 47t24 80zM694 343h166v75h-229l-57 -237l87 52z" />
    <glyph glyph-name="uni2158" unicode="&#x2158;" horiz-adv-x="969" 
d="M720 700l-520 -700h104l520 700h-104zM24 358h365v73h-100l-10 -9h-184zM112 378l131 186v-178l-8 -6v-100h88v420h-58l-241 -342zM939 133q0 43 -17 74.5t-46 48t-63 16.5q-30 0 -57.5 -9.5t-50.5 -34.5l-58 -47q32 18 60 24t54 6q35 0 60.5 -17.5t25.5 -52.5
t-22.5 -53.5t-63.5 -18.5q-26 0 -55 15t-51 38l-40 -67q27 -26 65.5 -45.5t96.5 -19.5q41 0 78 15.5t60.5 47.5t23.5 80zM768 343h165v75h-229l-57 -237l87 51z" />
    <glyph glyph-name="uni2159" unicode="&#x2159;" horiz-adv-x="828" 
d="M602 700l-520 -700h104l520 700h-104zM26 584l100 27v-337h84v427l-184 -39v-78zM561 142q0 24 10 42.5t28 28.5t40 10q23 0 40.5 -10t27.5 -28.5t10 -42.5q0 -35 -22 -57t-56 -22q-33 0 -55.5 22t-22.5 57zM646 417l-127 -167q-17 -22 -29.5 -49t-12.5 -59
q0 -48 22 -82.5t59 -52.5t81 -18q46 0 82.5 18t58.5 52.5t22 82.5q0 42 -19 72.5t-48 47.5t-62 17q-21 0 -36.5 -5t-30.5 -21l15 5l134 159h-109z" />
    <glyph glyph-name="uni215A" unicode="&#x215a;" horiz-adv-x="907" 
d="M694 700l-520 -700h104l520 700h-104zM354 413q0 44 -17 75t-46 47.5t-63 16.5q-30 0 -57.5 -9t-50.5 -34l-58 -48q32 18 60 24t54 6q35 0 60.5 -17.5t25.5 -52.5q0 -34 -22.5 -52.5t-63.5 -18.5q-26 0 -55 15t-51 38l-40 -67q27 -27 65.5 -46t96.5 -19q41 0 78 15
t60.5 47t23.5 80zM183 623h165v75h-229l-57 -237l87 52zM640 142q0 24 10.5 42.5t28 28.5t40.5 10q22 0 39.5 -10t27.5 -28.5t10 -42.5q0 -35 -22 -57t-55 -22q-34 0 -56.5 22t-22.5 57zM726 417l-128 -167q-17 -22 -29.5 -49t-12.5 -59q0 -48 22 -82.5t59 -52.5t82 -18
t81.5 18t58.5 52.5t22 82.5q0 42 -19 72.5t-48 47.5t-61 17q-22 0 -37.5 -5t-30.5 -21l15 5l134 159h-108z" />
    <glyph glyph-name="oneeighth" unicode="&#x215b;" horiz-adv-x="850" 
d="M602 700l-520 -700h104l520 700h-104zM26 584l100 27v-337h84v427l-184 -39v-78zM537 319q0 -36 19 -61t50 -37.5t65 -12.5q35 0 65.5 12.5t49.5 37.5t19 61q0 34 -18 58.5t-49 38t-67 13.5q-37 0 -67.5 -13.5t-48.5 -38t-18 -58.5zM618 310q0 25 14.5 39.5t38.5 14.5
q23 0 37.5 -14.5t14.5 -39.5q0 -16 -6.5 -28t-18.5 -19t-27 -7t-27 7t-19 19t-7 28zM522 114q0 -36 20 -64t54.5 -43.5t74.5 -15.5t74 15.5t54.5 43.5t20.5 64q0 32 -13.5 55t-35.5 38t-48 22.5t-52 7.5t-52.5 -7.5t-48.5 -22.5t-35 -38t-13 -55zM607 126q0 18 9 32.5
t23 22.5t32 8q17 0 31.5 -8t23.5 -22.5t9 -32.5q0 -31 -19 -47.5t-45 -16.5t-45 16.5t-19 47.5z" />
    <glyph glyph-name="threeeighths" unicode="&#x215c;" horiz-adv-x="920" 
d="M672 700l-520 -700h104l520 700h-104zM155 484q47 0 84.5 13t59 37.5t21.5 57.5q0 47 -36 81t-102 34q-62 0 -100.5 -35t-38.5 -89h80q0 24 17 39t42 15q27 0 40 -13.5t13 -35.5q0 -17 -10 -31t-28 -22.5t-42 -8.5v-42zM178 271q71 0 112.5 34.5t41.5 88.5q0 42 -23 68
t-63 38.5t-91 12.5v-46q30 0 50.5 -7.5t31 -22t10.5 -35.5q0 -29 -18.5 -44t-47.5 -15t-50 16.5t-21 46.5h-85q0 -35 18.5 -66t53 -50t81.5 -19zM606 319q0 -36 19 -61t50 -37.5t65 -12.5q35 0 65.5 12.5t49.5 37.5t19 61q0 34 -18 58.5t-48.5 38t-67.5 13.5
q-36 0 -66.5 -13.5t-49 -38t-18.5 -58.5zM688 310q0 25 14.5 39.5t37.5 14.5q24 0 38.5 -14.5t14.5 -39.5q0 -16 -6.5 -28t-19 -19t-27.5 -7q-14 0 -26 7t-19 19t-7 28zM591 114q0 -36 20.5 -64t55 -43.5t73.5 -15.5q41 0 75 15.5t54 43.5t20 64q0 32 -13 55t-35 38
t-48.5 22.5t-52.5 7.5t-52 -7.5t-48 -22.5t-35.5 -38t-13.5 -55zM676 126q0 18 9 32.5t23.5 22.5t31.5 8q18 0 32 -8t23 -22.5t9 -32.5q0 -31 -19 -47.5t-45 -16.5q-25 0 -44.5 16.5t-19.5 47.5z" />
    <glyph glyph-name="fiveeighths" unicode="&#x215d;" horiz-adv-x="942" 
d="M694 700l-520 -700h104l520 700h-104zM350 413q0 44 -17.5 75t-46 47.5t-63.5 16.5q-30 0 -57 -9t-50 -34l-58 -48q32 18 60 24t54 6q34 0 60 -17.5t26 -52.5q0 -34 -23 -52.5t-63 -18.5q-26 0 -55 15t-51 38l-40 -67q27 -27 65.5 -46t96.5 -19q41 0 77.5 15t60.5 47
t24 80zM178 623h166v75h-229l-57 -237l87 52zM629 319q0 -36 19 -61t50 -37.5t65 -12.5q35 0 65.5 12.5t49.5 37.5t19 61q0 34 -18 58.5t-49 38t-67 13.5q-37 0 -67.5 -13.5t-48.5 -38t-18 -58.5zM710 310q0 25 14.5 39.5t38.5 14.5q23 0 37.5 -14.5t14.5 -39.5
q0 -16 -6.5 -28t-18.5 -19t-27 -7t-27 7t-19 19t-7 28zM614 114q0 -36 20 -64t54.5 -43.5t74.5 -15.5t74 15.5t54.5 43.5t20.5 64q0 32 -13.5 55t-35.5 38t-48 22.5t-52 7.5t-52.5 -7.5t-48.5 -22.5t-35 -38t-13 -55zM699 126q0 18 9 32.5t23 22.5t32 8q17 0 31.5 -8
t23.5 -22.5t9 -32.5q0 -31 -19 -47.5t-45 -16.5t-45 16.5t-19 47.5z" />
    <glyph glyph-name="seveneighths" unicode="&#x215e;" horiz-adv-x="832" 
d="M580 700l-520 -700h104l520 700h-104zM25 620h202l-168 -340h91l203 420h-328v-80zM519 319q0 -36 19 -61t50 -37.5t65 -12.5q35 0 65.5 12.5t49.5 37.5t19 61q0 34 -18 58.5t-49 38t-67 13.5q-37 0 -67.5 -13.5t-48.5 -38t-18 -58.5zM600 310q0 25 14.5 39.5t38.5 14.5
q23 0 37.5 -14.5t14.5 -39.5q0 -16 -6.5 -28t-18.5 -19t-27 -7t-27 7t-19 19t-7 28zM504 114q0 -36 20 -64t54.5 -43.5t74.5 -15.5t74 15.5t54.5 43.5t20.5 64q0 32 -13.5 55t-35.5 38t-48 22.5t-52 7.5t-52.5 -7.5t-48.5 -22.5t-35 -38t-13 -55zM589 126q0 18 9 32.5
t23 22.5t32 8q17 0 31.5 -8t23.5 -22.5t9 -32.5q0 -31 -19 -47.5t-45 -16.5t-45 16.5t-19 47.5z" />
    <glyph glyph-name="partialdiff" unicode="&#x2202;" horiz-adv-x="594" 
d="M295 -14q75 0 133 33t91.5 90.5t33.5 131.5q0 42 -12.5 88t-38 94.5t-64 100.5t-90 108.5t-115.5 116.5l-92 -69q48 -38 89.5 -76.5t76 -78.5t63.5 -81.5t51 -85.5l44 -1q-97 111 -214 111q-62 0 -109 -29t-74 -80t-27 -118q0 -75 32.5 -132.5t90 -90t131.5 -32.5z
M297 100q-37 0 -64.5 17t-43 46t-15.5 67t16 67.5t43.5 46.5t63.5 17q35 0 62.5 -17t43.5 -46.5t16 -67.5t-15.5 -67t-43 -46t-63.5 -17z" />
    <glyph glyph-name="emptyset" unicode="&#x2205;" horiz-adv-x="600" 
d="M299 24q60 0 110 29.5t79.5 79t29.5 109.5q0 61 -29.5 110.5t-79.5 79t-110 29.5t-109.5 -29.5t-79 -79t-29.5 -110.5q0 -60 29.5 -109.5t79 -79t109.5 -29.5zM299 111q-36 0 -65.5 18t-47 47.5t-17.5 66.5q0 36 17.5 65.5t47 47t65.5 17.5q37 0 66.5 -17.5t47.5 -47
t18 -66.5q0 -34 -18 -63.5t-47.5 -48.5t-66.5 -19zM128 25l390 388l-48 47l-389 -388z" />
    <glyph glyph-name="product" unicode="&#x220f;" horiz-adv-x="600" 
d="M138 0h110v597h104v-597h110v597h79v103h-482v-103h79v-597z" />
    <glyph glyph-name="summation" unicode="&#x2211;" horiz-adv-x="600" 
d="M100 0h400v108h-224l117 244l-117 240h224v108h-400l170 -348z" />
    <glyph glyph-name="minus" unicode="&#x2212;" horiz-adv-x="592" 
d="M61 181h470v113h-470v-113z" />
    <glyph glyph-name="uni2215" unicode="&#x2215;" horiz-adv-x="579" 
d="M439 700l-424 -850h129l420 850h-125z" />
    <glyph glyph-name="uni2219" unicode="&#x2219;" horiz-adv-x="315" 
d="M76 434q0 -32 23.5 -56t58.5 -24q36 0 59 24t23 56q0 34 -23 57.5t-59 23.5q-35 0 -58.5 -23.5t-23.5 -57.5z" />
    <glyph glyph-name="radical" unicode="&#x221a;" horiz-adv-x="600" 
d="M244 -197l-140 401l82 -33l-129 -36l-27 89l150 46l87 -286l-57 35l140 681h167v-105h-162l89 77z" />
    <glyph glyph-name="infinity" unicode="&#x221e;" horiz-adv-x="789" 
d="M203 35q95 0 192 120q48 -60 95.5 -90t95.5 -30t89.5 27.5t66.5 71.5t25 96q0 53 -25 96.5t-66.5 70.5t-89.5 27q-95 0 -191 -121q-97 121 -192 121q-48 0 -89.5 -27t-66.5 -70.5t-25 -96.5q0 -52 25 -96t66.5 -71.5t89.5 -27.5zM221 138q-22 0 -41.5 13.5t-31.5 34
t-12 44.5q0 25 12 45t31.5 33t41.5 13q29 0 59 -23.5t56 -67.5q-27 -44 -56.5 -68t-58.5 -24zM569 138q-29 0 -59 24.5t-57 67.5q27 44 57 67.5t59 23.5q22 0 41 -13t31 -33t12 -45q0 -24 -12 -44.5t-31 -34t-41 -13.5z" />
    <glyph glyph-name="integral" unicode="&#x222b;" horiz-adv-x="600" 
d="M196 -200q45 -1 79.5 19.5t54.5 57.5t23 88l35 635q3 37 15.5 57t33.5 20q10 0 20 -5.5t25 -20.5l53 93q-33 27 -59.5 38t-55.5 11q-66 2 -108.5 -43t-48.5 -122l-35 -636q-2 -35 -15 -55t-34 -20q-10 0 -20 5.5t-25 19.5l-54 -93q34 -26 60.5 -37t55.5 -12z" />
    <glyph glyph-name="approxequal" unicode="&#x2248;" horiz-adv-x="600" 
d="M403 338q-28 0 -59.5 12.5t-66.5 36.5q-27 19 -48 27.5t-40 8.5q-29 0 -39 -20.5t2 -56.5l-105 5q-13 42 4 80t54 62.5t85 24.5q30 0 61 -11.5t67 -36.5q26 -17 44.5 -25.5t31.5 -8.5q23 0 30.5 21t-5.5 53l108 -5q11 -44 -3.5 -82t-46 -61.5t-74.5 -23.5zM403 88
q-28 0 -59.5 12.5t-66.5 36.5q-27 19 -48 27.5t-40 8.5q-29 0 -39 -20.5t2 -56.5l-105 5q-13 42 4 80t54 62.5t85 24.5q30 0 61 -11.5t67 -36.5q26 -17 44.5 -25.5t31.5 -8.5q23 0 30.5 21t-5.5 53l108 -5q11 -44 -3.5 -82t-46 -61.5t-74.5 -23.5z" />
    <glyph glyph-name="notequal" unicode="&#x2260;" horiz-adv-x="600" 
d="M244 8l-103 46l237 476l104 -46zM59 114v114h505v-114h-505zM59 303v113h505v-113h-505z" />
    <glyph glyph-name="lessequal" unicode="&#x2264;" horiz-adv-x="600" 
d="M51 4v115h512v-115h-512zM561 147l-510 216v83l510 216v-127l-321 -126l321 -135v-127z" />
    <glyph glyph-name="greaterequal" unicode="&#x2265;" horiz-adv-x="600" 
d="M65 4v115h512v-115h-512zM65 147v127l321 127l-321 134v127l510 -216v-83z" />
    <glyph glyph-name="lozenge" unicode="&#x25ca;" horiz-adv-x="600" 
d="M306 15l-206 341l206 340l194 -340zM302 220l79 136l-79 136l-83 -136z" />
    <glyph glyph-name="uniFF10" unicode="&#xff10;" horiz-adv-x="614" 
d="M164 350q0 53 10 96.5t29 75t45 48.5t59 17t59 -17t44.5 -48.5t29 -75t10.5 -96.5t-10.5 -96.5t-29 -75t-44.5 -48.5t-59 -17t-59 17t-45 48.5t-29 75t-10 96.5zM25 350q0 -111 35.5 -192t99 -125.5t147.5 -44.5q85 0 148.5 44.5t98 125.5t34.5 192t-34.5 192t-98 125.5
t-148.5 44.5q-84 0 -147.5 -44.5t-99 -125.5t-35.5 -192z" />
    <glyph glyph-name="uniFF11" unicode="&#xff11;" horiz-adv-x="614" 
d="M111 518l168 44v-562h138v712l-306 -65v-129z" />
    <glyph glyph-name="uniFF12" unicode="&#xff12;" horiz-adv-x="614" 
d="M17 0h563v131h-293l182 172q44 40 71 86.5t27 101.5q0 40 -15.5 79t-46 71.5t-77 52t-109.5 19.5q-85 0 -144.5 -35.5t-90.5 -95.5t-31 -135h140q0 42 15.5 74t43 49.5t64.5 17.5q26 0 45.5 -8.5t32.5 -22.5t19.5 -32t6.5 -37q0 -27 -10.5 -52t-29.5 -50t-45 -54z" />
    <glyph glyph-name="uniFF13" unicode="&#xff13;" horiz-adv-x="614" 
d="M272 341q79 0 141 21t98 61.5t36 97.5q0 53 -27 96t-78.5 69t-124.5 26q-69 0 -121 -27t-81 -73.5t-29 -106.5h132q0 39 28.5 64.5t70.5 25.5q30 0 49 -10t29 -29t10 -44q0 -20 -9.5 -38.5t-26.5 -33t-41.5 -22.5t-55.5 -8v-69zM311 -14q79 0 136 25.5t88.5 71.5
t31.5 106q0 53 -22 90.5t-62 62t-93.5 35.5t-117.5 11v-76q37 0 65.5 -7.5t48 -21.5t29.5 -34.5t10 -44.5q0 -33 -14 -55t-38.5 -33.5t-57.5 -11.5q-32 0 -59 12.5t-43 36.5t-16 58h-141q0 -45 17.5 -85.5t50.5 -72t80 -49.5t107 -18z" />
    <glyph glyph-name="uniFF14" unicode="&#xff14;" horiz-adv-x="614" 
d="M14 129h578v122h-158l-17 -15h-286zM151 164l205 308v-296l-13 -11v-165h147v700h-97l-379 -571z" />
    <glyph glyph-name="uniFF15" unicode="&#xff15;" horiz-adv-x="614" 
d="M572 226q0 72 -29 123.5t-77 79.5t-105 28q-51 0 -96.5 -16t-83.5 -57l-97 -78q36 20 68.5 30.5t63.5 15t60 4.5q38 0 70 -13.5t52 -39.5t20 -64q0 -39 -17 -65.5t-48.5 -40.5t-76.5 -14q-30 0 -62 11.5t-61.5 31.5t-53.5 45l-68 -111q30 -29 68 -53.5t88.5 -39.5
t114.5 -15q51 0 99 14t87 43t61.5 74t22.5 107zM286 576h276v124h-382l-96 -394l146 85z" />
    <glyph glyph-name="uniFF16" unicode="&#xff16;" horiz-adv-x="614" 
d="M177 241q0 39 17 69.5t46.5 47t66.5 16.5t66.5 -16.5t46.5 -47t17 -69.5q0 -40 -17 -69.5t-46.5 -46t-66.5 -16.5t-66.5 16.5t-46.5 46t-17 69.5zM319 698l-213 -278q-30 -38 -49.5 -82.5t-19.5 -96.5q0 -82 36 -139t97.5 -86.5t136.5 -29.5t136 29.5t97.5 86.5t36.5 139
q0 51 -18 93t-48.5 72t-68.5 46t-79 16q-36 0 -62 -8t-51 -35l25 9l224 264h-180z" />
    <glyph glyph-name="uniFF17" unicode="&#xff17;" horiz-adv-x="614" 
d="M45 566h335l-280 -566h153l337 700h-545v-134z" />
    <glyph glyph-name="uniFF18" unicode="&#xff18;" horiz-adv-x="614" 
d="M93 531q0 -46 18.5 -80.5t50 -57.5t71.5 -35t83 -12t83 12t71.5 35t50 57.5t18.5 80.5q0 56 -30.5 97t-81 63.5t-111.5 22.5q-62 0 -112.5 -22.5t-80.5 -63.5t-30 -97zM227 517q0 26 11.5 47t31.5 32t46 11t46 -11t31 -32t11 -47q0 -27 -12 -47t-31.5 -31.5t-44.5 -11.5
t-45 11.5t-32 31.5t-12 47zM68 190q0 -46 19.5 -83.5t54 -64.5t79.5 -41.5t95 -14.5t94.5 14.5t79 41.5t54.5 64.5t20 83.5q0 53 -22 91.5t-58.5 63.5t-80.5 37t-87 12t-87 -12t-80.5 -37t-58.5 -63.5t-22 -91.5zM209 211q0 29 14.5 53t39 38t53.5 14q28 0 52.5 -14
t39.5 -38t15 -53q0 -35 -15 -58.5t-39.5 -36t-52.5 -12.5q-29 0 -53.5 12.5t-39 36t-14.5 58.5z" />
    <glyph glyph-name="uniFF19" unicode="&#xff19;" horiz-adv-x="614" 
d="M437 459q0 -39 -17 -69t-46.5 -47t-66.5 -17t-66.5 17t-46.5 47t-17 69q0 40 17 69.5t46.5 46t66.5 16.5t66.5 -16.5t46.5 -46t17 -69.5zM295 2l212 278q30 38 50 82.5t20 96.5q0 82 -36.5 139t-97.5 86.5t-136 29.5t-136.5 -29.5t-97.5 -86.5t-36 -139q0 -51 17.5 -93
t48 -72t69 -46t78.5 -16q37 0 62.5 8.5t51.5 34.5l-26 -9l-224 -264h181z" />
    <glyph glyph-name="a.alt" 
d="M414 460v-460h127v460h-127zM33 230q0 -76 31 -130t82 -82t108 -28q58 0 102.5 29t70 83t25.5 128q0 75 -25.5 128.5t-70 82.5t-102.5 29q-57 0 -108 -28t-82 -81.5t-31 -130.5zM167 230q0 41 17 71t46 46t62 16q29 0 56.5 -15.5t45 -45.5t17.5 -72t-17.5 -72t-45 -45.5
t-56.5 -15.5q-33 0 -62 16t-46 46t-17 71z" />
    <glyph glyph-name="agrave.alt" 
d="M414 460v-460h127v460h-127zM33 230q0 -76 31 -130t82 -82t108 -28q58 0 102.5 29t70 83t25.5 128q0 75 -25.5 128.5t-70 82.5t-102.5 29q-57 0 -108 -28t-82 -81.5t-31 -130.5zM167 230q0 41 17 71t46 46t62 16q29 0 56.5 -15.5t45 -45.5t17.5 -72t-17.5 -72t-45 -45.5
t-56.5 -15.5q-33 0 -62 16t-46 46t-17 71zM126 680l180 -150l73 39l-150 160z" />
    <glyph glyph-name="aacute.alt" 
d="M414 460v-460h127v460h-127zM33 230q0 -76 31 -130t82 -82t108 -28q58 0 102.5 29t70 83t25.5 128q0 75 -25.5 128.5t-70 82.5t-102.5 29q-57 0 -108 -28t-82 -81.5t-31 -130.5zM167 230q0 41 17 71t46 46t62 16q29 0 56.5 -15.5t45 -45.5t17.5 -72t-17.5 -72t-45 -45.5
t-56.5 -15.5q-33 0 -62 16t-46 46t-17 71zM432 680l-103 49l-150 -160l73 -39z" />
    <glyph glyph-name="acircumflex.alt" 
d="M414 460v-460h127v460h-127zM33 230q0 -76 31 -130t82 -82t108 -28q58 0 102.5 29t70 83t25.5 128q0 75 -25.5 128.5t-70 82.5t-102.5 29q-57 0 -108 -28t-82 -81.5t-31 -130.5zM167 230q0 41 17 71t46 46t62 16q29 0 56.5 -15.5t45 -45.5t17.5 -72t-17.5 -72t-45 -45.5
t-56.5 -15.5q-33 0 -62 16t-46 46t-17 71zM304 619l98 -89l88 62l-186 140l-185 -140l88 -62z" />
    <glyph glyph-name="atilde.alt" 
d="M414 460v-460h127v460h-127zM33 230q0 -76 31 -130t82 -82t108 -28q58 0 102.5 29t70 83t25.5 128q0 75 -25.5 128.5t-70 82.5t-102.5 29q-57 0 -108 -28t-82 -81.5t-31 -130.5zM167 230q0 41 17 71t46 46t62 16q29 0 56.5 -15.5t45 -45.5t17.5 -72t-17.5 -72t-45 -45.5
t-56.5 -15.5q-33 0 -62 16t-46 46t-17 71zM122 587l66 -54q0 8 4 20t14.5 21.5t29.5 9.5q24 0 44 -13t41.5 -25.5t48.5 -12.5q29 0 54.5 12.5t44 31.5t26.5 37l-63 65q-15 -24 -30 -38t-32 -14q-21 0 -35.5 8t-27 17.5t-29.5 17.5t-41 8q-28 0 -53 -13t-41 -33t-21 -45z" />
    <glyph glyph-name="adieresis.alt" 
d="M414 460v-460h127v460h-127zM33 230q0 -76 31 -130t82 -82t108 -28q58 0 102.5 29t70 83t25.5 128q0 75 -25.5 128.5t-70 82.5t-102.5 29q-57 0 -108 -28t-82 -81.5t-31 -130.5zM167 230q0 41 17 71t46 46t62 16q29 0 56.5 -15.5t45 -45.5t17.5 -72t-17.5 -72t-45 -45.5
t-56.5 -15.5q-33 0 -62 16t-46 46t-17 71zM337 604q0 -32 23 -53t55 -21q33 0 55.5 21t22.5 53t-22.5 52.5t-55.5 20.5q-32 0 -55 -20.5t-23 -52.5zM107 604q0 -32 23 -53t55 -21q33 0 55.5 21t22.5 53t-22.5 52.5t-55.5 20.5q-32 0 -55 -20.5t-23 -52.5z" />
    <glyph glyph-name="aring.alt" 
d="M414 460v-460h127v460h-127zM33 230q0 -76 31 -130t82 -82t108 -28q58 0 102.5 29t70 83t25.5 128q0 75 -25.5 128.5t-70 82.5t-102.5 29q-57 0 -108 -28t-82 -81.5t-31 -130.5zM167 230q0 41 17 71t46 46t62 16q29 0 56.5 -15.5t45 -45.5t17.5 -72t-17.5 -72t-45 -45.5
t-56.5 -15.5q-33 0 -62 16t-46 46t-17 71zM182 641q0 -49 35 -80t83 -31t83 31t35 80q0 50 -35 80.5t-83 30.5t-83 -30.5t-35 -80.5zM252 641q0 23 14.5 36.5t33.5 13.5t33.5 -13t14.5 -37q0 -23 -14.5 -36t-33.5 -13t-33.5 13t-14.5 36z" />
    <glyph glyph-name="amacron.alt" 
d="M414 460v-460h127v460h-127zM33 230q0 -76 31 -130t82 -82t108 -28q58 0 102.5 29t70 83t25.5 128q0 75 -25.5 128.5t-70 82.5t-102.5 29q-57 0 -108 -28t-82 -81.5t-31 -130.5zM167 230q0 41 17 71t46 46t62 16q29 0 56.5 -15.5t45 -45.5t17.5 -72t-17.5 -72t-45 -45.5
t-56.5 -15.5q-33 0 -62 16t-46 46t-17 71zM116 530h365v114h-365v-114z" />
    <glyph glyph-name="abreve.alt" 
d="M414 460v-460h127v460h-127zM33 230q0 -76 31 -130t82 -82t108 -28q58 0 102.5 29t70 83t25.5 128q0 75 -25.5 128.5t-70 82.5t-102.5 29q-57 0 -108 -28t-82 -81.5t-31 -130.5zM167 230q0 41 17 71t46 46t62 16q29 0 56.5 -15.5t45 -45.5t17.5 -72t-17.5 -72t-45 -45.5
t-56.5 -15.5q-33 0 -62 16t-46 46t-17 71zM126 675q0 -39 19 -72t55.5 -53t88.5 -20q53 0 89 20t54.5 53t18.5 72h-90q0 -16 -8 -31t-24 -24.5t-40 -9.5q-25 0 -41 9.5t-23.5 24.5t-7.5 31h-91z" />
    <glyph glyph-name="aogonek.alt" 
d="M414 460v-460h127v460h-127zM33 230q0 -76 31 -130t82 -82t108 -28q58 0 102.5 29t70 83t25.5 128q0 75 -25.5 128.5t-70 82.5t-102.5 29q-57 0 -108 -28t-82 -81.5t-31 -130.5zM167 230q0 41 17 71t46 46t62 16q29 0 56.5 -15.5t45 -45.5t17.5 -72t-17.5 -72t-45 -45.5
t-56.5 -15.5q-33 0 -62 16t-46 46t-17 71zM524 -117q-10 -10 -21.5 -15t-28.5 -5q-19 0 -29 10t-10 31q0 17 10.5 34t29 33t44.5 29l-41 25q-35 -18 -66 -39.5t-50.5 -47.5t-19.5 -58q0 -31 15 -54t41.5 -34.5t62.5 -11.5q38 0 61.5 12.5t34.5 27.5z" />
    </font>
</defs>
</svg>
